<?xml version="1.0" standalone="no"?>
<!DOCTYPE svg PUBLIC "-//W3C//DTD SVG 1.1//EN" "http://www.w3.org/Graphics/SVG/1.1/DTD/svg11.dtd" >
<svg xmlns="http://www.w3.org/2000/svg" xmlns:xlink="http://www.w3.org/1999/xlink" version="1.1">
<metadata>
Created by FontForge 20170924 at Mon Jul 24 21:10:42 2017
 By www-data
Copyright 2017 The Exo Project Authors (https://github.com/NDISCOVER/Exo-1.0)
</metadata>
<defs>
<font id="Exo-Medium" horiz-adv-x="609" >
  <font-face 
    font-family="Exo Medium"
    font-weight="500"
    font-stretch="normal"
    units-per-em="1000"
    panose-1="0 0 6 0 0 0 0 0 0 0"
    ascent="800"
    descent="-200"
    x-height="535"
    cap-height="737"
    bbox="-514 -270 1337 1108"
    underline-thickness="50"
    underline-position="-100"
    unicode-range="U+000D-FB04"
  />
<missing-glyph horiz-adv-x="655" 
d="M599 539v-544h-543v544h543zM548 488h-441v-441h441v441zM328 223l-123 -123l-44 44l123 123l-123 123l44 44l123 -123l123 123l44 -44l-123 -123l123 -123l-44 -44z" />
    <glyph glyph-name="f_f" unicode="ff" horiz-adv-x="774" 
d="M605.5 664q-16.5 -22 -16.5 -71v-58h157v-82h-157v-453h-100v453h-291v-453h-101v453h-80v65l80 17v67q0 89 35 128t117 39q66 0 120 -15v-72q-52 4 -88 4q-48 0 -65.5 -23t-17.5 -74v-54h291v53q0 93 36.5 137t124.5 44q50 0 105 -11v-72h-87q-46 0 -62.5 -22z" />
    <glyph glyph-name="f_f_i" unicode="ffi" horiz-adv-x="1014" 
d="M944 0h-100v453h-259v-453h-101v453h-286v-453h-101v453h-80v65l80 17v67q0 89 35 128t117 39q66 0 120 -15v-72q-52 4 -88 4q-48 0 -65.5 -23t-17.5 -74v-54h286v67q0 89 35 128t117 39q66 0 120 -15v-72q-52 4 -88 4q-48 0 -65.5 -23t-17.5 -74v-54h359v-535zM944 739
q4 -5 4 -13v-84q0 -17 -16 -17h-74q-8 0 -13 4.5t-5 12.5v84q0 18 18 18h74q8 0 12 -5z" />
    <glyph glyph-name="f_f_l" unicode="ffl" horiz-adv-x="1074" 
d="M1063 72v-72h-70q-76 0 -112.5 40.5t-36.5 132.5v510q-73 3 -146 3q-65 0 -89 -23t-24 -74v-54h156v-82h-156v-453h-101v453h-286v-453h-101v453h-80v65l80 17v67q0 89 35 128t117 39q66 0 120 -15v-72q-52 4 -88 4q-48 0 -65.5 -23t-17.5 -74v-54h286v58q0 94 46.5 135
t153.5 41q122 0 260 -23v-559q0 -59 16.5 -81.5t52.5 -27.5z" />
    <glyph glyph-name="fi" unicode="fi" horiz-adv-x="627" 
d="M557 0h-100v453h-259v-453h-101v453h-80v65l80 17v67q0 89 35 128t117 39q66 0 120 -15v-72q-52 4 -88 4q-48 0 -65.5 -23t-17.5 -74v-54h359v-535zM557 739q4 -5 4 -13v-84q0 -17 -16 -17h-74q-8 0 -13 4.5t-5 12.5v84q0 18 18 18h74q8 0 12 -5z" />
    <glyph glyph-name="fl" unicode="fl" horiz-adv-x="687" 
d="M676 72v-72h-70q-76 0 -112.5 40.5t-36.5 132.5v510q-74 3 -146 3q-65 0 -89 -23t-24 -74v-54h156v-82h-156v-453h-101v453h-80v65l80 17v58q0 94 46.5 135t153.5 41q122 0 260 -23v-559q0 -59 16.5 -81.5t52.5 -27.5z" />
    <glyph glyph-name=".notdef" horiz-adv-x="655" 
d="M599 539v-544h-543v544h543zM548 488h-441v-441h441v441zM328 223l-123 -123l-44 44l123 123l-123 123l44 44l123 -123l123 123l44 -44l-123 -123l123 -123l-44 -44z" />
    <glyph glyph-name="NULL" horiz-adv-x="0" 
 />
    <glyph glyph-name="nonmarkingreturn" unicode="&#xd;" horiz-adv-x="267" 
 />
    <glyph glyph-name="space" unicode=" " horiz-adv-x="267" 
 />
    <glyph glyph-name="A" unicode="A" horiz-adv-x="678" 
d="M275 737h128l246 -737h-105l-65 193h-282l-64 -193h-104zM454 284l-116 366l-117 -366h233z" />
    <glyph glyph-name="Aacute" unicode="&#xc1;" horiz-adv-x="678" 
d="M275 737h128l246 -737h-105l-65 193h-282l-64 -193h-104zM454 284l-116 366l-117 -366h233zM410 929h84l-122 -138h-59z" />
    <glyph glyph-name="Abreve" unicode="&#x102;" horiz-adv-x="678" 
d="M275 737h128l246 -737h-105l-65 193h-282l-64 -193h-104zM454 284l-116 366l-117 -366h233zM234 822q-36 35 -36 110h47q0 -50 23.5 -74t60.5 -24q88 0 88 98h49q0 -76 -36.5 -110.5t-98.5 -34.5q-61 0 -97 35z" />
    <glyph glyph-name="uni1EAE" unicode="&#x1eae;" horiz-adv-x="678" 
d="M275 737h128l246 -737h-105l-65 193h-282l-64 -193h-104zM454 284l-116 366l-117 -366h233zM394 1043h84l-122 -138h-59zM269 838.5q23 -17.5 59 -17.5q42 0 65.5 16.5t23.5 55.5h49q0 -60 -36.5 -87.5t-98.5 -27.5q-61 0 -97 28t-36 87h48q0 -37 23 -54.5z" />
    <glyph glyph-name="uni1EB6" unicode="&#x1eb6;" horiz-adv-x="678" 
d="M275 737h128l246 -737h-105l-65 193h-282l-64 -193h-104zM454 284l-116 366l-117 -366h233zM234 822q-36 35 -36 110h47q0 -50 23.5 -74t60.5 -24q88 0 88 98h49q0 -76 -36.5 -110.5t-98.5 -34.5q-61 0 -97 35zM300.5 -210.5q-4.5 4.5 -4.5 12.5v84q0 18 17 18h47
q17 0 17 -18v-84q0 -8 -4.5 -12.5t-12.5 -4.5h-47q-8 0 -12.5 4.5z" />
    <glyph glyph-name="uni1EB0" unicode="&#x1eb0;" horiz-adv-x="678" 
d="M275 737h128l246 -737h-105l-65 193h-282l-64 -193h-104zM454 284l-116 366l-117 -366h233zM193 1043h83l98 -138h-59zM269 838.5q23 -17.5 59 -17.5q42 0 65.5 16.5t23.5 55.5h49q0 -60 -36.5 -87.5t-98.5 -27.5q-61 0 -97 28t-36 87h48q0 -37 23 -54.5z" />
    <glyph glyph-name="uni1EB2" unicode="&#x1eb2;" horiz-adv-x="678" 
d="M275 737h128l246 -737h-105l-65 193h-282l-64 -193h-104zM454 284l-116 366l-117 -366h233zM313 909q27 8 39 22t12 31q0 19 -10 29t-34 10q-18 0 -34 -6v41q20 7 47 7q42 0 63.5 -20.5t21.5 -57.5q0 -72 -105 -102v46zM234 806q-36 28 -36 87h48q0 -37 23 -54.5
t59 -17.5q42 0 65.5 16.5t23.5 55.5h49q0 -60 -36.5 -87.5t-98.5 -27.5q-61 0 -97 28z" />
    <glyph glyph-name="uni1EB4" unicode="&#x1eb4;" horiz-adv-x="678" 
d="M275 737h128l246 -737h-105l-65 193h-282l-64 -193h-104zM454 284l-116 366l-117 -366h233zM294.5 1012q16.5 -5 40.5 -16q19 -8 32 -12.5t27 -4.5q22 0 35.5 10.5t13.5 30.5h51q-3 -48 -23.5 -69.5t-60.5 -21.5q-18 0 -34.5 5t-40.5 15q-22 9 -35 13.5t-26 4.5
q-21 0 -34 -10.5t-14 -28.5h-51q5 89 84 89q19 0 35.5 -5zM269 838.5q23 -17.5 59 -17.5q42 0 65.5 16.5t23.5 55.5h49q0 -60 -36.5 -87.5t-98.5 -27.5q-61 0 -97 28t-36 87h48q0 -37 23 -54.5z" />
    <glyph glyph-name="Acircumflex" unicode="&#xc2;" horiz-adv-x="678" 
d="M275 737h128l246 -737h-105l-65 193h-282l-64 -193h-104zM454 284l-116 366l-117 -366h233zM306 928h70l107 -137h-60l-84 91l-91 -91h-60z" />
    <glyph glyph-name="uni1EA4" unicode="&#x1ea4;" horiz-adv-x="678" 
d="M275 737h128l246 -737h-105l-65 193h-282l-64 -193h-104zM454 284l-116 366l-117 -366h233zM583 999l-99 -129h-59l74 129h84zM376 893l107 -102h-60l-84 55l-91 -55h-60l118 102h70z" />
    <glyph glyph-name="uni1EAC" unicode="&#x1eac;" horiz-adv-x="678" 
d="M275 737h128l246 -737h-105l-65 193h-282l-64 -193h-104zM454 284l-116 366l-117 -366h233zM306 928h70l107 -137h-60l-84 91l-91 -91h-60zM300.5 -210.5q-4.5 4.5 -4.5 12.5v84q0 18 17 18h47q17 0 17 -18v-84q0 -8 -4.5 -12.5t-12.5 -4.5h-47q-8 0 -12.5 4.5z" />
    <glyph glyph-name="uni1EA6" unicode="&#x1ea6;" horiz-adv-x="678" 
d="M275 737h128l246 -737h-105l-65 193h-282l-64 -193h-104zM454 284l-116 366l-117 -366h233zM177 999l75 -129h-59l-100 129h84zM376 893l107 -102h-60l-84 55l-91 -55h-60l118 102h70z" />
    <glyph glyph-name="uni1EA8" unicode="&#x1ea8;" horiz-adv-x="678" 
d="M275 737h128l246 -737h-105l-65 193h-282l-64 -193h-104zM454 284l-116 366l-117 -366h233zM448 889q44 13 44 45q0 17 -8.5 25t-27.5 8q-11 0 -35 -6v36q24 8 48 8q36 0 54.5 -17.5t18.5 -47.5q0 -70 -94 -96v45zM306 893h70l107 -102h-60l-84 55l-91 -55h-60z" />
    <glyph glyph-name="uni1EAA" unicode="&#x1eaa;" horiz-adv-x="678" 
d="M275 737h128l246 -737h-105l-65 193h-282l-64 -193h-104zM454 284l-116 366l-117 -366h233zM294.5 1021q16.5 -5 40.5 -16q19 -8 32 -12.5t27 -4.5q22 0 35.5 10.5t13.5 30.5h51q-3 -48 -23.5 -69.5t-60.5 -21.5q-29 0 -77 20q-22 9 -36.5 13.5t-27.5 4.5
q-18 0 -30 -10.5t-13 -28.5h-51q5 89 84 89q19 0 35.5 -5zM483 791h-60l-84 55l-91 -55h-60l118 102h70z" />
    <glyph glyph-name="uni0200" unicode="&#x200;" horiz-adv-x="678" 
d="M275 737h128l246 -737h-105l-65 193h-282l-64 -193h-104zM454 284l-116 366l-117 -366h233zM125 929h83l98 -138h-59zM281 929h83l98 -138h-59z" />
    <glyph glyph-name="Adieresis" unicode="&#xc4;" horiz-adv-x="678" 
d="M275 737h128l246 -737h-105l-65 193h-282l-64 -193h-104zM454 284l-116 366l-117 -366h233zM180.5 813q-4.5 5 -4.5 12v84q0 18 17 18h47q17 0 17 -18v-84q0 -8 -4.5 -12.5t-12.5 -4.5h-47q-8 0 -12.5 5zM409 813q-5 5 -5 12v84q0 18 18 18h46q17 0 17 -18v-84
q0 -8 -4.5 -12.5t-12.5 -4.5h-46q-8 0 -13 5z" />
    <glyph glyph-name="uni1EA0" unicode="&#x1ea0;" horiz-adv-x="678" 
d="M275 737h128l246 -737h-105l-65 193h-282l-64 -193h-104zM454 284l-116 366l-117 -366h233zM300.5 -210.5q-4.5 4.5 -4.5 12.5v84q0 18 17 18h47q17 0 17 -18v-84q0 -8 -4.5 -12.5t-12.5 -4.5h-47q-8 0 -12.5 4.5z" />
    <glyph glyph-name="Agrave" unicode="&#xc0;" horiz-adv-x="678" 
d="M275 737h128l246 -737h-105l-65 193h-282l-64 -193h-104zM454 284l-116 366l-117 -366h233zM196 929h83l98 -138h-59z" />
    <glyph glyph-name="uni1EA2" unicode="&#x1ea2;" horiz-adv-x="678" 
d="M275 737h128l246 -737h-105l-65 193h-282l-64 -193h-104zM454 284l-116 366l-117 -366h233zM314 815q27 8 39 22t12 31q0 19 -10 29t-34 10q-17 0 -34 -6v41q20 7 47 7q42 0 63.5 -20.5t21.5 -57.5q0 -72 -105 -102v46z" />
    <glyph glyph-name="uni0202" unicode="&#x202;" horiz-adv-x="678" 
d="M275 737h128l246 -737h-105l-65 193h-282l-64 -193h-104zM454 284l-116 366l-117 -366h233zM433 898q36 -35 36 -110h-47q0 51 -24 74.5t-60 23.5q-88 0 -88 -98h-49q0 76 36.5 110.5t98.5 34.5q61 0 97 -35z" />
    <glyph glyph-name="Amacron" unicode="&#x100;" horiz-adv-x="678" 
d="M275 737h128l246 -737h-105l-65 193h-282l-64 -193h-104zM454 284l-116 366l-117 -366h233zM197 884h270v-60h-270v60z" />
    <glyph glyph-name="Aogonek" unicode="&#x104;" horiz-adv-x="678" 
d="M275 737h128l246 -737h-105l-65 193h-282l-64 -193h-104zM454 284l-116 366l-117 -366h233zM499.5 -162.5q-27.5 25.5 -27.5 63.5q0 31 18 56.5t54 42.5h38q-59 -33 -59 -77q0 -28 20 -44t55 -16h8v-49q-16 -2 -28 -2q-51 0 -78.5 25.5z" />
    <glyph glyph-name="Aring" unicode="&#xc5;" horiz-adv-x="678" 
d="M275 737h128l246 -737h-105l-65 193h-282l-64 -193h-104zM454 284l-116 366l-117 -366h233zM251.5 790q-28.5 25 -28.5 84t28.5 84.5t87.5 25.5q58 0 85.5 -25t27.5 -85t-27.5 -84.5t-85.5 -24.5q-59 0 -87.5 25zM389 820q15 15 15 54t-15 54.5t-50 15.5q-36 0 -52 -15.5
t-16 -54.5t16 -54t52 -15q35 0 50 15z" />
    <glyph glyph-name="Aringacute" unicode="&#x1fa;" horiz-adv-x="678" 
d="M251.5 790q-28.5 25 -28.5 84q0 55 24.5 80.5t74.5 29.5l88 124h84l-113 -128q36 -8 53.5 -33t17.5 -73q0 -60 -27.5 -84.5t-85.5 -24.5q-59 0 -87.5 25zM287 928.5q-16 -15.5 -16 -54.5t16 -54t52 -15q35 0 50 15t15 54t-15 54.5t-50 15.5q-36 0 -52 -15.5zM649 0h-105
l-65 193h-282l-64 -193h-104l246 737h128zM454 284l-116 366l-117 -366h233z" />
    <glyph glyph-name="Atilde" unicode="&#xc3;" horiz-adv-x="678" 
d="M275 737h128l246 -737h-105l-65 193h-282l-64 -193h-104zM454 284l-116 366l-117 -366h233zM191 887.5q28 27.5 68 27.5q23 0 43 -8t45 -23q22 -13 36 -19t29 -6q25 0 39.5 15.5t15.5 44.5h51q-1 -56 -27 -86.5t-72 -30.5q-22 0 -41.5 8t-44.5 23q-21 13 -36.5 19.5
t-30.5 6.5q-23 0 -38 -15t-16 -43h-51q2 59 30 86.5z" />
    <glyph glyph-name="AE" unicode="&#xc6;" horiz-adv-x="969" 
d="M520 23.5q-39 27.5 -43 93.5v75h-231l-118 -192h-99l339 585q44 82 101 117t149 35q117 0 297 -11v-82h-278q-38 0 -53.5 -15t-15.5 -48v-169l303 -6v-78l-303 -7v-151q0 -45 22.5 -62.5t67.5 -17.5h257v-82q-172 -12 -280 -12q-76 0 -115 27.5zM477 278v321l-186 -321
h186z" />
    <glyph glyph-name="AEacute" unicode="&#x1fc;" horiz-adv-x="969" 
d="M520 23.5q-39 27.5 -43 93.5v75h-231l-118 -192h-99l339 585q44 82 101 117t149 35q117 0 297 -11v-82h-278q-38 0 -53.5 -15t-15.5 -48v-169l303 -6v-78l-303 -7v-151q0 -45 22.5 -62.5t67.5 -17.5h257v-82q-172 -12 -280 -12q-76 0 -115 27.5zM477 278v321l-186 -321
h186zM603 929h84l-122 -138h-59z" />
    <glyph glyph-name="B" unicode="B" horiz-adv-x="611" 
d="M73 737h274q196 0 196 -190q0 -66 -28.5 -109t-74.5 -55q51 -13 90 -57t39 -122q0 -111 -53 -157.5t-158 -46.5h-285v737zM350 417q44 0 70.5 33t26.5 89q0 108 -101 108h-172v-230h176zM355 90q57 0 87.5 29.5t30.5 101.5q0 55 -33.5 86.5t-84.5 31.5h-181v-249h181z
" />
    <glyph glyph-name="uni1E02" unicode="&#x1e02;" horiz-adv-x="611" 
d="M73 737h274q196 0 196 -190q0 -66 -28.5 -109t-74.5 -55q51 -13 90 -57t39 -122q0 -111 -53 -157.5t-158 -46.5h-285v737zM350 417q44 0 70.5 33t26.5 89q0 108 -101 108h-172v-230h176zM355 90q57 0 87.5 29.5t30.5 101.5q0 55 -33.5 86.5t-84.5 31.5h-181v-249h181z
M255.5 820q-4.5 5 -4.5 12v84q0 18 17 18h47q17 0 17 -18v-84q0 -8 -4.5 -12.5t-12.5 -4.5h-47q-8 0 -12.5 5z" />
    <glyph glyph-name="C" unicode="C" horiz-adv-x="582" 
d="M166.5 23.5q-55.5 29.5 -83.5 111t-28 236.5q0 147 29 228t86 112.5t151 31.5q52 0 112 -8.5t106 -20.5v-76q-32 5 -88 10t-112 5q-71 0 -109.5 -22.5t-56.5 -83t-18 -177.5q0 -120 17 -180.5t55 -83t111 -22.5q121 0 201 12v-77q-100 -25 -222 -25q-95 0 -150.5 29.5z
" />
    <glyph glyph-name="Cacute" unicode="&#x106;" horiz-adv-x="582" 
d="M166.5 23.5q-55.5 29.5 -83.5 111t-28 236.5q0 147 29 228t86 112.5t151 31.5q52 0 112 -8.5t106 -20.5v-76q-32 5 -88 10t-112 5q-71 0 -109.5 -22.5t-56.5 -83t-18 -177.5q0 -120 17 -180.5t55 -83t111 -22.5q121 0 201 12v-77q-100 -25 -222 -25q-95 0 -150.5 29.5z
M393 929h84l-122 -138h-59z" />
    <glyph glyph-name="Ccaron" unicode="&#x10c;" horiz-adv-x="582" 
d="M166.5 23.5q-55.5 29.5 -83.5 111t-28 236.5q0 147 29 228t86 112.5t151 31.5q52 0 112 -8.5t106 -20.5v-76q-32 5 -88 10t-112 5q-71 0 -109.5 -22.5t-56.5 -83t-18 -177.5q0 -120 17 -180.5t55 -83t111 -22.5q121 0 201 12v-77q-100 -25 -222 -25q-95 0 -150.5 29.5z
M177 928h60l84 -90l90 90h61l-118 -137h-70z" />
    <glyph glyph-name="Ccedilla" unicode="&#xc7;" horiz-adv-x="582" 
d="M229.5 630.5q-38.5 -22.5 -56.5 -83t-18 -177.5q0 -120 17 -180.5t55 -83t111 -22.5q121 0 201 12v-77q-80 -20 -178 -24l-31 -48q71 -6 71 -65q0 -36 -25.5 -55t-73.5 -19h-38v41l21 2q51 6 51 42q0 38 -60 42l38 59q-94 1 -148.5 30.5t-82.5 111t-28 235.5
q0 147 29 228t86 112.5t151 31.5q52 0 112 -8.5t106 -20.5v-76q-32 5 -88 10t-112 5q-71 0 -109.5 -22.5z" />
    <glyph glyph-name="uni1E08" unicode="&#x1e08;" horiz-adv-x="582" 
d="M355 791h-59l97 138h84zM229.5 630.5q-38.5 -22.5 -56.5 -83t-18 -177.5q0 -120 17 -180.5t55 -83t111 -22.5q121 0 201 12v-77q-80 -20 -178 -24l-31 -48q71 -6 71 -65q0 -36 -25.5 -55t-73.5 -19h-38v41l21 2q51 6 51 42q0 38 -60 42l38 59q-94 1 -148.5 30.5
t-82.5 111t-28 235.5q0 147 29 228t86 112.5t151 31.5q52 0 112 -8.5t106 -20.5v-76q-32 5 -88 10t-112 5q-71 0 -109.5 -22.5z" />
    <glyph glyph-name="Ccircumflex" unicode="&#x108;" horiz-adv-x="582" 
d="M166.5 23.5q-55.5 29.5 -83.5 111t-28 236.5q0 147 29 228t86 112.5t151 31.5q52 0 112 -8.5t106 -20.5v-76q-32 5 -88 10t-112 5q-71 0 -109.5 -22.5t-56.5 -83t-18 -177.5q0 -120 17 -180.5t55 -83t111 -22.5q121 0 201 12v-77q-100 -25 -222 -25q-95 0 -150.5 29.5z
M289 928h70l107 -137h-60l-84 91l-91 -91h-60z" />
    <glyph glyph-name="Cdotaccent" unicode="&#x10a;" horiz-adv-x="582" 
d="M166.5 23.5q-55.5 29.5 -83.5 111t-28 236.5q0 147 29 228t86 112.5t151 31.5q52 0 112 -8.5t106 -20.5v-76q-32 5 -88 10t-112 5q-71 0 -109.5 -22.5t-56.5 -83t-18 -177.5q0 -120 17 -180.5t55 -83t111 -22.5q121 0 201 12v-77q-100 -25 -222 -25q-95 0 -150.5 29.5z
M283.5 820q-4.5 5 -4.5 12v84q0 18 17 18h47q17 0 17 -18v-84q0 -8 -4.5 -12.5t-12.5 -4.5h-47q-8 0 -12.5 5z" />
    <glyph glyph-name="D" unicode="D" horiz-adv-x="673" 
d="M73 737h298q133 0 190 -93t57 -276q0 -179 -62.5 -273.5t-184.5 -94.5h-298v737zM362 90q155 0 155 278q0 105 -16.5 166t-50 87t-88.5 26h-188v-557h188z" />
    <glyph glyph-name="Eth" unicode="&#xd0;" horiz-adv-x="673" 
d="M561 644q57 -93 57 -276q0 -179 -62.5 -273.5t-184.5 -94.5h-298v339h-59v67h59v331h298q133 0 190 -93zM517 368q0 105 -16.5 166t-50 87t-88.5 26h-188v-241h153v-67h-153v-249h188q155 0 155 278z" />
    <glyph glyph-name="Dcaron" unicode="&#x10e;" horiz-adv-x="673" 
d="M73 737h298q133 0 190 -93t57 -276q0 -179 -62.5 -273.5t-184.5 -94.5h-298v737zM362 90q155 0 155 278q0 105 -16.5 166t-50 87t-88.5 26h-188v-557h188zM177 928h60l84 -90l90 90h61l-118 -137h-70z" />
    <glyph glyph-name="Dcroat" unicode="&#x110;" horiz-adv-x="673" 
d="M561 644q57 -93 57 -276q0 -179 -62.5 -273.5t-184.5 -94.5h-298v339h-59v67h59v331h298q133 0 190 -93zM517 368q0 105 -16.5 166t-50 87t-88.5 26h-188v-241h153v-67h-153v-249h188q155 0 155 278z" />
    <glyph glyph-name="uni1E0A" unicode="&#x1e0a;" horiz-adv-x="673" 
d="M73 737h298q133 0 190 -93t57 -276q0 -179 -62.5 -273.5t-184.5 -94.5h-298v737zM362 90q155 0 155 278q0 105 -16.5 166t-50 87t-88.5 26h-188v-557h188zM283.5 820q-4.5 5 -4.5 12v84q0 18 17 18h47q17 0 17 -18v-84q0 -8 -4.5 -12.5t-12.5 -4.5h-47q-8 0 -12.5 5z" />
    <glyph glyph-name="uni1E0C" unicode="&#x1e0c;" horiz-adv-x="673" 
d="M73 737h298q133 0 190 -93t57 -276q0 -179 -62.5 -273.5t-184.5 -94.5h-298v737zM362 90q155 0 155 278q0 105 -16.5 166t-50 87t-88.5 26h-188v-557h188zM263.5 -210.5q-4.5 4.5 -4.5 12.5v84q0 18 17 18h47q17 0 17 -18v-84q0 -8 -4.5 -12.5t-12.5 -4.5h-47
q-8 0 -12.5 4.5z" />
    <glyph glyph-name="uni1E0E" unicode="&#x1e0e;" horiz-adv-x="673" 
d="M73 737h298q133 0 190 -93t57 -276q0 -179 -62.5 -273.5t-184.5 -94.5h-298v737zM362 90q155 0 155 278q0 105 -16.5 166t-50 87t-88.5 26h-188v-557h188zM164 -136h270v-60h-270v60z" />
    <glyph glyph-name="E" unicode="E" horiz-adv-x="590" 
d="M119 26q-46 30 -46 119v438q0 81 44 117.5t106 36.5q119 0 269 -8l45 -2v-83h-284q-79 0 -79 -79v-153l318 -6v-78l-318 -7v-151q0 -47 22 -63.5t59 -16.5h282v-83q-172 -11 -306 -11q-66 0 -112 30z" />
    <glyph glyph-name="Eacute" unicode="&#xc9;" horiz-adv-x="590" 
d="M119 26q-46 30 -46 119v438q0 81 44 117.5t106 36.5q119 0 269 -8l45 -2v-83h-284q-79 0 -79 -79v-153l318 -6v-78l-318 -7v-151q0 -47 22 -63.5t59 -16.5h282v-83q-172 -11 -306 -11q-66 0 -112 30zM384 929h84l-122 -138h-59z" />
    <glyph glyph-name="Ebreve" unicode="&#x114;" horiz-adv-x="590" 
d="M119 26q-46 30 -46 119v438q0 81 44 117.5t106 36.5q119 0 269 -8l45 -2v-83h-284q-79 0 -79 -79v-153l318 -6v-78l-318 -7v-151q0 -47 22 -63.5t59 -16.5h282v-83q-172 -11 -306 -11q-66 0 -112 30zM208 822q-36 35 -36 110h47q0 -50 23.5 -74t60.5 -24q88 0 88 98h49
q0 -76 -36.5 -110.5t-98.5 -34.5q-61 0 -97 35z" />
    <glyph glyph-name="Ecaron" unicode="&#x11a;" horiz-adv-x="590" 
d="M119 26q-46 30 -46 119v438q0 81 44 117.5t106 36.5q119 0 269 -8l45 -2v-83h-284q-79 0 -79 -79v-153l318 -6v-78l-318 -7v-151q0 -47 22 -63.5t59 -16.5h282v-83q-172 -11 -306 -11q-66 0 -112 30zM168 928h60l84 -90l90 90h61l-118 -137h-70z" />
    <glyph glyph-name="uni1E1C" unicode="&#x1e1c;" horiz-adv-x="590" 
d="M208 822q-36 35 -36 110h47q0 -50 24 -74t60 -24q88 0 88 98h49q0 -76 -36.5 -110.5t-98.5 -34.5q-61 0 -97 35zM174 565v-153l318 -6v-78l-318 -7v-151q0 -47 22 -63.5t59 -16.5h282v-83q-83 -6 -185 -9l-33 -51q71 -6 71 -65q0 -36 -25.5 -55t-73.5 -19h-38v41l21 2
q51 6 51 42q0 38 -60 42l40 62l-74 -1q-66 0 -112 30t-46 119v438q0 81 44 117.5t106 36.5q119 0 269 -8l45 -2v-83h-284q-79 0 -79 -79z" />
    <glyph glyph-name="Ecircumflex" unicode="&#xca;" horiz-adv-x="590" 
d="M119 26q-46 30 -46 119v438q0 81 44 117.5t106 36.5q119 0 269 -8l45 -2v-83h-284q-79 0 -79 -79v-153l318 -6v-78l-318 -7v-151q0 -47 22 -63.5t59 -16.5h282v-83q-172 -11 -306 -11q-66 0 -112 30zM280 928h70l107 -137h-60l-84 91l-91 -91h-60z" />
    <glyph glyph-name="uni1EBE" unicode="&#x1ebe;" horiz-adv-x="590" 
d="M119 26q-46 30 -46 119v438q0 81 44 117.5t106 36.5q119 0 269 -8l45 -2v-83h-284q-79 0 -79 -79v-153l318 -6v-78l-318 -7v-151q0 -47 22 -63.5t59 -16.5h282v-83q-172 -11 -306 -11q-66 0 -112 30zM557 999l-99 -129h-59l74 129h84zM350 893l107 -102h-60l-84 55
l-91 -55h-60l118 102h70z" />
    <glyph glyph-name="uni1EC6" unicode="&#x1ec6;" horiz-adv-x="590" 
d="M119 26q-46 30 -46 119v438q0 81 44 117.5t106 36.5q119 0 269 -8l45 -2v-83h-284q-79 0 -79 -79v-153l318 -6v-78l-318 -7v-151q0 -47 22 -63.5t59 -16.5h282v-83q-172 -11 -306 -11q-66 0 -112 30zM280 928h70l107 -137h-60l-84 91l-91 -91h-60zM286.5 -210.5
q-4.5 4.5 -4.5 12.5v84q0 18 17 18h47q17 0 17 -18v-84q0 -8 -4.5 -12.5t-12.5 -4.5h-47q-8 0 -12.5 4.5z" />
    <glyph glyph-name="uni1EC0" unicode="&#x1ec0;" horiz-adv-x="590" 
d="M119 26q-46 30 -46 119v438q0 81 44 117.5t106 36.5q119 0 269 -8l45 -2v-83h-284q-79 0 -79 -79v-153l318 -6v-78l-318 -7v-151q0 -47 22 -63.5t59 -16.5h282v-83q-172 -11 -306 -11q-66 0 -112 30zM151 999l75 -129h-59l-100 129h84zM350 893l107 -102h-60l-84 55
l-91 -55h-60l118 102h70z" />
    <glyph glyph-name="uni1EC2" unicode="&#x1ec2;" horiz-adv-x="590" 
d="M119 26q-46 30 -46 119v438q0 81 44 117.5t106 36.5q119 0 269 -8l45 -2v-83h-284q-79 0 -79 -79v-153l318 -6v-78l-318 -7v-151q0 -47 22 -63.5t59 -16.5h282v-83q-172 -11 -306 -11q-66 0 -112 30zM422 889q44 13 44 45q0 17 -8.5 25t-27.5 8q-11 0 -35 -6v36
q24 8 48 8q36 0 54.5 -17.5t18.5 -47.5q0 -70 -94 -96v45zM280 893h70l107 -102h-60l-84 55l-91 -55h-60z" />
    <glyph glyph-name="uni1EC4" unicode="&#x1ec4;" horiz-adv-x="590" 
d="M119 26q-46 30 -46 119v438q0 81 44 117.5t106 36.5q119 0 269 -8l45 -2v-83h-284q-79 0 -79 -79v-153l318 -6v-78l-318 -7v-151q0 -47 22 -63.5t59 -16.5h282v-83q-172 -11 -306 -11q-66 0 -112 30zM268.5 1021q16.5 -5 40.5 -16q19 -8 32 -12.5t27 -4.5q22 0 35.5 10.5
t13.5 30.5h51q-3 -48 -23.5 -69.5t-60.5 -21.5q-29 0 -77 20q-22 9 -36.5 13.5t-27.5 4.5q-18 0 -30 -10.5t-13 -28.5h-51q5 89 84 89q19 0 35.5 -5zM457 791h-60l-84 55l-91 -55h-60l118 102h70z" />
    <glyph glyph-name="uni0204" unicode="&#x204;" horiz-adv-x="590" 
d="M119 26q-46 30 -46 119v438q0 81 44 117.5t106 36.5q119 0 269 -8l45 -2v-83h-284q-79 0 -79 -79v-153l318 -6v-78l-318 -7v-151q0 -47 22 -63.5t59 -16.5h282v-83q-172 -11 -306 -11q-66 0 -112 30zM99 929h83l98 -138h-59zM255 929h83l98 -138h-59z" />
    <glyph glyph-name="Edieresis" unicode="&#xcb;" horiz-adv-x="590" 
d="M119 26q-46 30 -46 119v438q0 81 44 117.5t106 36.5q119 0 269 -8l45 -2v-83h-284q-79 0 -79 -79v-153l318 -6v-78l-318 -7v-151q0 -47 22 -63.5t59 -16.5h282v-83q-172 -11 -306 -11q-66 0 -112 30zM154.5 813q-4.5 5 -4.5 12v84q0 18 17 18h47q17 0 17 -18v-84
q0 -8 -4.5 -12.5t-12.5 -4.5h-47q-8 0 -12.5 5zM383 813q-5 5 -5 12v84q0 18 18 18h46q17 0 17 -18v-84q0 -8 -4.5 -12.5t-12.5 -4.5h-46q-8 0 -13 5z" />
    <glyph glyph-name="Edotaccent" unicode="&#x116;" horiz-adv-x="590" 
d="M119 26q-46 30 -46 119v438q0 81 44 117.5t106 36.5q119 0 269 -8l45 -2v-83h-284q-79 0 -79 -79v-153l318 -6v-78l-318 -7v-151q0 -47 22 -63.5t59 -16.5h282v-83q-172 -11 -306 -11q-66 0 -112 30zM274.5 820q-4.5 5 -4.5 12v84q0 18 17 18h47q17 0 17 -18v-84
q0 -8 -4.5 -12.5t-12.5 -4.5h-47q-8 0 -12.5 5z" />
    <glyph glyph-name="uni1EB8" unicode="&#x1eb8;" horiz-adv-x="590" 
d="M119 26q-46 30 -46 119v438q0 81 44 117.5t106 36.5q119 0 269 -8l45 -2v-83h-284q-79 0 -79 -79v-153l318 -6v-78l-318 -7v-151q0 -47 22 -63.5t59 -16.5h282v-83q-172 -11 -306 -11q-66 0 -112 30zM286.5 -210.5q-4.5 4.5 -4.5 12.5v84q0 18 17 18h47q17 0 17 -18v-84
q0 -8 -4.5 -12.5t-12.5 -4.5h-47q-8 0 -12.5 4.5z" />
    <glyph glyph-name="Egrave" unicode="&#xc8;" horiz-adv-x="590" 
d="M119 26q-46 30 -46 119v438q0 81 44 117.5t106 36.5q119 0 269 -8l45 -2v-83h-284q-79 0 -79 -79v-153l318 -6v-78l-318 -7v-151q0 -47 22 -63.5t59 -16.5h282v-83q-172 -11 -306 -11q-66 0 -112 30zM170 929h83l98 -138h-59z" />
    <glyph glyph-name="uni1EBA" unicode="&#x1eba;" horiz-adv-x="590" 
d="M119 26q-46 30 -46 119v438q0 81 44 117.5t106 36.5q119 0 269 -8l45 -2v-83h-284q-79 0 -79 -79v-153l318 -6v-78l-318 -7v-151q0 -47 22 -63.5t59 -16.5h282v-83q-172 -11 -306 -11q-66 0 -112 30zM288 815q27 8 39 22t12 31q0 19 -10 29t-34 10q-17 0 -34 -6v41
q20 7 47 7q42 0 63.5 -20.5t21.5 -57.5q0 -72 -105 -102v46z" />
    <glyph glyph-name="uni0206" unicode="&#x206;" horiz-adv-x="590" 
d="M119 26q-46 30 -46 119v438q0 81 44 117.5t106 36.5q119 0 269 -8l45 -2v-83h-284q-79 0 -79 -79v-153l318 -6v-78l-318 -7v-151q0 -47 22 -63.5t59 -16.5h282v-83q-172 -11 -306 -11q-66 0 -112 30zM407 898q36 -35 36 -110h-47q0 51 -24 74.5t-60 23.5q-88 0 -88 -98
h-49q0 76 36.5 110.5t98.5 34.5q61 0 97 -35z" />
    <glyph glyph-name="Emacron" unicode="&#x112;" horiz-adv-x="590" 
d="M119 26q-46 30 -46 119v438q0 81 44 117.5t106 36.5q119 0 269 -8l45 -2v-83h-284q-79 0 -79 -79v-153l318 -6v-78l-318 -7v-151q0 -47 22 -63.5t59 -16.5h282v-83q-172 -11 -306 -11q-66 0 -112 30zM171 884h270v-60h-270v60z" />
    <glyph glyph-name="uni1E16" unicode="&#x1e16;" horiz-adv-x="590" 
d="M119 26q-46 30 -46 119v438q0 81 44 117.5t106 36.5q119 0 269 -8l45 -2v-83h-284q-79 0 -79 -79v-153l318 -6v-78l-318 -7v-151q0 -47 22 -63.5t59 -16.5h282v-83q-172 -11 -306 -11q-66 0 -112 30zM171 884h270v-60h-270v60zM378 1063h84l-122 -138h-59z" />
    <glyph glyph-name="uni1E14" unicode="&#x1e14;" horiz-adv-x="590" 
d="M119 26q-46 30 -46 119v438q0 81 44 117.5t106 36.5q119 0 269 -8l45 -2v-83h-284q-79 0 -79 -79v-153l318 -6v-78l-318 -7v-151q0 -47 22 -63.5t59 -16.5h282v-83q-172 -11 -306 -11q-66 0 -112 30zM171 884h270v-60h-270v60zM156 1063h83l98 -138h-59z" />
    <glyph glyph-name="Eogonek" unicode="&#x118;" horiz-adv-x="590" 
d="M561 -130v-49q-16 -2 -28 -2q-51 0 -78.5 25.5t-27.5 63.5q0 30 17 54.5t50 41.5q-168 -8 -263 -8q-66 0 -112 30t-46 119v438q0 81 44 117.5t106 36.5q119 0 269 -8l45 -2v-83h-284q-79 0 -79 -79v-153l318 -6v-78l-318 -7v-151q0 -47 22 -63.5t59 -16.5h282v-83
q-59 -33 -59 -77q0 -28 20 -44t55 -16h8z" />
    <glyph glyph-name="uni1EBC" unicode="&#x1ebc;" horiz-adv-x="590" 
d="M119 26q-46 30 -46 119v438q0 81 44 117.5t106 36.5q119 0 269 -8l45 -2v-83h-284q-79 0 -79 -79v-153l318 -6v-78l-318 -7v-151q0 -47 22 -63.5t59 -16.5h282v-83q-172 -11 -306 -11q-66 0 -112 30zM165 887.5q28 27.5 68 27.5q23 0 43 -8t45 -23q22 -13 36 -19t29 -6
q25 0 39.5 15.5t15.5 44.5h51q-1 -56 -27 -86.5t-72 -30.5q-22 0 -41.5 8t-44.5 23q-21 13 -36.5 19.5t-30.5 6.5q-23 0 -38 -15t-16 -43h-51q2 59 30 86.5z" />
    <glyph glyph-name="F" unicode="F" horiz-adv-x="572" 
d="M73 583q0 81 44 117.5t106 36.5q182 0 314 -11v-82h-286q-37 0 -57 -20.5t-20 -57.5v-171l318 -6v-78l-318 -6v-305h-101v583z" />
    <glyph glyph-name="uni1E1E" unicode="&#x1e1e;" horiz-adv-x="572" 
d="M73 583q0 81 44 117.5t106 36.5q182 0 314 -11v-82h-286q-37 0 -57 -20.5t-20 -57.5v-171l318 -6v-78l-318 -6v-305h-101v583zM274.5 820q-4.5 5 -4.5 12v84q0 18 17 18h47q17 0 17 -18v-84q0 -8 -4.5 -12.5t-12.5 -4.5h-47q-8 0 -12.5 5z" />
    <glyph glyph-name="G" unicode="G" horiz-adv-x="657" 
d="M145.5 36q-50.5 41 -70.5 122t-20 212q0 130 22 210.5t78 121.5t156 41q121 0 241 -27v-77q-115 14 -224 14q-70 0 -107 -27.5t-51.5 -88t-14.5 -168.5q0 -113 14.5 -173t49 -84.5t99.5 -24.5q77 0 169 33v195h-164v77q65 10 167 10q44 0 94 -4v-398h-75l-15 51
q-41 -22 -95.5 -39t-111.5 -17q-91 0 -141.5 41z" />
    <glyph glyph-name="Gbreve" unicode="&#x11e;" horiz-adv-x="657" 
d="M145.5 36q-50.5 41 -70.5 122t-20 212q0 130 22 210.5t78 121.5t156 41q121 0 241 -27v-77q-115 14 -224 14q-70 0 -107 -27.5t-51.5 -88t-14.5 -168.5q0 -113 14.5 -173t49 -84.5t99.5 -24.5q77 0 169 33v195h-164v77q65 10 167 10q44 0 94 -4v-398h-75l-15 51
q-41 -22 -95.5 -39t-111.5 -17q-91 0 -141.5 41zM223 822q-36 35 -36 110h47q0 -50 23.5 -74t60.5 -24q88 0 88 98h49q0 -76 -36.5 -110.5t-98.5 -34.5q-61 0 -97 35z" />
    <glyph glyph-name="Gcaron" unicode="&#x1e6;" horiz-adv-x="657" 
d="M145.5 36q-50.5 41 -70.5 122t-20 212q0 130 22 210.5t78 121.5t156 41q121 0 241 -27v-77q-115 14 -224 14q-70 0 -107 -27.5t-51.5 -88t-14.5 -168.5q0 -113 14.5 -173t49 -84.5t99.5 -24.5q77 0 169 33v195h-164v77q65 10 167 10q44 0 94 -4v-398h-75l-15 51
q-41 -22 -95.5 -39t-111.5 -17q-91 0 -141.5 41zM183 928h60l84 -90l90 90h61l-118 -137h-70z" />
    <glyph glyph-name="Gcircumflex" unicode="&#x11c;" horiz-adv-x="657" 
d="M145.5 36q-50.5 41 -70.5 122t-20 212q0 130 22 210.5t78 121.5t156 41q121 0 241 -27v-77q-115 14 -224 14q-70 0 -107 -27.5t-51.5 -88t-14.5 -168.5q0 -113 14.5 -173t49 -84.5t99.5 -24.5q77 0 169 33v195h-164v77q65 10 167 10q44 0 94 -4v-398h-75l-15 51
q-41 -22 -95.5 -39t-111.5 -17q-91 0 -141.5 41zM295 928h70l107 -137h-60l-84 91l-91 -91h-60z" />
    <glyph glyph-name="Gcommaaccent" unicode="&#x122;" horiz-adv-x="657" 
d="M145.5 36q-50.5 41 -70.5 122t-20 212q0 130 22 210.5t78 121.5t156 41q121 0 241 -27v-77q-115 14 -224 14q-70 0 -107 -27.5t-51.5 -88t-14.5 -168.5q0 -113 14.5 -173t49 -84.5t99.5 -24.5q77 0 169 33v195h-164v77q65 10 167 10q44 0 94 -4v-398h-75l-15 51
q-41 -22 -95.5 -39t-111.5 -17q-91 0 -141.5 41zM260 -165l29 5q25 5 38 12.5t19 26t6 55.5h62q0 -53 -9.5 -82.5t-34 -43.5t-68.5 -14h-42v41z" />
    <glyph glyph-name="Gdotaccent" unicode="&#x120;" horiz-adv-x="657" 
d="M145.5 36q-50.5 41 -70.5 122t-20 212q0 130 22 210.5t78 121.5t156 41q121 0 241 -27v-77q-115 14 -224 14q-70 0 -107 -27.5t-51.5 -88t-14.5 -168.5q0 -113 14.5 -173t49 -84.5t99.5 -24.5q77 0 169 33v195h-164v77q65 10 167 10q44 0 94 -4v-398h-75l-15 51
q-41 -22 -95.5 -39t-111.5 -17q-91 0 -141.5 41zM289.5 820q-4.5 5 -4.5 12v84q0 18 17 18h47q17 0 17 -18v-84q0 -8 -4.5 -12.5t-12.5 -4.5h-47q-8 0 -12.5 5z" />
    <glyph glyph-name="uni1E20" unicode="&#x1e20;" horiz-adv-x="657" 
d="M145.5 36q-50.5 41 -70.5 122t-20 212q0 130 22 210.5t78 121.5t156 41q121 0 241 -27v-77q-115 14 -224 14q-70 0 -107 -27.5t-51.5 -88t-14.5 -168.5q0 -113 14.5 -173t49 -84.5t99.5 -24.5q77 0 169 33v195h-164v77q65 10 167 10q44 0 94 -4v-398h-75l-15 51
q-41 -22 -95.5 -39t-111.5 -17q-91 0 -141.5 41zM186 884h270v-60h-270v60z" />
    <glyph glyph-name="H" unicode="H" horiz-adv-x="688" 
d="M73 737h101v-331h341v331h100v-737h-100v316h-341v-316h-101v737z" />
    <glyph glyph-name="Hbar" unicode="&#x126;" horiz-adv-x="688" 
d="M674 523h-59v-523h-100v316h-341v-316h-101v523h-59v54h59v160h101v-160h341v160h100v-160h59v-54zM515 523h-341v-117h341v117z" />
    <glyph glyph-name="uni1E2A" unicode="&#x1e2a;" horiz-adv-x="688" 
d="M73 737h101v-331h341v331h100v-737h-100v316h-341v-316h-101v737zM245 -188q-36 35 -36 110h47q0 -51 23.5 -74.5t60.5 -23.5q88 0 88 98h49q0 -76 -36.5 -110.5t-98.5 -34.5q-61 0 -97 35z" />
    <glyph glyph-name="Hcircumflex" unicode="&#x124;" horiz-adv-x="688" 
d="M73 737h101v-331h341v331h100v-737h-100v316h-341v-316h-101v737zM312 928h70l107 -137h-60l-84 91l-91 -91h-60z" />
    <glyph glyph-name="uni1E24" unicode="&#x1e24;" horiz-adv-x="688" 
d="M73 737h101v-331h341v331h100v-737h-100v316h-341v-316h-101v737zM306.5 -210.5q-4.5 4.5 -4.5 12.5v84q0 18 17 18h47q17 0 17 -18v-84q0 -8 -4.5 -12.5t-12.5 -4.5h-47q-8 0 -12.5 4.5z" />
    <glyph glyph-name="I" unicode="I" horiz-adv-x="247" 
d="M73 737h101v-737h-101v737z" />
    <glyph glyph-name="Iacute" unicode="&#xcd;" horiz-adv-x="247" 
d="M73 737h101v-737h-101v737zM195 929h84l-122 -138h-59z" />
    <glyph glyph-name="Ibreve" unicode="&#x12c;" horiz-adv-x="247" 
d="M73 737h101v-737h-101v737zM19 822q-36 35 -36 110h47q0 -50 23.5 -74t60.5 -24q88 0 88 98h49q0 -76 -36.5 -110.5t-98.5 -34.5q-61 0 -97 35z" />
    <glyph glyph-name="Icircumflex" unicode="&#xce;" horiz-adv-x="247" 
d="M73 737h101v-737h-101v737zM91 928h70l107 -137h-60l-84 91l-91 -91h-60z" />
    <glyph glyph-name="uni0208" unicode="&#x208;" horiz-adv-x="247" 
d="M73 737h101v-737h-101v737zM-90 929h83l98 -138h-59zM66 929h83l98 -138h-59z" />
    <glyph glyph-name="Idieresis" unicode="&#xcf;" horiz-adv-x="247" 
d="M73 737h101v-737h-101v737zM-34.5 813q-4.5 5 -4.5 12v84q0 18 17 18h47q17 0 17 -18v-84q0 -8 -4.5 -12.5t-12.5 -4.5h-47q-8 0 -12.5 5zM194 813q-5 5 -5 12v84q0 18 18 18h46q17 0 17 -18v-84q0 -8 -4.5 -12.5t-12.5 -4.5h-46q-8 0 -13 5z" />
    <glyph glyph-name="uni1E2E" unicode="&#x1e2e;" horiz-adv-x="247" 
d="M73 737h101v-737h-101v737zM-34.5 813q-4.5 5 -4.5 12v84q0 18 17 18h47q17 0 17 -18v-84q0 -8 -4.5 -12.5t-12.5 -4.5h-47q-8 0 -12.5 5zM194 813q-5 5 -5 12v84q0 18 18 18h46q17 0 17 -18v-84q0 -8 -4.5 -12.5t-12.5 -4.5h-46q-8 0 -13 5zM191 1097h84l-122 -138h-59z
" />
    <glyph glyph-name="Idotaccent" unicode="&#x130;" horiz-adv-x="247" 
d="M73 737h101v-737h-101v737zM85.5 820q-4.5 5 -4.5 12v84q0 18 17 18h47q17 0 17 -18v-84q0 -8 -4.5 -12.5t-12.5 -4.5h-47q-8 0 -12.5 5z" />
    <glyph glyph-name="uni1ECA" unicode="&#x1eca;" horiz-adv-x="247" 
d="M73 737h101v-737h-101v737zM85.5 -210.5q-4.5 4.5 -4.5 12.5v84q0 18 17 18h47q17 0 17 -18v-84q0 -8 -4.5 -12.5t-12.5 -4.5h-47q-8 0 -12.5 4.5z" />
    <glyph glyph-name="Igrave" unicode="&#xcc;" horiz-adv-x="247" 
d="M73 737h101v-737h-101v737zM-19 929h83l98 -138h-59z" />
    <glyph glyph-name="uni1EC8" unicode="&#x1ec8;" horiz-adv-x="247" 
d="M73 737h101v-737h-101v737zM99 815q27 8 39 22t12 31q0 19 -10 29t-34 10q-17 0 -34 -6v41q20 7 47 7q42 0 63.5 -20.5t21.5 -57.5q0 -72 -105 -102v46z" />
    <glyph glyph-name="uni020A" unicode="&#x20a;" horiz-adv-x="247" 
d="M73 737h101v-737h-101v737zM218 898q36 -35 36 -110h-47q0 51 -24 74.5t-60 23.5q-88 0 -88 -98h-49q0 76 36.5 110.5t98.5 34.5q61 0 97 -35z" />
    <glyph glyph-name="Imacron" unicode="&#x12a;" horiz-adv-x="247" 
d="M73 737h101v-737h-101v737zM-18 884h270v-60h-270v60z" />
    <glyph glyph-name="Iogonek" unicode="&#x12e;" horiz-adv-x="247" 
d="M73 737h101v-737h-101v737zM91.5 -162.5q-27.5 25.5 -27.5 63.5q0 31 18 56.5t54 42.5h38q-59 -33 -59 -77q0 -28 20 -44t55 -16h8v-49q-16 -2 -28 -2q-51 0 -78.5 25.5z" />
    <glyph glyph-name="Itilde" unicode="&#x128;" horiz-adv-x="247" 
d="M73 737h101v-737h-101v737zM-23 887.5q28 27.5 68 27.5q23 0 43 -8t45 -23q22 -13 36 -19t29 -6q25 0 39.5 15.5t15.5 44.5h51q-1 -56 -27 -86.5t-72 -30.5q-22 0 -41.5 8t-44.5 23q-21 13 -36.5 19.5t-30.5 6.5q-23 0 -38 -15t-16 -43h-51q2 59 30 86.5z" />
    <glyph glyph-name="J" unicode="J" horiz-adv-x="391" 
d="M81 0.5q-32 6.5 -54 15.5v79q62 -11 95 -11q47 0 71 21.5t24 75.5v556h100v-569q0 -92 -42 -133t-132 -41q-30 0 -62 6.5z" />
    <glyph glyph-name="Jcircumflex" unicode="&#x134;" horiz-adv-x="391" 
d="M81 0.5q-32 6.5 -54 15.5v79q62 -11 95 -11q47 0 71 21.5t24 75.5v556h100v-569q0 -92 -42 -133t-132 -41q-30 0 -62 6.5zM235 928h70l107 -137h-60l-84 91l-91 -91h-60z" />
    <glyph glyph-name="K" unicode="K" horiz-adv-x="618" 
d="M73 737h101v-325h120l186 325h107l-214 -369l218 -368h-108l-190 322h-119v-322h-101v737z" />
    <glyph glyph-name="Kcommaaccent" unicode="&#x136;" horiz-adv-x="618" 
d="M73 737h101v-325h120l186 325h107l-214 -369l218 -368h-108l-190 322h-119v-322h-101v737zM218 -165l29 5q25 5 38 12.5t19 26t6 55.5h62q0 -53 -9.5 -82.5t-34 -43.5t-68.5 -14h-42v41z" />
    <glyph glyph-name="L" unicode="L" horiz-adv-x="533" 
d="M113 36q-40 36 -40 120v581h101v-566q0 -45 21 -62t58 -17h255v-92h-279q-76 0 -116 36z" />
    <glyph glyph-name="Lacute" unicode="&#x139;" horiz-adv-x="533" 
d="M113 36q-40 36 -40 120v581h101v-566q0 -45 21 -62t58 -17h255v-92h-279q-76 0 -116 36zM195 929h84l-122 -138h-59z" />
    <glyph glyph-name="Lcaron" unicode="&#x13d;" horiz-adv-x="533" 
d="M113 36q-40 36 -40 120v581h101v-566q0 -45 21 -62t58 -17h255v-92h-279q-76 0 -116 36zM256 722v61h92v-61l-7 -140h-78z" />
    <glyph glyph-name="Lcommaaccent" unicode="&#x13b;" horiz-adv-x="533" 
d="M113 36q-40 36 -40 120v581h101v-566q0 -45 21 -62t58 -17h255v-92h-279q-76 0 -116 36zM194 -165l29 5q25 5 38 12.5t19 26t6 55.5h62q0 -53 -9.5 -82.5t-34 -43.5t-68.5 -14h-42v41z" />
    <glyph glyph-name="Ldot" unicode="&#x13f;" horiz-adv-x="533" 
d="M113 36q-40 36 -40 120v581h101v-566q0 -45 21 -62t58 -17h255v-92h-279q-76 0 -116 36zM360 351q-5 5 -5 12v60q0 18 17 18h57q18 0 18 -18v-60q0 -17 -18 -17h-57q-7 0 -12 5z" />
    <glyph glyph-name="uni1E36" unicode="&#x1e36;" horiz-adv-x="533" 
d="M113 36q-40 36 -40 120v581h101v-566q0 -45 21 -62t58 -17h255v-92h-279q-76 0 -116 36zM240.5 -210.5q-4.5 4.5 -4.5 12.5v84q0 18 17 18h47q17 0 17 -18v-84q0 -8 -4.5 -12.5t-12.5 -4.5h-47q-8 0 -12.5 4.5z" />
    <glyph glyph-name="uni1E3A" unicode="&#x1e3a;" horiz-adv-x="533" 
d="M113 36q-40 36 -40 120v581h101v-566q0 -45 21 -62t58 -17h255v-92h-279q-76 0 -116 36zM141 -136h270v-60h-270v60z" />
    <glyph glyph-name="Lslash" unicode="&#x141;" horiz-adv-x="533" 
d="M508 92v-92h-279q-76 0 -116 36t-40 120v186l-73 -31v57l73 31v338h101v-307l133 58v-56l-133 -58v-203q0 -45 21 -62t58 -17h255z" />
    <glyph glyph-name="M" unicode="M" horiz-adv-x="850" 
d="M700 0l-67 570l-162 -570h-93l-164 567l-64 -567h-97l84 737h100l188 -615l185 615h101l86 -737h-97z" />
    <glyph glyph-name="uni1E40" unicode="&#x1e40;" horiz-adv-x="850" 
d="M700 0l-67 570l-162 -570h-93l-164 567l-64 -567h-97l84 737h100l188 -615l185 615h101l86 -737h-97zM382.5 820q-4.5 5 -4.5 12v84q0 18 17 18h47q17 0 17 -18v-84q0 -8 -4.5 -12.5t-12.5 -4.5h-47q-8 0 -12.5 5z" />
    <glyph glyph-name="uni1E42" unicode="&#x1e42;" horiz-adv-x="850" 
d="M700 0l-67 570l-162 -570h-93l-164 567l-64 -567h-97l84 737h100l188 -615l185 615h101l86 -737h-97zM382.5 -210.5q-4.5 4.5 -4.5 12.5v84q0 18 17 18h47q17 0 17 -18v-84q0 -8 -4.5 -12.5t-12.5 -4.5h-47q-8 0 -12.5 4.5z" />
    <glyph glyph-name="N" unicode="N" horiz-adv-x="689" 
d="M84 737h82l361 -565v565h100v-737h-81l-361 565v-565h-101v737z" />
    <glyph glyph-name="Nacute" unicode="&#x143;" horiz-adv-x="689" 
d="M84 737h82l361 -565v565h100v-737h-81l-361 565v-565h-101v737zM412 929h84l-122 -138h-59z" />
    <glyph glyph-name="Ncaron" unicode="&#x147;" horiz-adv-x="689" 
d="M84 737h82l361 -565v565h100v-737h-81l-361 565v-565h-101v737zM196 928h60l84 -90l90 90h61l-118 -137h-70z" />
    <glyph glyph-name="Ncommaaccent" unicode="&#x145;" horiz-adv-x="689" 
d="M84 737h82l361 -565v565h100v-737h-81l-361 565v-565h-101v737zM256 -165l29 5q25 5 38 12.5t19 26t6 55.5h62q0 -53 -9.5 -82.5t-34 -43.5t-68.5 -14h-42v41z" />
    <glyph glyph-name="uni1E44" unicode="&#x1e44;" horiz-adv-x="689" 
d="M84 737h82l361 -565v565h100v-737h-81l-361 565v-565h-101v737zM302.5 -210.5q-4.5 4.5 -4.5 12.5v84q0 18 17 18h47q17 0 17 -18v-84q0 -8 -4.5 -12.5t-12.5 -4.5h-47q-8 0 -12.5 4.5z" />
    <glyph glyph-name="uni1E46" unicode="&#x1e46;" horiz-adv-x="689" 
d="M84 737h82l361 -565v565h100v-737h-81l-361 565v-565h-101v737zM302.5 -210.5q-4.5 4.5 -4.5 12.5v84q0 18 17 18h47q17 0 17 -18v-84q0 -8 -4.5 -12.5t-12.5 -4.5h-47q-8 0 -12.5 4.5z" />
    <glyph glyph-name="Eng" unicode="&#x14a;" horiz-adv-x="685" 
d="M627 737v-807q0 -91 -44.5 -132t-140.5 -41q-29 0 -61 6.5t-55 15.5v79q64 -11 99 -11q50 0 76 21.5t26 75.5v86l-342 535v-565h-101v737h82l361 -565v565h100z" />
    <glyph glyph-name="uni1E48" unicode="&#x1e48;" horiz-adv-x="689" 
d="M84 737h82l361 -565v565h100v-737h-81l-361 565v-565h-101v737zM203 -136h270v-60h-270v60z" />
    <glyph glyph-name="Ntilde" unicode="&#xd1;" horiz-adv-x="689" 
d="M84 737h82l361 -565v565h100v-737h-81l-361 565v-565h-101v737zM194 887.5q28 27.5 68 27.5q23 0 43 -8t45 -23q22 -13 36 -19t29 -6q25 0 39.5 15.5t15.5 44.5h51q-1 -56 -27 -86.5t-72 -30.5q-22 0 -41.5 8t-44.5 23q-21 13 -36.5 19.5t-30.5 6.5q-23 0 -38 -15
t-16 -43h-51q2 59 30 86.5z" />
    <glyph glyph-name="O" unicode="O" horiz-adv-x="690" 
d="M179 22q-61 28 -92.5 108t-31.5 236t32 237.5t93 110.5t165 29q106 0 167 -29t92.5 -110.5t31.5 -237.5t-31.5 -236t-92.5 -108t-167 -28q-105 0 -166 28zM459 105q40 21 58 81t18 180q0 125 -18 186t-57.5 81t-114.5 20q-72 0 -111.5 -20.5t-59 -81.5t-19.5 -185
q0 -121 17.5 -180.5t57 -80.5t115.5 -21q74 0 114 21z" />
    <glyph glyph-name="Oacute" unicode="&#xd3;" horiz-adv-x="690" 
d="M179 22q-61 28 -92.5 108t-31.5 236t32 237.5t93 110.5t165 29q106 0 167 -29t92.5 -110.5t31.5 -237.5t-31.5 -236t-92.5 -108t-167 -28q-105 0 -166 28zM459 105q40 21 58 81t18 180q0 125 -18 186t-57.5 81t-114.5 20q-72 0 -111.5 -20.5t-59 -81.5t-19.5 -185
q0 -121 17.5 -180.5t57 -80.5t115.5 -21q74 0 114 21zM417 929h84l-122 -138h-59z" />
    <glyph glyph-name="Obreve" unicode="&#x14e;" horiz-adv-x="690" 
d="M179 22q-61 28 -92.5 108t-31.5 236t32 237.5t93 110.5t165 29q106 0 167 -29t92.5 -110.5t31.5 -237.5t-31.5 -236t-92.5 -108t-167 -28q-105 0 -166 28zM459 105q40 21 58 81t18 180q0 125 -18 186t-57.5 81t-114.5 20q-72 0 -111.5 -20.5t-59 -81.5t-19.5 -185
q0 -121 17.5 -180.5t57 -80.5t115.5 -21q74 0 114 21zM241 822q-36 35 -36 110h47q0 -50 23.5 -74t60.5 -24q88 0 88 98h49q0 -76 -36.5 -110.5t-98.5 -34.5q-61 0 -97 35z" />
    <glyph glyph-name="Ocircumflex" unicode="&#xd4;" horiz-adv-x="690" 
d="M179 22q-61 28 -92.5 108t-31.5 236t32 237.5t93 110.5t165 29q106 0 167 -29t92.5 -110.5t31.5 -237.5t-31.5 -236t-92.5 -108t-167 -28q-105 0 -166 28zM459 105q40 21 58 81t18 180q0 125 -18 186t-57.5 81t-114.5 20q-72 0 -111.5 -20.5t-59 -81.5t-19.5 -185
q0 -121 17.5 -180.5t57 -80.5t115.5 -21q74 0 114 21zM313 928h70l107 -137h-60l-84 91l-91 -91h-60z" />
    <glyph glyph-name="uni1ED0" unicode="&#x1ed0;" horiz-adv-x="690" 
d="M179 22q-61 28 -92.5 108t-31.5 236t32 237.5t93 110.5t165 29q106 0 167 -29t92.5 -110.5t31.5 -237.5t-31.5 -236t-92.5 -108t-167 -28q-105 0 -166 28zM459 105q40 21 58 81t18 180q0 125 -18 186t-57.5 81t-114.5 20q-72 0 -111.5 -20.5t-59 -81.5t-19.5 -185
q0 -121 17.5 -180.5t57 -80.5t115.5 -21q74 0 114 21zM590 999l-99 -129h-59l74 129h84zM383 893l107 -102h-60l-84 55l-91 -55h-60l118 102h70z" />
    <glyph glyph-name="uni1ED8" unicode="&#x1ed8;" horiz-adv-x="690" 
d="M179 22q-61 28 -92.5 108t-31.5 236t32 237.5t93 110.5t165 29q106 0 167 -29t92.5 -110.5t31.5 -237.5t-31.5 -236t-92.5 -108t-167 -28q-105 0 -166 28zM459 105q40 21 58 81t18 180q0 125 -18 186t-57.5 81t-114.5 20q-72 0 -111.5 -20.5t-59 -81.5t-19.5 -185
q0 -121 17.5 -180.5t57 -80.5t115.5 -21q74 0 114 21zM313 928h70l107 -137h-60l-84 91l-91 -91h-60zM307.5 -210.5q-4.5 4.5 -4.5 12.5v84q0 18 17 18h47q17 0 17 -18v-84q0 -8 -4.5 -12.5t-12.5 -4.5h-47q-8 0 -12.5 4.5z" />
    <glyph glyph-name="uni1ED2" unicode="&#x1ed2;" horiz-adv-x="690" 
d="M179 22q-61 28 -92.5 108t-31.5 236t32 237.5t93 110.5t165 29q106 0 167 -29t92.5 -110.5t31.5 -237.5t-31.5 -236t-92.5 -108t-167 -28q-105 0 -166 28zM459 105q40 21 58 81t18 180q0 125 -18 186t-57.5 81t-114.5 20q-72 0 -111.5 -20.5t-59 -81.5t-19.5 -185
q0 -121 17.5 -180.5t57 -80.5t115.5 -21q74 0 114 21zM184 999l75 -129h-59l-100 129h84zM383 893l107 -102h-60l-84 55l-91 -55h-60l118 102h70z" />
    <glyph glyph-name="uni1ED4" unicode="&#x1ed4;" horiz-adv-x="690" 
d="M179 22q-61 28 -92.5 108t-31.5 236t32 237.5t93 110.5t165 29q106 0 167 -29t92.5 -110.5t31.5 -237.5t-31.5 -236t-92.5 -108t-167 -28q-105 0 -166 28zM459 105q40 21 58 81t18 180q0 125 -18 186t-57.5 81t-114.5 20q-72 0 -111.5 -20.5t-59 -81.5t-19.5 -185
q0 -121 17.5 -180.5t57 -80.5t115.5 -21q74 0 114 21zM455 889q44 13 44 45q0 17 -8.5 25t-27.5 8q-11 0 -35 -6v36q24 8 48 8q36 0 54.5 -17.5t18.5 -47.5q0 -70 -94 -96v45zM313 893h70l107 -102h-60l-84 55l-91 -55h-60z" />
    <glyph glyph-name="uni1ED6" unicode="&#x1ed6;" horiz-adv-x="690" 
d="M179 22q-61 28 -92.5 108t-31.5 236t32 237.5t93 110.5t165 29q106 0 167 -29t92.5 -110.5t31.5 -237.5t-31.5 -236t-92.5 -108t-167 -28q-105 0 -166 28zM459 105q40 21 58 81t18 180q0 125 -18 186t-57.5 81t-114.5 20q-72 0 -111.5 -20.5t-59 -81.5t-19.5 -185
q0 -121 17.5 -180.5t57 -80.5t115.5 -21q74 0 114 21zM301.5 1021q16.5 -5 40.5 -16q19 -8 32 -12.5t27 -4.5q22 0 35.5 10.5t13.5 30.5h51q-3 -48 -23.5 -69.5t-60.5 -21.5q-29 0 -77 20q-22 9 -36.5 13.5t-27.5 4.5q-18 0 -30 -10.5t-13 -28.5h-51q5 89 84 89
q19 0 35.5 -5zM490 791h-60l-84 55l-91 -55h-60l118 102h70z" />
    <glyph glyph-name="uni020C" unicode="&#x20c;" horiz-adv-x="690" 
d="M179 22q-61 28 -92.5 108t-31.5 236t32 237.5t93 110.5t165 29q106 0 167 -29t92.5 -110.5t31.5 -237.5t-31.5 -236t-92.5 -108t-167 -28q-105 0 -166 28zM459 105q40 21 58 81t18 180q0 125 -18 186t-57.5 81t-114.5 20q-72 0 -111.5 -20.5t-59 -81.5t-19.5 -185
q0 -121 17.5 -180.5t57 -80.5t115.5 -21q74 0 114 21zM132 929h83l98 -138h-59zM288 929h83l98 -138h-59z" />
    <glyph glyph-name="Odieresis" unicode="&#xd6;" horiz-adv-x="690" 
d="M179 22q-61 28 -92.5 108t-31.5 236t32 237.5t93 110.5t165 29q106 0 167 -29t92.5 -110.5t31.5 -237.5t-31.5 -236t-92.5 -108t-167 -28q-105 0 -166 28zM459 105q40 21 58 81t18 180q0 125 -18 186t-57.5 81t-114.5 20q-72 0 -111.5 -20.5t-59 -81.5t-19.5 -185
q0 -121 17.5 -180.5t57 -80.5t115.5 -21q74 0 114 21zM187.5 813q-4.5 5 -4.5 12v84q0 18 17 18h47q17 0 17 -18v-84q0 -8 -4.5 -12.5t-12.5 -4.5h-47q-8 0 -12.5 5zM416 813q-5 5 -5 12v84q0 18 18 18h46q17 0 17 -18v-84q0 -8 -4.5 -12.5t-12.5 -4.5h-46q-8 0 -13 5z" />
    <glyph glyph-name="uni022A" unicode="&#x22a;" horiz-adv-x="690" 
d="M179 22q-61 28 -92.5 108t-31.5 236t32 237.5t93 110.5t165 29q106 0 167 -29t92.5 -110.5t31.5 -237.5t-31.5 -236t-92.5 -108t-167 -28q-105 0 -166 28zM459 105q40 21 58 81t18 180q0 125 -18 186t-57.5 81t-114.5 20q-72 0 -111.5 -20.5t-59 -81.5t-19.5 -185
q0 -121 17.5 -180.5t57 -80.5t115.5 -21q74 0 114 21zM198.5 813q-4.5 5 -4.5 12v84q0 18 17 18h47q17 0 17 -18v-84q0 -8 -4.5 -12.5t-12.5 -4.5h-47q-8 0 -12.5 5zM427 813q-5 5 -5 12v84q0 18 18 18h46q17 0 17 -18v-84q0 -8 -4.5 -12.5t-12.5 -4.5h-46q-8 0 -13 5z
M215 1057h270v-60h-270v60z" />
    <glyph glyph-name="uni0230" unicode="&#x230;" horiz-adv-x="690" 
d="M179 22q-61 28 -92.5 108t-31.5 236t32 237.5t93 110.5t165 29q106 0 167 -29t92.5 -110.5t31.5 -237.5t-31.5 -236t-92.5 -108t-167 -28q-105 0 -166 28zM459 105q40 21 58 81t18 180q0 125 -18 186t-57.5 81t-114.5 20q-72 0 -111.5 -20.5t-59 -81.5t-19.5 -185
q0 -121 17.5 -180.5t57 -80.5t115.5 -21q74 0 114 21zM307.5 820q-4.5 5 -4.5 12v84q0 18 17 18h47q17 0 17 -18v-84q0 -8 -4.5 -12.5t-12.5 -4.5h-47q-8 0 -12.5 5zM204 1051h270v-60h-270v60z" />
    <glyph glyph-name="uni1ECC" unicode="&#x1ecc;" horiz-adv-x="690" 
d="M179 22q-61 28 -92.5 108t-31.5 236t32 237.5t93 110.5t165 29q106 0 167 -29t92.5 -110.5t31.5 -237.5t-31.5 -236t-92.5 -108t-167 -28q-105 0 -166 28zM459 105q40 21 58 81t18 180q0 125 -18 186t-57.5 81t-114.5 20q-72 0 -111.5 -20.5t-59 -81.5t-19.5 -185
q0 -121 17.5 -180.5t57 -80.5t115.5 -21q74 0 114 21zM307.5 -210.5q-4.5 4.5 -4.5 12.5v84q0 18 17 18h47q17 0 17 -18v-84q0 -8 -4.5 -12.5t-12.5 -4.5h-47q-8 0 -12.5 4.5z" />
    <glyph glyph-name="Ograve" unicode="&#xd2;" horiz-adv-x="690" 
d="M179 22q-61 28 -92.5 108t-31.5 236t32 237.5t93 110.5t165 29q106 0 167 -29t92.5 -110.5t31.5 -237.5t-31.5 -236t-92.5 -108t-167 -28q-105 0 -166 28zM459 105q40 21 58 81t18 180q0 125 -18 186t-57.5 81t-114.5 20q-72 0 -111.5 -20.5t-59 -81.5t-19.5 -185
q0 -121 17.5 -180.5t57 -80.5t115.5 -21q74 0 114 21zM203 929h83l98 -138h-59z" />
    <glyph glyph-name="uni1ECE" unicode="&#x1ece;" horiz-adv-x="690" 
d="M179 22q-61 28 -92.5 108t-31.5 236t32 237.5t93 110.5t165 29q106 0 167 -29t92.5 -110.5t31.5 -237.5t-31.5 -236t-92.5 -108t-167 -28q-105 0 -166 28zM459 105q40 21 58 81t18 180q0 125 -18 186t-57.5 81t-114.5 20q-72 0 -111.5 -20.5t-59 -81.5t-19.5 -185
q0 -121 17.5 -180.5t57 -80.5t115.5 -21q74 0 114 21zM321 815q27 8 39 22t12 31q0 19 -10 29t-34 10q-17 0 -34 -6v41q20 7 47 7q42 0 63.5 -20.5t21.5 -57.5q0 -72 -105 -102v46z" />
    <glyph glyph-name="Ohorn" unicode="&#x1a0;" horiz-adv-x="690" 
d="M616 569.5q20 -76.5 20 -203.5q0 -156 -31.5 -236t-92.5 -108t-167 -28q-105 0 -166 28t-92.5 108t-31.5 236t32 237.5t93 110.5t165 29q51 0 91 -6h66q37 0 57 26t20 86h71q0 -72 -26 -112.5t-71 -51.5q43 -39 63 -115.5zM459 105q40 21 58 81t18 180q0 125 -18 186
t-57.5 81t-114.5 20q-72 0 -111.5 -20.5t-59 -81.5t-19.5 -185q0 -121 17.5 -180.5t57 -80.5t115.5 -21q74 0 114 21z" />
    <glyph glyph-name="uni1EDA" unicode="&#x1eda;" horiz-adv-x="690" 
d="M616 569.5q20 -76.5 20 -203.5q0 -156 -31.5 -236t-92.5 -108t-167 -28q-105 0 -166 28t-92.5 108t-31.5 236t32 237.5t93 110.5t165 29q51 0 91 -6h66q37 0 57 26t20 86h71q0 -72 -26 -112.5t-71 -51.5q43 -39 63 -115.5zM459 105q40 21 58 81t18 180q0 125 -18 186
t-57.5 81t-114.5 20q-72 0 -111.5 -20.5t-59 -81.5t-19.5 -185q0 -121 17.5 -180.5t57 -80.5t115.5 -21q74 0 114 21zM403 929h84l-122 -138h-59z" />
    <glyph glyph-name="uni1EE2" unicode="&#x1ee2;" horiz-adv-x="690" 
d="M616 569.5q20 -76.5 20 -203.5q0 -156 -31.5 -236t-92.5 -108t-167 -28q-105 0 -166 28t-92.5 108t-31.5 236t32 237.5t93 110.5t165 29q51 0 91 -6h66q37 0 57 26t20 86h71q0 -72 -26 -112.5t-71 -51.5q43 -39 63 -115.5zM459 105q40 21 58 81t18 180q0 125 -18 186
t-57.5 81t-114.5 20q-72 0 -111.5 -20.5t-59 -81.5t-19.5 -185q0 -121 17.5 -180.5t57 -80.5t115.5 -21q74 0 114 21zM309.5 -210.5q-4.5 4.5 -4.5 12.5v84q0 18 17 18h47q17 0 17 -18v-84q0 -8 -4.5 -12.5t-12.5 -4.5h-47q-8 0 -12.5 4.5z" />
    <glyph glyph-name="uni1EDC" unicode="&#x1edc;" horiz-adv-x="690" 
d="M616 569.5q20 -76.5 20 -203.5q0 -156 -31.5 -236t-92.5 -108t-167 -28q-105 0 -166 28t-92.5 108t-31.5 236t32 237.5t93 110.5t165 29q51 0 91 -6h66q37 0 57 26t20 86h71q0 -72 -26 -112.5t-71 -51.5q43 -39 63 -115.5zM459 105q40 21 58 81t18 180q0 125 -18 186
t-57.5 81t-114.5 20q-72 0 -111.5 -20.5t-59 -81.5t-19.5 -185q0 -121 17.5 -180.5t57 -80.5t115.5 -21q74 0 114 21zM185 929h83l98 -138h-59z" />
    <glyph glyph-name="uni1EDE" unicode="&#x1ede;" horiz-adv-x="690" 
d="M616 569.5q20 -76.5 20 -203.5q0 -156 -31.5 -236t-92.5 -108t-167 -28q-105 0 -166 28t-92.5 108t-31.5 236t32 237.5t93 110.5t165 29q51 0 91 -6h66q37 0 57 26t20 86h71q0 -72 -26 -112.5t-71 -51.5q43 -39 63 -115.5zM459 105q40 21 58 81t18 180q0 125 -18 186
t-57.5 81t-114.5 20q-72 0 -111.5 -20.5t-59 -81.5t-19.5 -185q0 -121 17.5 -180.5t57 -80.5t115.5 -21q74 0 114 21zM321 815q27 8 39 22t12 31q0 19 -10 29t-34 10q-17 0 -34 -6v41q20 7 47 7q42 0 63.5 -20.5t21.5 -57.5q0 -72 -105 -102v46z" />
    <glyph glyph-name="uni1EE0" unicode="&#x1ee0;" horiz-adv-x="690" 
d="M616 569.5q20 -76.5 20 -203.5q0 -156 -31.5 -236t-92.5 -108t-167 -28q-105 0 -166 28t-92.5 108t-31.5 236t32 237.5t93 110.5t165 29q51 0 91 -6h66q37 0 57 26t20 86h71q0 -72 -26 -112.5t-71 -51.5q43 -39 63 -115.5zM459 105q40 21 58 81t18 180q0 125 -18 186
t-57.5 81t-114.5 20q-72 0 -111.5 -20.5t-59 -81.5t-19.5 -185q0 -121 17.5 -180.5t57 -80.5t115.5 -21q74 0 114 21zM194 887.5q28 27.5 68 27.5q23 0 43 -8t45 -23q22 -13 36 -19t29 -6q25 0 39.5 15.5t15.5 44.5h51q-1 -56 -27 -86.5t-72 -30.5q-22 0 -41.5 8t-44.5 23
q-21 13 -36.5 19.5t-30.5 6.5q-23 0 -38 -15t-16 -43h-51q2 59 30 86.5z" />
    <glyph glyph-name="Ohungarumlaut" unicode="&#x150;" horiz-adv-x="690" 
d="M179 22q-61 28 -92.5 108t-31.5 236t32 237.5t93 110.5t165 29q106 0 167 -29t92.5 -110.5t31.5 -237.5t-31.5 -236t-92.5 -108t-167 -28q-105 0 -166 28zM459 105q40 21 58 81t18 180q0 125 -18 186t-57.5 81t-114.5 20q-72 0 -111.5 -20.5t-59 -81.5t-19.5 -185
q0 -121 17.5 -180.5t57 -80.5t115.5 -21q74 0 114 21zM312 929h80l-113 -138h-59zM467 929h79l-113 -138h-59z" />
    <glyph glyph-name="uni020E" unicode="&#x20e;" horiz-adv-x="690" 
d="M179 22q-61 28 -92.5 108t-31.5 236t32 237.5t93 110.5t165 29q106 0 167 -29t92.5 -110.5t31.5 -237.5t-31.5 -236t-92.5 -108t-167 -28q-105 0 -166 28zM459 105q40 21 58 81t18 180q0 125 -18 186t-57.5 81t-114.5 20q-72 0 -111.5 -20.5t-59 -81.5t-19.5 -185
q0 -121 17.5 -180.5t57 -80.5t115.5 -21q74 0 114 21zM440 898q36 -35 36 -110h-47q0 51 -24 74.5t-60 23.5q-88 0 -88 -98h-49q0 76 36.5 110.5t98.5 34.5q61 0 97 -35z" />
    <glyph glyph-name="Omacron" unicode="&#x14c;" horiz-adv-x="690" 
d="M179 22q-61 28 -92.5 108t-31.5 236t32 237.5t93 110.5t165 29q106 0 167 -29t92.5 -110.5t31.5 -237.5t-31.5 -236t-92.5 -108t-167 -28q-105 0 -166 28zM459 105q40 21 58 81t18 180q0 125 -18 186t-57.5 81t-114.5 20q-72 0 -111.5 -20.5t-59 -81.5t-19.5 -185
q0 -121 17.5 -180.5t57 -80.5t115.5 -21q74 0 114 21zM204 884h270v-60h-270v60z" />
    <glyph glyph-name="uni1E52" unicode="&#x1e52;" horiz-adv-x="690" 
d="M179 22q-61 28 -92.5 108t-31.5 236t32 237.5t93 110.5t165 29q106 0 167 -29t92.5 -110.5t31.5 -237.5t-31.5 -236t-92.5 -108t-167 -28q-105 0 -166 28zM459 105q40 21 58 81t18 180q0 125 -18 186t-57.5 81t-114.5 20q-72 0 -111.5 -20.5t-59 -81.5t-19.5 -185
q0 -121 17.5 -180.5t57 -80.5t115.5 -21q74 0 114 21zM204 884h270v-60h-270v60zM413 1067h84l-122 -138h-59z" />
    <glyph glyph-name="uni1E50" unicode="&#x1e50;" horiz-adv-x="690" 
d="M179 22q-61 28 -92.5 108t-31.5 236t32 237.5t93 110.5t165 29q106 0 167 -29t92.5 -110.5t31.5 -237.5t-31.5 -236t-92.5 -108t-167 -28q-105 0 -166 28zM459 105q40 21 58 81t18 180q0 125 -18 186t-57.5 81t-114.5 20q-72 0 -111.5 -20.5t-59 -81.5t-19.5 -185
q0 -121 17.5 -180.5t57 -80.5t115.5 -21q74 0 114 21zM204 884h270v-60h-270v60zM190 1067h83l98 -138h-59z" />
    <glyph glyph-name="uni01EA" unicode="&#x1ea;" horiz-adv-x="690" 
d="M359 -77q0 -28 20 -44t55 -16h8v-49q-16 -2 -28 -2q-51 0 -78.5 25.5t-27.5 63.5q0 59 61 93h-24q-105 0 -166 28t-92.5 108t-31.5 236t32 237.5t93 110.5t165 29q106 0 167 -29t92.5 -110.5t31.5 -237.5q0 -137 -24.5 -215t-72.5 -112.5t-127 -41.5q-53 -33 -53 -74z
M172.5 185.5q17.5 -59.5 57 -80.5t115.5 -21q74 0 114 21t58 81t18 180q0 125 -18 186t-57.5 81t-114.5 20q-72 0 -111.5 -20.5t-59 -81.5t-19.5 -185q0 -121 17.5 -180.5z" />
    <glyph glyph-name="Oslash" unicode="&#xd8;" horiz-adv-x="690" 
d="M620.5 547q15.5 -72 15.5 -181q0 -156 -31.5 -236t-92.5 -108t-167 -28q-63 0 -108 8.5t-78 30.5l-22 -33h-70l49 74q-31 42 -46 112.5t-15 179.5q0 156 32 237.5t93 110.5t165 29q63 0 108 -9t78 -31l23 34h70l-50 -75q31 -43 46.5 -115zM178 168l299 452
q-21 19 -52.5 26t-79.5 7q-72 0 -111.5 -20.5t-59 -81.5t-19.5 -185q0 -136 23 -198zM459 105q40 21 58 81t18 180q0 139 -23 201l-298 -451q21 -18 52.5 -25t78.5 -7q74 0 114 21z" />
    <glyph glyph-name="Oslashacute" unicode="&#x1fe;" horiz-adv-x="690" 
d="M620.5 547q15.5 -72 15.5 -181q0 -156 -31.5 -236t-92.5 -108t-167 -28q-63 0 -108 8.5t-78 30.5l-22 -33h-70l49 74q-31 42 -46 112.5t-15 179.5q0 156 32 237.5t93 110.5t165 29q63 0 108 -9t78 -31l23 34h70l-50 -75q31 -43 46.5 -115zM178 168l299 452
q-21 19 -52.5 26t-79.5 7q-72 0 -111.5 -20.5t-59 -81.5t-19.5 -185q0 -136 23 -198zM459 105q40 21 58 81t18 180q0 139 -23 201l-298 -451q21 -18 52.5 -25t78.5 -7q74 0 114 21zM417 929h84l-122 -138h-59z" />
    <glyph glyph-name="Otilde" unicode="&#xd5;" horiz-adv-x="690" 
d="M179 22q-61 28 -92.5 108t-31.5 236t32 237.5t93 110.5t165 29q106 0 167 -29t92.5 -110.5t31.5 -237.5t-31.5 -236t-92.5 -108t-167 -28q-105 0 -166 28zM459 105q40 21 58 81t18 180q0 125 -18 186t-57.5 81t-114.5 20q-72 0 -111.5 -20.5t-59 -81.5t-19.5 -185
q0 -121 17.5 -180.5t57 -80.5t115.5 -21q74 0 114 21zM199 887.5q28 27.5 68 27.5q23 0 43 -8t45 -23q22 -13 36 -19t29 -6q25 0 39.5 15.5t15.5 44.5h51q-1 -56 -27 -86.5t-72 -30.5q-22 0 -41.5 8t-44.5 23q-21 13 -36.5 19.5t-30.5 6.5q-23 0 -38 -15t-16 -43h-51
q2 59 30 86.5z" />
    <glyph glyph-name="uni1E4C" unicode="&#x1e4c;" horiz-adv-x="690" 
d="M179 22q-61 28 -92.5 108t-31.5 236t32 237.5t93 110.5t165 29q106 0 167 -29t92.5 -110.5t31.5 -237.5t-31.5 -236t-92.5 -108t-167 -28q-105 0 -166 28zM459 105q40 21 58 81t18 180q0 125 -18 186t-57.5 81t-114.5 20q-72 0 -111.5 -20.5t-59 -81.5t-19.5 -185
q0 -121 17.5 -180.5t57 -80.5t115.5 -21q74 0 114 21zM199 887.5q28 27.5 68 27.5q23 0 43 -8t45 -23q22 -13 36 -19t29 -6q25 0 39.5 15.5t15.5 44.5h51q-1 -56 -27 -86.5t-72 -30.5q-22 0 -41.5 8t-44.5 23q-21 13 -36.5 19.5t-30.5 6.5q-23 0 -38 -15t-16 -43h-51
q2 59 30 86.5zM404 1088h84l-122 -138h-59z" />
    <glyph glyph-name="uni1E4E" unicode="&#x1e4e;" horiz-adv-x="690" 
d="M179 22q-61 28 -92.5 108t-31.5 236t32 237.5t93 110.5t165 29q106 0 167 -29t92.5 -110.5t31.5 -237.5t-31.5 -236t-92.5 -108t-167 -28q-105 0 -166 28zM459 105q40 21 58 81t18 180q0 125 -18 186t-57.5 81t-114.5 20q-72 0 -111.5 -20.5t-59 -81.5t-19.5 -185
q0 -121 17.5 -180.5t57 -80.5t115.5 -21q74 0 114 21zM199 887.5q28 27.5 68 27.5q23 0 43 -8t45 -23q22 -13 36 -19t29 -6q25 0 39.5 15.5t15.5 44.5h51q-1 -56 -27 -86.5t-72 -30.5q-22 0 -41.5 8t-44.5 23q-21 13 -36.5 19.5t-30.5 6.5q-23 0 -38 -15t-16 -43h-51
q2 59 30 86.5zM193.5 972q-4.5 5 -4.5 12v84q0 18 17 18h47q17 0 17 -18v-84q0 -8 -4.5 -12.5t-12.5 -4.5h-47q-8 0 -12.5 5zM422 972q-5 5 -5 12v84q0 18 18 18h46q17 0 17 -18v-84q0 -8 -4.5 -12.5t-12.5 -4.5h-46q-8 0 -13 5z" />
    <glyph glyph-name="uni022C" unicode="&#x22c;" horiz-adv-x="690" 
d="M179 22q-61 28 -92.5 108t-31.5 236t32 237.5t93 110.5t165 29q106 0 167 -29t92.5 -110.5t31.5 -237.5t-31.5 -236t-92.5 -108t-167 -28q-105 0 -166 28zM459 105q40 21 58 81t18 180q0 125 -18 186t-57.5 81t-114.5 20q-72 0 -111.5 -20.5t-59 -81.5t-19.5 -185
q0 -121 17.5 -180.5t57 -80.5t115.5 -21q74 0 114 21zM220 1043h270v-60h-270v60zM199 887.5q28 27.5 68 27.5q23 0 43 -8t45 -23q22 -13 36 -19t29 -6q25 0 39.5 15.5t15.5 44.5h51q-1 -56 -27 -86.5t-72 -30.5q-22 0 -41.5 8t-44.5 23q-21 13 -36.5 19.5t-30.5 6.5
q-23 0 -38 -15t-16 -43h-51q2 59 30 86.5z" />
    <glyph glyph-name="OE" unicode="&#x152;" horiz-adv-x="1052" 
d="M636 565v-153l318 -6v-78l-318 -7v-151q0 -47 22 -63.5t59 -16.5h282v-83q-174 -11 -308 -11q-97 0 -134 58q-34 -34 -85 -47t-127 -13q-105 0 -166 28t-92.5 108t-31.5 236t32 237.5t93 110.5t165 29q77 0 129 -14.5t86 -50.5q20 30 53 44.5t71 14.5q120 0 270 -8l45 -2
v-83h-284q-79 0 -79 -79zM459 105q40 21 58 81t18 180q0 125 -18 186t-57.5 81t-114.5 20q-72 0 -111.5 -20.5t-59 -81.5t-19.5 -185q0 -121 17.5 -180.5t57 -80.5t115.5 -21q74 0 114 21z" />
    <glyph glyph-name="P" unicode="P" 
d="M73 737h299q85 0 141.5 -50t56.5 -191q0 -142 -58 -194.5t-141 -52.5q-31 0 -93.5 4t-103.5 8v-261h-101v737zM357 339q112 0 112 156q0 152 -106 152h-189v-308h183z" />
    <glyph glyph-name="uni1E56" unicode="&#x1e56;" 
d="M73 737h299q85 0 141.5 -50t56.5 -191q0 -142 -58 -194.5t-141 -52.5q-31 0 -93.5 4t-103.5 8v-261h-101v737zM357 339q112 0 112 156q0 152 -106 152h-189v-308h183zM256.5 820q-4.5 5 -4.5 12v84q0 18 17 18h47q17 0 17 -18v-84q0 -8 -4.5 -12.5t-12.5 -4.5h-47
q-8 0 -12.5 5z" />
    <glyph glyph-name="Thorn" unicode="&#xde;" horiz-adv-x="568" 
d="M73 737h101v-130h157q85 0 141.5 -47t56.5 -179q0 -134 -58 -183t-141 -49q-23 0 -73.5 4.5t-82.5 8.5v-162h-101v737zM316 240q112 0 112 141q0 135 -106 135h-148v-276h142z" />
    <glyph glyph-name="Q" unicode="Q" horiz-adv-x="690" 
d="M179 22q-61 28 -92.5 108t-31.5 236t32 237.5t93 110.5t165 29q106 0 167 -29t92.5 -110.5t31.5 -237.5t-31.5 -236t-92.5 -108t-167 -28q-105 0 -166 28zM459 105q40 21 58 81t18 180q0 125 -18 186t-57.5 81t-114.5 20q-72 0 -111.5 -20.5t-59 -81.5t-19.5 -185
q0 -121 17.5 -180.5t57 -80.5t115.5 -21q74 0 114 21zM393 -141q-50 37 -56 106h69q10 -34 37.5 -51t61.5 -17q25 0 56 9v-77q-32 -7 -52 -7q-66 0 -116 37z" />
    <glyph glyph-name="R" unicode="R" horiz-adv-x="614" 
d="M73 737h295q90 0 143.5 -47.5t53.5 -175.5q0 -103 -37.5 -147t-95.5 -60l147 -307h-102l-136 293l-137 2q-11 1 -30 1v-296h-101v737zM352 374q54 0 83.5 30t29.5 110q0 77 -30 105t-83 28h-178v-273h178z" />
    <glyph glyph-name="Racute" unicode="&#x154;" horiz-adv-x="614" 
d="M73 737h295q90 0 143.5 -47.5t53.5 -175.5q0 -103 -37.5 -147t-95.5 -60l147 -307h-102l-136 293l-137 2q-11 1 -30 1v-296h-101v737zM352 374q54 0 83.5 30t29.5 110q0 77 -30 105t-83 28h-178v-273h178zM367 929h84l-122 -138h-59z" />
    <glyph glyph-name="Rcaron" unicode="&#x158;" horiz-adv-x="614" 
d="M73 737h295q90 0 143.5 -47.5t53.5 -175.5q0 -103 -37.5 -147t-95.5 -60l147 -307h-102l-136 293l-137 2q-11 1 -30 1v-296h-101v737zM352 374q54 0 83.5 30t29.5 110q0 77 -30 105t-83 28h-178v-273h178zM151 928h60l84 -90l90 90h61l-118 -137h-70z" />
    <glyph glyph-name="Rcommaaccent" unicode="&#x156;" horiz-adv-x="614" 
d="M73 737h295q90 0 143.5 -47.5t53.5 -175.5q0 -103 -37.5 -147t-95.5 -60l147 -307h-102l-136 293l-137 2q-11 1 -30 1v-296h-101v737zM352 374q54 0 83.5 30t29.5 110q0 77 -30 105t-83 28h-178v-273h178zM214 -165l29 5q25 5 38 12.5t19 26t6 55.5h62q0 -53 -9.5 -82.5
t-34 -43.5t-68.5 -14h-42v41z" />
    <glyph glyph-name="uni0210" unicode="&#x210;" horiz-adv-x="614" 
d="M73 737h295q90 0 143.5 -47.5t53.5 -175.5q0 -103 -37.5 -147t-95.5 -60l147 -307h-102l-136 293l-137 2q-11 1 -30 1v-296h-101v737zM352 374q54 0 83.5 30t29.5 110q0 77 -30 105t-83 28h-178v-273h178zM82 929h83l98 -138h-59zM238 929h83l98 -138h-59z" />
    <glyph glyph-name="uni1E5A" unicode="&#x1e5a;" horiz-adv-x="614" 
d="M73 737h295q90 0 143.5 -47.5t53.5 -175.5q0 -103 -37.5 -147t-95.5 -60l147 -307h-102l-136 293l-137 2q-11 1 -30 1v-296h-101v737zM352 374q54 0 83.5 30t29.5 110q0 77 -30 105t-83 28h-178v-273h178zM260.5 -210.5q-4.5 4.5 -4.5 12.5v84q0 18 17 18h47q17 0 17 -18
v-84q0 -8 -4.5 -12.5t-12.5 -4.5h-47q-8 0 -12.5 4.5z" />
    <glyph glyph-name="uni0212" unicode="&#x212;" horiz-adv-x="614" 
d="M73 737h295q90 0 143.5 -47.5t53.5 -175.5q0 -103 -37.5 -147t-95.5 -60l147 -307h-102l-136 293l-137 2q-11 1 -30 1v-296h-101v737zM352 374q54 0 83.5 30t29.5 110q0 77 -30 105t-83 28h-178v-273h178zM390 898q36 -35 36 -110h-47q0 51 -24 74.5t-60 23.5
q-88 0 -88 -98h-49q0 76 36.5 110.5t98.5 34.5q61 0 97 -35z" />
    <glyph glyph-name="uni1E5E" unicode="&#x1e5e;" horiz-adv-x="614" 
d="M73 737h295q90 0 143.5 -47.5t53.5 -175.5q0 -103 -37.5 -147t-95.5 -60l147 -307h-102l-136 293l-137 2q-11 1 -30 1v-296h-101v737zM352 374q54 0 83.5 30t29.5 110q0 77 -30 105t-83 28h-178v-273h178zM161 -136h270v-60h-270v60z" />
    <glyph glyph-name="S" unicode="S" horiz-adv-x="582" 
d="M167.5 -0.5q-67.5 5.5 -106.5 14.5v78q83 -8 221 -8q71 0 110 21.5t39 78.5v43q0 93 -99 93h-75q-99 0 -150 43.5t-51 142.5v41q0 102 55.5 149t165.5 47q48 0 110 -7t106 -15v-78l-21 1q-128 9 -184 9q-68 0 -102 -24t-34 -87v-30q0 -52 27.5 -74t82.5 -22h81
q90 0 137 -48.5t47 -128.5v-52q0 -109 -63 -151t-178 -42q-51 0 -118.5 5.5z" />
    <glyph glyph-name="Sacute" unicode="&#x15a;" horiz-adv-x="582" 
d="M167.5 -0.5q-67.5 5.5 -106.5 14.5v78q83 -8 221 -8q71 0 110 21.5t39 78.5v43q0 93 -99 93h-75q-99 0 -150 43.5t-51 142.5v41q0 102 55.5 149t165.5 47q48 0 110 -7t106 -15v-78l-21 1q-128 9 -184 9q-68 0 -102 -24t-34 -87v-30q0 -52 27.5 -74t82.5 -22h81
q90 0 137 -48.5t47 -128.5v-52q0 -109 -63 -151t-178 -42q-51 0 -118.5 5.5zM357 929h84l-122 -138h-59z" />
    <glyph glyph-name="uni1E64" unicode="&#x1e64;" horiz-adv-x="582" 
d="M167.5 -0.5q-67.5 5.5 -106.5 14.5v78q83 -8 221 -8q71 0 110 21.5t39 78.5v43q0 93 -99 93h-75q-99 0 -150 43.5t-51 142.5v41q0 102 55.5 149t165.5 47q48 0 110 -7t106 -15v-78l-21 1q-128 9 -184 9q-68 0 -102 -24t-34 -87v-30q0 -52 27.5 -74t82.5 -22h81
q90 0 137 -48.5t47 -128.5v-52q0 -109 -63 -151t-178 -42q-51 0 -118.5 5.5zM326 929h84l-122 -138h-59zM286.5 963q-4.5 5 -4.5 12v84q0 18 17 18h47q17 0 17 -18v-84q0 -8 -4.5 -12.5t-12.5 -4.5h-47q-8 0 -12.5 5z" />
    <glyph glyph-name="Scaron" unicode="&#x160;" horiz-adv-x="582" 
d="M167.5 -0.5q-67.5 5.5 -106.5 14.5v78q83 -8 221 -8q71 0 110 21.5t39 78.5v43q0 93 -99 93h-75q-99 0 -150 43.5t-51 142.5v41q0 102 55.5 149t165.5 47q48 0 110 -7t106 -15v-78l-21 1q-128 9 -184 9q-68 0 -102 -24t-34 -87v-30q0 -52 27.5 -74t82.5 -22h81
q90 0 137 -48.5t47 -128.5v-52q0 -109 -63 -151t-178 -42q-51 0 -118.5 5.5zM141 928h60l84 -90l90 90h61l-118 -137h-70z" />
    <glyph glyph-name="uni1E66" unicode="&#x1e66;" horiz-adv-x="582" 
d="M167.5 -0.5q-67.5 5.5 -106.5 14.5v78q83 -8 221 -8q71 0 110 21.5t39 78.5v43q0 93 -99 93h-75q-99 0 -150 43.5t-51 142.5v41q0 102 55.5 149t165.5 47q48 0 110 -7t106 -15v-78l-21 1q-128 9 -184 9q-68 0 -102 -24t-34 -87v-30q0 -52 27.5 -74t82.5 -22h81
q90 0 137 -48.5t47 -128.5v-52q0 -109 -63 -151t-178 -42q-51 0 -118.5 5.5zM141 928h60l84 -90l90 90h61l-118 -137h-70zM247.5 967q-4.5 5 -4.5 12v84q0 18 17 18h47q17 0 17 -18v-84q0 -8 -4.5 -12.5t-12.5 -4.5h-47q-8 0 -12.5 5z" />
    <glyph glyph-name="Scedilla" unicode="&#x15e;" horiz-adv-x="582" 
d="M480 367.5q47 -48.5 47 -128.5v-52q0 -103 -56.5 -146t-159.5 -47l-31 -47q71 -6 71 -65q0 -36 -25.5 -55t-73.5 -19h-38v41l21 2q51 6 51 42q0 38 -60 42l39 59q-54 2 -112 7t-92 13v78q83 -8 221 -8q71 0 110 21.5t39 78.5v43q0 93 -99 93h-75q-99 0 -150 43.5
t-51 142.5v41q0 102 55.5 149t165.5 47q48 0 110 -7t106 -15v-78l-21 1q-128 9 -184 9q-68 0 -102 -24t-34 -87v-30q0 -52 27.5 -74t82.5 -22h81q90 0 137 -48.5z" />
    <glyph glyph-name="Scircumflex" unicode="&#x15c;" horiz-adv-x="582" 
d="M167.5 -0.5q-67.5 5.5 -106.5 14.5v78q83 -8 221 -8q71 0 110 21.5t39 78.5v43q0 93 -99 93h-75q-99 0 -150 43.5t-51 142.5v41q0 102 55.5 149t165.5 47q48 0 110 -7t106 -15v-78l-21 1q-128 9 -184 9q-68 0 -102 -24t-34 -87v-30q0 -52 27.5 -74t82.5 -22h81
q90 0 137 -48.5t47 -128.5v-52q0 -109 -63 -151t-178 -42q-51 0 -118.5 5.5zM253 928h70l107 -137h-60l-84 91l-91 -91h-60z" />
    <glyph glyph-name="Scommaaccent" unicode="&#x218;" horiz-adv-x="582" 
d="M167.5 -0.5q-67.5 5.5 -106.5 14.5v78q83 -8 221 -8q71 0 110 21.5t39 78.5v43q0 93 -99 93h-75q-99 0 -150 43.5t-51 142.5v41q0 102 55.5 149t165.5 47q48 0 110 -7t106 -15v-78l-21 1q-128 9 -184 9q-68 0 -102 -24t-34 -87v-30q0 -52 27.5 -74t82.5 -22h81
q90 0 137 -48.5t47 -128.5v-52q0 -109 -63 -151t-178 -42q-51 0 -118.5 5.5zM201 -165l29 5q25 5 38 12.5t19 26t6 55.5h62q0 -53 -9.5 -82.5t-34 -43.5t-68.5 -14h-42v41z" />
    <glyph glyph-name="uni1E60" unicode="&#x1e60;" horiz-adv-x="582" 
d="M167.5 -0.5q-67.5 5.5 -106.5 14.5v78q83 -8 221 -8q71 0 110 21.5t39 78.5v43q0 93 -99 93h-75q-99 0 -150 43.5t-51 142.5v41q0 102 55.5 149t165.5 47q48 0 110 -7t106 -15v-78l-21 1q-128 9 -184 9q-68 0 -102 -24t-34 -87v-30q0 -52 27.5 -74t82.5 -22h81
q90 0 137 -48.5t47 -128.5v-52q0 -109 -63 -151t-178 -42q-51 0 -118.5 5.5zM247.5 820q-4.5 5 -4.5 12v84q0 18 17 18h47q17 0 17 -18v-84q0 -8 -4.5 -12.5t-12.5 -4.5h-47q-8 0 -12.5 5z" />
    <glyph glyph-name="uni1E62" unicode="&#x1e62;" horiz-adv-x="582" 
d="M167.5 -0.5q-67.5 5.5 -106.5 14.5v78q83 -8 221 -8q71 0 110 21.5t39 78.5v43q0 93 -99 93h-75q-99 0 -150 43.5t-51 142.5v41q0 102 55.5 149t165.5 47q48 0 110 -7t106 -15v-78l-21 1q-128 9 -184 9q-68 0 -102 -24t-34 -87v-30q0 -52 27.5 -74t82.5 -22h81
q90 0 137 -48.5t47 -128.5v-52q0 -109 -63 -151t-178 -42q-51 0 -118.5 5.5zM247.5 -210.5q-4.5 4.5 -4.5 12.5v84q0 18 17 18h47q17 0 17 -18v-84q0 -8 -4.5 -12.5t-12.5 -4.5h-47q-8 0 -12.5 4.5z" />
    <glyph glyph-name="uni1E68" unicode="&#x1e68;" horiz-adv-x="582" 
d="M167.5 -0.5q-67.5 5.5 -106.5 14.5v78q83 -8 221 -8q71 0 110 21.5t39 78.5v43q0 93 -99 93h-75q-99 0 -150 43.5t-51 142.5v41q0 102 55.5 149t165.5 47q48 0 110 -7t106 -15v-78l-21 1q-128 9 -184 9q-68 0 -102 -24t-34 -87v-30q0 -52 27.5 -74t82.5 -22h81
q90 0 137 -48.5t47 -128.5v-52q0 -109 -63 -151t-178 -42q-51 0 -118.5 5.5zM247.5 -210.5q-4.5 4.5 -4.5 12.5v84q0 18 17 18h47q17 0 17 -18v-84q0 -8 -4.5 -12.5t-12.5 -4.5h-47q-8 0 -12.5 4.5zM247.5 820q-4.5 5 -4.5 12v84q0 18 17 18h47q17 0 17 -18v-84
q0 -8 -4.5 -12.5t-12.5 -4.5h-47q-8 0 -12.5 5z" />
    <glyph glyph-name="uni1E9E" unicode="&#x1e9e;" horiz-adv-x="687" 
d="M584.5 356.5q47.5 -43.5 47.5 -125.5v-52q0 -104 -60 -144.5t-167 -40.5q-33 0 -78.5 4.5t-71.5 11.5v78q51 -3 136 -3q67 0 103.5 21.5t36.5 77.5v41q0 48 -25.5 70.5t-82.5 22.5h-121v82h83l42 181l58 66h-219q-45 0 -68.5 -23.5t-23.5 -68.5v-555h-101v554
q0 95 53.5 139t136.5 44q192 -1 329 -8l-8 -15l8 5l-124 -249l-68 -70h48q89 0 136.5 -43.5z" />
    <glyph glyph-name="uni018F" unicode="&#x18f;" horiz-adv-x="615" 
d="M115 72.5q-61 78.5 -61 258.5v69h405q-1 104 -21.5 157.5t-65.5 74.5t-128 21q-73 0 -114 -5.5t-46 -6.5v77q83 25 188 25q102 0 163.5 -28.5t93.5 -108t32 -229.5t-31.5 -234t-88 -116.5t-139.5 -32.5q-126 0 -187 78.5zM384.5 104q33.5 20 52 71.5t20.5 143.5h-302
q1 -88 14.5 -138.5t45 -73.5t86.5 -23q50 0 83.5 20z" />
    <glyph glyph-name="T" unicode="T" horiz-adv-x="573" 
d="M236 647h-220v90h541v-90h-220v-647h-101v647z" />
    <glyph glyph-name="Tbar" unicode="&#x166;" horiz-adv-x="573" 
d="M337 647v-233h175v-55h-175v-359h-101v359h-176v55h176v233h-220v90h541v-90h-220z" />
    <glyph glyph-name="Tcaron" unicode="&#x164;" horiz-adv-x="573" 
d="M236 647h-220v90h541v-90h-220v-647h-101v647zM142 928h60l84 -90l90 90h61l-118 -137h-70z" />
    <glyph glyph-name="uni0162" unicode="&#x162;" horiz-adv-x="573" 
d="M315 0l-34 -53q71 -6 71 -65q0 -36 -25.5 -55t-73.5 -19h-38v41l21 2q51 6 51 42q0 38 -60 42l42 65h-33v647h-220v90h541v-90h-220v-647h-22z" />
    <glyph glyph-name="uni021A" unicode="&#x21a;" horiz-adv-x="573" 
d="M236 647h-220v90h541v-90h-220v-647h-101v647zM168 -165l29 5q25 5 38 12.5t19 26t6 55.5h62q0 -53 -9.5 -82.5t-34 -43.5t-68.5 -14h-42v41z" />
    <glyph glyph-name="uni1E6A" unicode="&#x1e6a;" horiz-adv-x="573" 
d="M236 647h-220v90h541v-90h-220v-647h-101v647zM248.5 820q-4.5 5 -4.5 12v84q0 18 17 18h47q17 0 17 -18v-84q0 -8 -4.5 -12.5t-12.5 -4.5h-47q-8 0 -12.5 5z" />
    <glyph glyph-name="uni1E6C" unicode="&#x1e6c;" horiz-adv-x="573" 
d="M236 647h-220v90h541v-90h-220v-647h-101v647zM248.5 -210.5q-4.5 4.5 -4.5 12.5v84q0 18 17 18h47q17 0 17 -18v-84q0 -8 -4.5 -12.5t-12.5 -4.5h-47q-8 0 -12.5 4.5z" />
    <glyph glyph-name="uni1E6E" unicode="&#x1e6e;" horiz-adv-x="573" 
d="M236 647h-220v90h541v-90h-220v-647h-101v647zM149 -136h270v-60h-270v60z" />
    <glyph glyph-name="U" unicode="U" horiz-adv-x="679" 
d="M133.5 46.5q-70.5 52.5 -70.5 184.5v506h101v-505q0 -81 44 -114t131 -33q88 0 132 33t44 114v505h101v-506q0 -132 -71 -184.5t-206 -52.5t-205.5 52.5z" />
    <glyph glyph-name="Uacute" unicode="&#xda;" horiz-adv-x="679" 
d="M133.5 46.5q-70.5 52.5 -70.5 184.5v506h101v-505q0 -81 44 -114t131 -33q88 0 132 33t44 114v505h101v-506q0 -132 -71 -184.5t-206 -52.5t-205.5 52.5zM406 929h84l-122 -138h-59z" />
    <glyph glyph-name="Ubreve" unicode="&#x16c;" horiz-adv-x="679" 
d="M133.5 46.5q-70.5 52.5 -70.5 184.5v506h101v-505q0 -81 44 -114t131 -33q88 0 132 33t44 114v505h101v-506q0 -132 -71 -184.5t-206 -52.5t-205.5 52.5zM230 822q-36 35 -36 110h47q0 -50 23.5 -74t60.5 -24q88 0 88 98h49q0 -76 -36.5 -110.5t-98.5 -34.5q-61 0 -97 35
z" />
    <glyph glyph-name="Ucircumflex" unicode="&#xdb;" horiz-adv-x="679" 
d="M133.5 46.5q-70.5 52.5 -70.5 184.5v506h101v-505q0 -81 44 -114t131 -33q88 0 132 33t44 114v505h101v-506q0 -132 -71 -184.5t-206 -52.5t-205.5 52.5zM302 928h70l107 -137h-60l-84 91l-91 -91h-60z" />
    <glyph glyph-name="uni0214" unicode="&#x214;" horiz-adv-x="679" 
d="M133.5 46.5q-70.5 52.5 -70.5 184.5v506h101v-505q0 -81 44 -114t131 -33q88 0 132 33t44 114v505h101v-506q0 -132 -71 -184.5t-206 -52.5t-205.5 52.5zM121 929h83l98 -138h-59zM277 929h83l98 -138h-59z" />
    <glyph glyph-name="Udieresis" unicode="&#xdc;" horiz-adv-x="679" 
d="M133.5 46.5q-70.5 52.5 -70.5 184.5v506h101v-505q0 -81 44 -114t131 -33q88 0 132 33t44 114v505h101v-506q0 -132 -71 -184.5t-206 -52.5t-205.5 52.5zM176.5 813q-4.5 5 -4.5 12v84q0 18 17 18h47q17 0 17 -18v-84q0 -8 -4.5 -12.5t-12.5 -4.5h-47q-8 0 -12.5 5z
M405 813q-5 5 -5 12v84q0 18 18 18h46q17 0 17 -18v-84q0 -8 -4.5 -12.5t-12.5 -4.5h-46q-8 0 -13 5z" />
    <glyph glyph-name="uni1EE4" unicode="&#x1ee4;" horiz-adv-x="679" 
d="M133.5 46.5q-70.5 52.5 -70.5 184.5v506h101v-505q0 -81 44 -114t131 -33q88 0 132 33t44 114v505h101v-506q0 -132 -71 -184.5t-206 -52.5t-205.5 52.5zM296.5 -210.5q-4.5 4.5 -4.5 12.5v84q0 18 17 18h47q17 0 17 -18v-84q0 -8 -4.5 -12.5t-12.5 -4.5h-47
q-8 0 -12.5 4.5z" />
    <glyph glyph-name="Ugrave" unicode="&#xd9;" horiz-adv-x="679" 
d="M133.5 46.5q-70.5 52.5 -70.5 184.5v506h101v-505q0 -81 44 -114t131 -33q88 0 132 33t44 114v505h101v-506q0 -132 -71 -184.5t-206 -52.5t-205.5 52.5zM192 929h83l98 -138h-59z" />
    <glyph glyph-name="uni1EE6" unicode="&#x1ee6;" horiz-adv-x="679" 
d="M133.5 46.5q-70.5 52.5 -70.5 184.5v506h101v-505q0 -81 44 -114t131 -33q88 0 132 33t44 114v505h101v-506q0 -132 -71 -184.5t-206 -52.5t-205.5 52.5zM310 815q27 8 39 22t12 31q0 19 -10 29t-34 10q-17 0 -34 -6v41q20 7 47 7q42 0 63.5 -20.5t21.5 -57.5
q0 -72 -105 -102v46z" />
    <glyph glyph-name="Uhorn" unicode="&#x1af;" horiz-adv-x="679" 
d="M684.5 737.5q-25.5 -40.5 -68.5 -51.5v-455q0 -132 -71 -184.5t-206 -52.5t-205.5 52.5t-70.5 184.5v506h101v-505q0 -81 44 -114t131 -33q88 0 132 33t44 114v505h47q37 0 57 26t20 86h71q0 -71 -25.5 -111.5z" />
    <glyph glyph-name="uni1EE8" unicode="&#x1ee8;" horiz-adv-x="679" 
d="M684.5 737.5q-25.5 -40.5 -68.5 -51.5v-455q0 -132 -71 -184.5t-206 -52.5t-205.5 52.5t-70.5 184.5v506h101v-505q0 -81 44 -114t131 -33q88 0 132 33t44 114v505h47q37 0 57 26t20 86h71q0 -71 -25.5 -111.5zM398 929h84l-122 -138h-59z" />
    <glyph glyph-name="uni1EF0" unicode="&#x1ef0;" horiz-adv-x="679" 
d="M684.5 737.5q-25.5 -40.5 -68.5 -51.5v-455q0 -132 -71 -184.5t-206 -52.5t-205.5 52.5t-70.5 184.5v506h101v-505q0 -81 44 -114t131 -33q88 0 132 33t44 114v505h47q37 0 57 26t20 86h71q0 -71 -25.5 -111.5zM290.5 -210.5q-4.5 4.5 -4.5 12.5v84q0 18 17 18h47
q17 0 17 -18v-84q0 -8 -4.5 -12.5t-12.5 -4.5h-47q-8 0 -12.5 4.5z" />
    <glyph glyph-name="uni1EEA" unicode="&#x1eea;" horiz-adv-x="679" 
d="M684.5 737.5q-25.5 -40.5 -68.5 -51.5v-455q0 -132 -71 -184.5t-206 -52.5t-205.5 52.5t-70.5 184.5v506h101v-505q0 -81 44 -114t131 -33q88 0 132 33t44 114v505h47q37 0 57 26t20 86h71q0 -71 -25.5 -111.5zM195 929h83l98 -138h-59z" />
    <glyph glyph-name="uni1EEC" unicode="&#x1eec;" horiz-adv-x="679" 
d="M684.5 737.5q-25.5 -40.5 -68.5 -51.5v-455q0 -132 -71 -184.5t-206 -52.5t-205.5 52.5t-70.5 184.5v506h101v-505q0 -81 44 -114t131 -33q88 0 132 33t44 114v505h47q37 0 57 26t20 86h71q0 -71 -25.5 -111.5zM317 815q27 8 39 22t12 31q0 19 -10 29t-34 10
q-17 0 -34 -6v41q20 7 47 7q42 0 63.5 -20.5t21.5 -57.5q0 -72 -105 -102v46z" />
    <glyph glyph-name="uni1EEE" unicode="&#x1eee;" horiz-adv-x="679" 
d="M684.5 737.5q-25.5 -40.5 -68.5 -51.5v-455q0 -132 -71 -184.5t-206 -52.5t-205.5 52.5t-70.5 184.5v506h101v-505q0 -81 44 -114t131 -33q88 0 132 33t44 114v505h47q37 0 57 26t20 86h71q0 -71 -25.5 -111.5zM198 887.5q28 27.5 68 27.5q23 0 43 -8t45 -23
q22 -13 36 -19t29 -6q25 0 39.5 15.5t15.5 44.5h51q-1 -56 -27 -86.5t-72 -30.5q-22 0 -41.5 8t-44.5 23q-21 13 -36.5 19.5t-30.5 6.5q-23 0 -38 -15t-16 -43h-51q2 59 30 86.5z" />
    <glyph glyph-name="Uhungarumlaut" unicode="&#x170;" horiz-adv-x="679" 
d="M133.5 46.5q-70.5 52.5 -70.5 184.5v506h101v-505q0 -81 44 -114t131 -33q88 0 132 33t44 114v505h101v-506q0 -132 -71 -184.5t-206 -52.5t-205.5 52.5zM301 929h80l-113 -138h-59zM456 929h79l-113 -138h-59z" />
    <glyph glyph-name="uni0216" unicode="&#x216;" horiz-adv-x="679" 
d="M133.5 46.5q-70.5 52.5 -70.5 184.5v506h101v-505q0 -81 44 -114t131 -33q88 0 132 33t44 114v505h101v-506q0 -132 -71 -184.5t-206 -52.5t-205.5 52.5zM429 898q36 -35 36 -110h-47q0 51 -24 74.5t-60 23.5q-88 0 -88 -98h-49q0 76 36.5 110.5t98.5 34.5q61 0 97 -35z
" />
    <glyph glyph-name="Umacron" unicode="&#x16a;" horiz-adv-x="679" 
d="M133.5 46.5q-70.5 52.5 -70.5 184.5v506h101v-505q0 -81 44 -114t131 -33q88 0 132 33t44 114v505h101v-506q0 -132 -71 -184.5t-206 -52.5t-205.5 52.5zM193 884h270v-60h-270v60z" />
    <glyph glyph-name="uni1E7A" unicode="&#x1e7a;" horiz-adv-x="679" 
d="M133.5 46.5q-70.5 52.5 -70.5 184.5v506h101v-505q0 -81 44 -114t131 -33q88 0 132 33t44 114v505h101v-506q0 -132 -71 -184.5t-206 -52.5t-205.5 52.5zM193 884h270v-60h-270v60zM176.5 947q-4.5 5 -4.5 12v84q0 18 17 18h47q17 0 17 -18v-84q0 -8 -4.5 -12.5
t-12.5 -4.5h-47q-8 0 -12.5 5zM405 947q-5 5 -5 12v84q0 18 18 18h46q17 0 17 -18v-84q0 -8 -4.5 -12.5t-12.5 -4.5h-46q-8 0 -13 5z" />
    <glyph glyph-name="Uogonek" unicode="&#x172;" horiz-adv-x="679" 
d="M616 737v-506q0 -110 -49.5 -164t-143.5 -68q-58 -34 -58 -76q0 -28 20 -44t55 -16h8v-49q-16 -2 -28 -2q-51 0 -78.5 25.5t-27.5 63.5q0 29 15.5 53t46.5 41q-12 -1 -37 -1q-135 0 -205.5 52.5t-70.5 184.5v506h101v-505q0 -81 44 -114t131 -33q88 0 132 33t44 114v505
h101z" />
    <glyph glyph-name="Uring" unicode="&#x16e;" horiz-adv-x="679" 
d="M133.5 46.5q-70.5 52.5 -70.5 184.5v506h101v-505q0 -81 44 -114t131 -33q88 0 132 33t44 114v505h101v-506q0 -132 -71 -184.5t-206 -52.5t-205.5 52.5zM247.5 790q-28.5 25 -28.5 84t28.5 84.5t87.5 25.5q58 0 85.5 -25t27.5 -85t-27.5 -84.5t-85.5 -24.5
q-59 0 -87.5 25zM385 820q15 15 15 54t-15 54.5t-50 15.5q-36 0 -52 -15.5t-16 -54.5t16 -54t52 -15q35 0 50 15z" />
    <glyph glyph-name="Utilde" unicode="&#x168;" horiz-adv-x="679" 
d="M133.5 46.5q-70.5 52.5 -70.5 184.5v506h101v-505q0 -81 44 -114t131 -33q88 0 132 33t44 114v505h101v-506q0 -132 -71 -184.5t-206 -52.5t-205.5 52.5zM188 887.5q28 27.5 68 27.5q23 0 43 -8t45 -23q22 -13 36 -19t29 -6q25 0 39.5 15.5t15.5 44.5h51
q-1 -56 -27 -86.5t-72 -30.5q-22 0 -41.5 8t-44.5 23q-21 13 -36.5 19.5t-30.5 6.5q-23 0 -38 -15t-16 -43h-51q2 59 30 86.5z" />
    <glyph glyph-name="uni1E78" unicode="&#x1e78;" horiz-adv-x="679" 
d="M133.5 46.5q-70.5 52.5 -70.5 184.5v506h101v-505q0 -81 44 -114t131 -33q88 0 132 33t44 114v505h101v-506q0 -132 -71 -184.5t-206 -52.5t-205.5 52.5zM188 887.5q28 27.5 68 27.5q23 0 43 -8t45 -23q22 -13 36 -19t29 -6q25 0 39.5 15.5t15.5 44.5h51
q-1 -56 -27 -86.5t-72 -30.5q-22 0 -41.5 8t-44.5 23q-21 13 -36.5 19.5t-30.5 6.5q-23 0 -38 -15t-16 -43h-51q2 59 30 86.5zM406 1079h84l-122 -138h-59z" />
    <glyph glyph-name="V" unicode="V" horiz-adv-x="678" 
d="M29 737h104l206 -630l207 630h103l-246 -737h-128z" />
    <glyph glyph-name="W" unicode="W" horiz-adv-x="991" 
d="M29 737h104l146 -594l169 594h97l167 -594l147 594h103l-185 -737h-106l-175 594l-176 -594h-106z" />
    <glyph glyph-name="Wacute" unicode="&#x1e82;" horiz-adv-x="991" 
d="M29 737h104l146 -594l169 594h97l167 -594l147 594h103l-185 -737h-106l-175 594l-176 -594h-106zM583 929h84l-122 -138h-59z" />
    <glyph glyph-name="Wcircumflex" unicode="&#x174;" horiz-adv-x="991" 
d="M29 737h104l146 -594l169 594h97l167 -594l147 594h103l-185 -737h-106l-175 594l-176 -594h-106zM479 928h70l107 -137h-60l-84 91l-91 -91h-60z" />
    <glyph glyph-name="Wdieresis" unicode="&#x1e84;" horiz-adv-x="991" 
d="M29 737h104l146 -594l169 594h97l167 -594l147 594h103l-185 -737h-106l-175 594l-176 -594h-106zM353.5 813q-4.5 5 -4.5 12v84q0 18 17 18h47q17 0 17 -18v-84q0 -8 -4.5 -12.5t-12.5 -4.5h-47q-8 0 -12.5 5zM582 813q-5 5 -5 12v84q0 18 18 18h46q17 0 17 -18v-84
q0 -8 -4.5 -12.5t-12.5 -4.5h-46q-8 0 -13 5z" />
    <glyph glyph-name="Wgrave" unicode="&#x1e80;" horiz-adv-x="991" 
d="M29 737h104l146 -594l169 594h97l167 -594l147 594h103l-185 -737h-106l-175 594l-176 -594h-106zM369 929h83l98 -138h-59z" />
    <glyph glyph-name="X" unicode="X" horiz-adv-x="636" 
d="M376 363l228 -363h-111l-179 285l-171 -285h-110l228 369l-231 368h110l183 -291l172 291h111z" />
    <glyph glyph-name="Y" unicode="Y" horiz-adv-x="621" 
d="M260 238l-230 499h105l177 -397l178 397h101l-230 -499v-238h-101v238z" />
    <glyph glyph-name="Yacute" unicode="&#xdd;" horiz-adv-x="621" 
d="M260 238l-230 499h105l177 -397l178 397h101l-230 -499v-238h-101v238zM384 929h84l-122 -138h-59z" />
    <glyph glyph-name="Ycircumflex" unicode="&#x176;" horiz-adv-x="621" 
d="M260 238l-230 499h105l177 -397l178 397h101l-230 -499v-238h-101v238zM280 928h70l107 -137h-60l-84 91l-91 -91h-60z" />
    <glyph glyph-name="Ydieresis" unicode="&#x178;" horiz-adv-x="621" 
d="M260 238l-230 499h105l177 -397l178 397h101l-230 -499v-238h-101v238zM154.5 813q-4.5 5 -4.5 12v84q0 18 17 18h47q17 0 17 -18v-84q0 -8 -4.5 -12.5t-12.5 -4.5h-47q-8 0 -12.5 5zM383 813q-5 5 -5 12v84q0 18 18 18h46q17 0 17 -18v-84q0 -8 -4.5 -12.5t-12.5 -4.5
h-46q-8 0 -13 5z" />
    <glyph glyph-name="uni1E8E" unicode="&#x1e8e;" horiz-adv-x="621" 
d="M260 238l-230 499h105l177 -397l178 397h101l-230 -499v-238h-101v238zM274.5 -210.5q-4.5 4.5 -4.5 12.5v84q0 18 17 18h47q17 0 17 -18v-84q0 -8 -4.5 -12.5t-12.5 -4.5h-47q-8 0 -12.5 4.5z" />
    <glyph glyph-name="uni1EF4" unicode="&#x1ef4;" horiz-adv-x="621" 
d="M260 238l-230 499h105l177 -397l178 397h101l-230 -499v-238h-101v238zM274.5 -210.5q-4.5 4.5 -4.5 12.5v84q0 18 17 18h47q17 0 17 -18v-84q0 -8 -4.5 -12.5t-12.5 -4.5h-47q-8 0 -12.5 4.5z" />
    <glyph glyph-name="Ygrave" unicode="&#x1ef2;" horiz-adv-x="621" 
d="M260 238l-230 499h105l177 -397l178 397h101l-230 -499v-238h-101v238zM170 929h83l98 -138h-59z" />
    <glyph glyph-name="uni1EF6" unicode="&#x1ef6;" horiz-adv-x="621" 
d="M260 238l-230 499h105l177 -397l178 397h101l-230 -499v-238h-101v238zM288 815q27 8 39 22t12 31q0 19 -10 29t-34 10q-17 0 -34 -6v41q20 7 47 7q42 0 63.5 -20.5t21.5 -57.5q0 -72 -105 -102v46z" />
    <glyph glyph-name="uni0232" unicode="&#x232;" horiz-adv-x="621" 
d="M260 238l-230 499h105l177 -397l178 397h101l-230 -499v-238h-101v238zM171 884h270v-60h-270v60z" />
    <glyph glyph-name="uni1EF8" unicode="&#x1ef8;" horiz-adv-x="621" 
d="M260 238l-230 499h105l177 -397l178 397h101l-230 -499v-238h-101v238zM166 887.5q28 27.5 68 27.5q23 0 43 -8t45 -23q22 -13 36 -19t29 -6q25 0 39.5 15.5t15.5 44.5h51q-1 -56 -27 -86.5t-72 -30.5q-22 0 -41.5 8t-44.5 23q-21 13 -36.5 19.5t-30.5 6.5q-23 0 -38 -15
t-16 -43h-51q2 59 30 86.5z" />
    <glyph glyph-name="Z" unicode="Z" horiz-adv-x="564" 
d="M42 81l363 566h-363v90h485v-81l-363 -566h363v-90h-485v81z" />
    <glyph glyph-name="Zacute" unicode="&#x179;" horiz-adv-x="564" 
d="M42 81l363 566h-363v90h485v-81l-363 -566h363v-90h-485v81zM352 929h84l-122 -138h-59z" />
    <glyph glyph-name="Zcaron" unicode="&#x17d;" horiz-adv-x="564" 
d="M42 81l363 566h-363v90h485v-81l-363 -566h363v-90h-485v81zM136 928h60l84 -90l90 90h61l-118 -137h-70z" />
    <glyph glyph-name="Zdotaccent" unicode="&#x17b;" horiz-adv-x="564" 
d="M42 81l363 566h-363v90h485v-81l-363 -566h363v-90h-485v81zM242.5 820q-4.5 5 -4.5 12v84q0 18 17 18h47q17 0 17 -18v-84q0 -8 -4.5 -12.5t-12.5 -4.5h-47q-8 0 -12.5 5z" />
    <glyph glyph-name="uni1E92" unicode="&#x1e92;" horiz-adv-x="564" 
d="M42 81l363 566h-363v90h485v-81l-363 -566h363v-90h-485v81zM242.5 -210.5q-4.5 4.5 -4.5 12.5v84q0 18 17 18h47q17 0 17 -18v-84q0 -8 -4.5 -12.5t-12.5 -4.5h-47q-8 0 -12.5 4.5z" />
    <glyph glyph-name="M.salt" horiz-adv-x="853" 
d="M131.5 718q32.5 30 81.5 30q46 0 74 -24.5t38 -82.5l82 -333q7 -27 26 -27q22 0 26 27l74 334q9 58 37.5 82t71.5 24q46 0 76 -29t34 -92l45 -627h-97l-42 610q-2 19 -9 29.5t-17 10.5q-8 0 -15 -8.5t-11 -25.5l-79 -357q-8 -43 -33.5 -63.5t-61.5 -20.5q-35 0 -60 20.5
t-34 63.5l-85 357q-9 33 -31 33q-13 0 -22 -11t-10 -30l-40 -608h-97l42 625q4 63 36.5 93z" />
    <glyph glyph-name="uni1E40.salt" horiz-adv-x="853" 
d="M131.5 718q32.5 30 81.5 30q46 0 74 -24.5t38 -82.5l82 -333q7 -27 26 -27q22 0 26 27l74 334q9 58 37.5 82t71.5 24q46 0 76 -29t34 -92l45 -627h-97l-42 610q-2 19 -9 29.5t-17 10.5q-8 0 -15 -8.5t-11 -25.5l-79 -357q-8 -43 -33.5 -63.5t-61.5 -20.5q-35 0 -60 20.5
t-34 63.5l-85 357q-9 33 -31 33q-13 0 -22 -11t-10 -30l-40 -608h-97l42 625q4 63 36.5 93zM382.5 820q-4.5 5 -4.5 12v84q0 18 17 18h47q17 0 17 -18v-84q0 -8 -4.5 -12.5t-12.5 -4.5h-47q-8 0 -12.5 5z" />
    <glyph glyph-name="uni1E42.salt" horiz-adv-x="853" 
d="M131.5 718q32.5 30 81.5 30q46 0 74 -24.5t38 -82.5l82 -333q7 -27 26 -27q22 0 26 27l74 334q9 58 37.5 82t71.5 24q46 0 76 -29t34 -92l45 -627h-97l-42 610q-2 19 -9 29.5t-17 10.5q-8 0 -15 -8.5t-11 -25.5l-79 -357q-8 -43 -33.5 -63.5t-61.5 -20.5q-35 0 -60 20.5
t-34 63.5l-85 357q-9 33 -31 33q-13 0 -22 -11t-10 -30l-40 -608h-97l42 625q4 63 36.5 93zM382.5 -210.5q-4.5 4.5 -4.5 12.5v84q0 18 17 18h47q17 0 17 -18v-84q0 -8 -4.5 -12.5t-12.5 -4.5h-47q-8 0 -12.5 4.5z" />
    <glyph glyph-name="N.salt" horiz-adv-x="752" 
d="M212 744q54 0 84 -27.5t46 -80.5l176 -514q5 -15 13.5 -22t23.5 -7q34 0 34 40v604h101v-615q0 -128 -129 -128q-52 0 -81.5 24.5t-47.5 78.5l-177 518q-11 29 -34 29q-17 0 -26.5 -9.5t-9.5 -34.5v-600h-101v610q0 134 128 134z" />
    <glyph glyph-name="Nacute.salt" horiz-adv-x="752" 
d="M212 744q54 0 84 -27.5t46 -80.5l176 -514q5 -15 13.5 -22t23.5 -7q34 0 34 40v604h101v-615q0 -128 -129 -128q-52 0 -81.5 24.5t-47.5 78.5l-177 518q-11 29 -34 29q-17 0 -26.5 -9.5t-9.5 -34.5v-600h-101v610q0 134 128 134zM471 929h84l-122 -138h-59z" />
    <glyph glyph-name="Ncaron.salt" horiz-adv-x="752" 
d="M212 744q54 0 84 -27.5t46 -80.5l176 -514q5 -15 13.5 -22t23.5 -7q34 0 34 40v604h101v-615q0 -128 -129 -128q-52 0 -81.5 24.5t-47.5 78.5l-177 518q-11 29 -34 29q-17 0 -26.5 -9.5t-9.5 -34.5v-600h-101v610q0 134 128 134zM255 928h60l84 -90l90 90h61l-118 -137
h-70z" />
    <glyph glyph-name="Ncommaaccent.salt" horiz-adv-x="752" 
d="M212 744q54 0 84 -27.5t46 -80.5l176 -514q5 -15 13.5 -22t23.5 -7q34 0 34 40v604h101v-615q0 -128 -129 -128q-52 0 -81.5 24.5t-47.5 78.5l-177 518q-11 29 -34 29q-17 0 -26.5 -9.5t-9.5 -34.5v-600h-101v610q0 134 128 134zM306 -165l29 5q25 5 38 12.5t19 26
t6 55.5h62q0 -53 -9.5 -82.5t-34 -43.5t-68.5 -14h-42v41z" />
    <glyph glyph-name="uni1E44.salt" horiz-adv-x="752" 
d="M212 744q54 0 84 -27.5t46 -80.5l176 -514q5 -15 13.5 -22t23.5 -7q34 0 34 40v604h101v-615q0 -128 -129 -128q-52 0 -81.5 24.5t-47.5 78.5l-177 518q-11 29 -34 29q-17 0 -26.5 -9.5t-9.5 -34.5v-600h-101v610q0 134 128 134zM352.5 -210.5q-4.5 4.5 -4.5 12.5v84
q0 18 17 18h47q17 0 17 -18v-84q0 -8 -4.5 -12.5t-12.5 -4.5h-47q-8 0 -12.5 4.5z" />
    <glyph glyph-name="uni1E46.salt" horiz-adv-x="752" 
d="M212 744q54 0 84 -27.5t46 -80.5l176 -514q5 -15 13.5 -22t23.5 -7q34 0 34 40v604h101v-615q0 -128 -129 -128q-52 0 -81.5 24.5t-47.5 78.5l-177 518q-11 29 -34 29q-17 0 -26.5 -9.5t-9.5 -34.5v-600h-101v610q0 134 128 134zM352.5 -210.5q-4.5 4.5 -4.5 12.5v84
q0 18 17 18h47q17 0 17 -18v-84q0 -8 -4.5 -12.5t-12.5 -4.5h-47q-8 0 -12.5 4.5z" />
    <glyph glyph-name="uni1E48.salt" horiz-adv-x="752" 
d="M212 744q54 0 84 -27.5t46 -80.5l176 -514q5 -15 13.5 -22t23.5 -7q34 0 34 40v604h101v-615q0 -128 -129 -128q-52 0 -81.5 24.5t-47.5 78.5l-177 518q-11 29 -34 29q-17 0 -26.5 -9.5t-9.5 -34.5v-600h-101v610q0 134 128 134zM253 -136h270v-60h-270v60z" />
    <glyph glyph-name="Ntilde.salt" horiz-adv-x="752" 
d="M212 744q54 0 84 -27.5t46 -80.5l176 -514q5 -15 13.5 -22t23.5 -7q34 0 34 40v604h101v-615q0 -128 -129 -128q-52 0 -81.5 24.5t-47.5 78.5l-177 518q-11 29 -34 29q-17 0 -26.5 -9.5t-9.5 -34.5v-600h-101v610q0 134 128 134zM253 887.5q28 27.5 68 27.5q23 0 43 -8
t45 -23q22 -13 36 -19t29 -6q25 0 39.5 15.5t15.5 44.5h51q-1 -56 -27 -86.5t-72 -30.5q-22 0 -41.5 8t-44.5 23q-21 13 -36.5 19.5t-30.5 6.5q-23 0 -38 -15t-16 -43h-51q2 59 30 86.5z" />
    <glyph glyph-name="W.salt" horiz-adv-x="1018" 
d="M330 113l191 624h105l-69 -235l138 -389l192 624h102l-223 -737h-132l-125 351l-121 -351h-132l-227 737h104z" />
    <glyph glyph-name="Wacute.salt" horiz-adv-x="1018" 
d="M330 113l191 624h105l-69 -235l138 -389l192 624h102l-223 -737h-132l-125 351l-121 -351h-132l-227 737h104zM599 929h84l-122 -138h-59z" />
    <glyph glyph-name="Wcircumflex.salt" horiz-adv-x="1018" 
d="M330 113l191 624h105l-69 -235l138 -389l192 624h102l-223 -737h-132l-125 351l-121 -351h-132l-227 737h104zM495 928h70l107 -137h-60l-84 91l-91 -91h-60z" />
    <glyph glyph-name="Wdieresis.salt" horiz-adv-x="1018" 
d="M330 113l191 624h105l-69 -235l138 -389l192 624h102l-223 -737h-132l-125 351l-121 -351h-132l-227 737h104zM369.5 813q-4.5 5 -4.5 12v84q0 18 17 18h47q17 0 17 -18v-84q0 -8 -4.5 -12.5t-12.5 -4.5h-47q-8 0 -12.5 5zM598 813q-5 5 -5 12v84q0 18 18 18h46
q17 0 17 -18v-84q0 -8 -4.5 -12.5t-12.5 -4.5h-46q-8 0 -13 5z" />
    <glyph glyph-name="Wgrave.salt" horiz-adv-x="1018" 
d="M330 113l191 624h105l-69 -235l138 -389l192 624h102l-223 -737h-132l-125 351l-121 -351h-132l-227 737h104zM385 929h83l98 -138h-59z" />
    <glyph glyph-name="X.salt" horiz-adv-x="651" 
d="M208 369q0 42 -33 101l-145 267h104l137 -241q38 -64 38 -126q0 -63 -31 -120l-138 -250h-109l149 275q28 50 28 94zM345 370q0 59 38 126l134 241h105l-143 -267q-33 -59 -33 -101q0 -48 26 -94l150 -275h-109l-138 250q-30 53 -30 120z" />
    <glyph glyph-name="a" unicode="a" horiz-adv-x="546" 
d="M79 30q-38 36 -38 98v42q0 64 43.5 102.5t127.5 38.5h167v56q0 33 -11 53.5t-39.5 31.5t-81.5 11h-164v59q88 20 198 21q102 0 150.5 -39.5t48.5 -129.5v-374h-79l-17 60q-9 -8 -42.5 -24t-78 -29t-86.5 -13q-60 0 -98 36zM283 75.5q34 8.5 63.5 19t32.5 12.5v154
l-140 -6q-97 -6 -97 -86v-24q0 -41 24 -59.5t59 -18.5q24 0 58 8.5z" />
    <glyph glyph-name="aacute" unicode="&#xe1;" horiz-adv-x="546" 
d="M79 30q-38 36 -38 98v42q0 64 43.5 102.5t127.5 38.5h167v56q0 33 -11 53.5t-39.5 31.5t-81.5 11h-164v59q88 20 198 21q102 0 150.5 -39.5t48.5 -129.5v-374h-79l-17 60q-9 -8 -42.5 -24t-78 -29t-86.5 -13q-60 0 -98 36zM283 75.5q34 8.5 63.5 19t32.5 12.5v154
l-140 -6q-97 -6 -97 -86v-24q0 -41 24 -59.5t59 -18.5q24 0 58 8.5zM331 769h84l-122 -138h-59z" />
    <glyph glyph-name="abreve" unicode="&#x103;" horiz-adv-x="546" 
d="M79 30q-38 36 -38 98v42q0 64 43.5 102.5t127.5 38.5h167v56q0 33 -11 53.5t-39.5 31.5t-81.5 11h-164v59q88 20 198 21q102 0 150.5 -39.5t48.5 -129.5v-374h-79l-17 60q-9 -8 -42.5 -24t-78 -29t-86.5 -13q-60 0 -98 36zM283 75.5q34 8.5 63.5 19t32.5 12.5v154
l-140 -6q-97 -6 -97 -86v-24q0 -41 24 -59.5t59 -18.5q24 0 58 8.5zM166 662q-36 35 -36 110h47q0 -50 24 -74t60 -24q88 0 88 98h49q0 -76 -36.5 -110.5t-98.5 -34.5q-61 0 -97 35z" />
    <glyph glyph-name="uni1EAF" unicode="&#x1eaf;" horiz-adv-x="546" 
d="M79 30q-38 36 -38 98v42q0 64 43.5 102.5t127.5 38.5h167v56q0 33 -11 53.5t-39.5 31.5t-81.5 11h-164v59q88 20 198 21q102 0 150.5 -39.5t48.5 -129.5v-374h-79l-17 60q-9 -8 -42.5 -24t-78 -29t-86.5 -13q-60 0 -98 36zM283 75.5q34 8.5 63.5 19t32.5 12.5v154
l-140 -6q-97 -6 -97 -86v-24q0 -41 24 -59.5t59 -18.5q24 0 58 8.5zM326 883h84l-122 -138h-59zM201 678.5q23 -17.5 59 -17.5q42 0 65.5 16.5t23.5 55.5h49q0 -60 -36.5 -87.5t-98.5 -27.5q-61 0 -97 28t-36 87h48q0 -37 23 -54.5z" />
    <glyph glyph-name="uni1EB7" unicode="&#x1eb7;" horiz-adv-x="546" 
d="M79 30q-38 36 -38 98v42q0 64 43.5 102.5t127.5 38.5h167v56q0 33 -11 53.5t-39.5 31.5t-81.5 11h-164v59q88 20 198 21q102 0 150.5 -39.5t48.5 -129.5v-374h-79l-17 60q-9 -8 -42.5 -24t-78 -29t-86.5 -13q-60 0 -98 36zM283 75.5q34 8.5 63.5 19t32.5 12.5v154
l-140 -6q-97 -6 -97 -86v-24q0 -41 24 -59.5t59 -18.5q24 0 58 8.5zM166 662q-36 35 -36 110h47q0 -50 24 -74t60 -24q88 0 88 98h49q0 -76 -36.5 -110.5t-98.5 -34.5q-61 0 -97 35zM230.5 -210.5q-4.5 4.5 -4.5 12.5v84q0 18 17 18h47q17 0 17 -18v-84q0 -8 -4.5 -12.5
t-12.5 -4.5h-47q-8 0 -12.5 4.5z" />
    <glyph glyph-name="uni1EB1" unicode="&#x1eb1;" horiz-adv-x="546" 
d="M79 30q-38 36 -38 98v42q0 64 43.5 102.5t127.5 38.5h167v56q0 33 -11 53.5t-39.5 31.5t-81.5 11h-164v59q88 20 198 21q102 0 150.5 -39.5t48.5 -129.5v-374h-79l-17 60q-9 -8 -42.5 -24t-78 -29t-86.5 -13q-60 0 -98 36zM283 75.5q34 8.5 63.5 19t32.5 12.5v154
l-140 -6q-97 -6 -97 -86v-24q0 -41 24 -59.5t59 -18.5q24 0 58 8.5zM125 883h83l98 -138h-59zM201 678.5q23 -17.5 59 -17.5q42 0 65.5 16.5t23.5 55.5h49q0 -60 -36.5 -87.5t-98.5 -27.5q-61 0 -97 28t-36 87h48q0 -37 23 -54.5z" />
    <glyph glyph-name="uni1EB3" unicode="&#x1eb3;" horiz-adv-x="546" 
d="M79 30q-38 36 -38 98v42q0 64 43.5 102.5t127.5 38.5h167v56q0 33 -11 53.5t-39.5 31.5t-81.5 11h-164v59q88 20 198 21q102 0 150.5 -39.5t48.5 -129.5v-374h-79l-17 60q-9 -8 -42.5 -24t-78 -29t-86.5 -13q-60 0 -98 36zM283 75.5q34 8.5 63.5 19t32.5 12.5v154
l-140 -6q-97 -6 -97 -86v-24q0 -41 24 -59.5t59 -18.5q24 0 58 8.5zM245 749q27 8 39 22t12 31q0 19 -10 29t-34 10q-18 0 -34 -6v41q20 7 47 7q42 0 63.5 -20.5t21.5 -57.5q0 -72 -105 -102v46zM166 646q-36 28 -36 87h48q0 -37 23 -54.5t59 -17.5q42 0 65.5 16.5
t23.5 55.5h49q0 -60 -36.5 -87.5t-98.5 -27.5q-61 0 -97 28z" />
    <glyph glyph-name="uni1EB5" unicode="&#x1eb5;" horiz-adv-x="546" 
d="M79 30q-38 36 -38 98v42q0 64 43.5 102.5t127.5 38.5h167v56q0 33 -11 53.5t-39.5 31.5t-81.5 11h-164v59q88 20 198 21q102 0 150.5 -39.5t48.5 -129.5v-374h-79l-17 60q-9 -8 -42.5 -24t-78 -29t-86.5 -13q-60 0 -98 36zM283 75.5q34 8.5 63.5 19t32.5 12.5v154
l-140 -6q-97 -6 -97 -86v-24q0 -41 24 -59.5t59 -18.5q24 0 58 8.5zM226.5 852q16.5 -5 40.5 -16q19 -8 32 -12.5t27 -4.5q22 0 35.5 10.5t13.5 30.5h51q-3 -48 -23.5 -69.5t-60.5 -21.5q-18 0 -34.5 5t-40.5 15q-22 9 -35 13.5t-26 4.5q-21 0 -34 -10.5t-14 -28.5h-51
q5 89 84 89q19 0 35.5 -5zM201 678.5q23 -17.5 59 -17.5q42 0 65.5 16.5t23.5 55.5h49q0 -60 -36.5 -87.5t-98.5 -27.5q-61 0 -97 28t-36 87h48q0 -37 23 -54.5z" />
    <glyph glyph-name="acircumflex" unicode="&#xe2;" horiz-adv-x="546" 
d="M79 30q-38 36 -38 98v42q0 64 43.5 102.5t127.5 38.5h167v56q0 33 -11 53.5t-39.5 31.5t-81.5 11h-164v59q88 20 198 21q102 0 150.5 -39.5t48.5 -129.5v-374h-79l-17 60q-9 -8 -42.5 -24t-78 -29t-86.5 -13q-60 0 -98 36zM283 75.5q34 8.5 63.5 19t32.5 12.5v154
l-140 -6q-97 -6 -97 -86v-24q0 -41 24 -59.5t59 -18.5q24 0 58 8.5zM238 768h70l107 -137h-60l-84 91l-91 -91h-60z" />
    <glyph glyph-name="uni1EA5" unicode="&#x1ea5;" horiz-adv-x="546" 
d="M79 30q-38 36 -38 98v42q0 64 43.5 102.5t127.5 38.5h167v56q0 33 -11 53.5t-39.5 31.5t-81.5 11h-164v59q88 20 198 21q102 0 150.5 -39.5t48.5 -129.5v-374h-79l-17 60q-9 -8 -42.5 -24t-78 -29t-86.5 -13q-60 0 -98 36zM283 75.5q34 8.5 63.5 19t32.5 12.5v154
l-140 -6q-97 -6 -97 -86v-24q0 -41 24 -59.5t59 -18.5q24 0 58 8.5zM515 839l-99 -129h-59l74 129h84zM308 733l107 -102h-60l-84 55l-91 -55h-60l118 102h70z" />
    <glyph glyph-name="uni1EAD" unicode="&#x1ead;" horiz-adv-x="546" 
d="M79 30q-38 36 -38 98v42q0 64 43.5 102.5t127.5 38.5h167v56q0 33 -11 53.5t-39.5 31.5t-81.5 11h-164v59q88 20 198 21q102 0 150.5 -39.5t48.5 -129.5v-374h-79l-17 60q-9 -8 -42.5 -24t-78 -29t-86.5 -13q-60 0 -98 36zM283 75.5q34 8.5 63.5 19t32.5 12.5v154
l-140 -6q-97 -6 -97 -86v-24q0 -41 24 -59.5t59 -18.5q24 0 58 8.5zM238 768h70l107 -137h-60l-84 91l-91 -91h-60zM230.5 -210.5q-4.5 4.5 -4.5 12.5v84q0 18 17 18h47q17 0 17 -18v-84q0 -8 -4.5 -12.5t-12.5 -4.5h-47q-8 0 -12.5 4.5z" />
    <glyph glyph-name="uni1EA7" unicode="&#x1ea7;" horiz-adv-x="546" 
d="M79 30q-38 36 -38 98v42q0 64 43.5 102.5t127.5 38.5h167v56q0 33 -11 53.5t-39.5 31.5t-81.5 11h-164v59q88 20 198 21q102 0 150.5 -39.5t48.5 -129.5v-374h-79l-17 60q-9 -8 -42.5 -24t-78 -29t-86.5 -13q-60 0 -98 36zM283 75.5q34 8.5 63.5 19t32.5 12.5v154
l-140 -6q-97 -6 -97 -86v-24q0 -41 24 -59.5t59 -18.5q24 0 58 8.5zM109 839l75 -129h-59l-100 129h84zM308 733l107 -102h-60l-84 55l-91 -55h-60l118 102h70z" />
    <glyph glyph-name="uni1EA9" unicode="&#x1ea9;" horiz-adv-x="546" 
d="M79 30q-38 36 -38 98v42q0 64 43.5 102.5t127.5 38.5h167v56q0 33 -11 53.5t-39.5 31.5t-81.5 11h-164v59q88 20 198 21q102 0 150.5 -39.5t48.5 -129.5v-374h-79l-17 60q-9 -8 -42.5 -24t-78 -29t-86.5 -13q-60 0 -98 36zM283 75.5q34 8.5 63.5 19t32.5 12.5v154
l-140 -6q-97 -6 -97 -86v-24q0 -41 24 -59.5t59 -18.5q24 0 58 8.5zM380 729q44 13 44 45q0 17 -8.5 25t-27.5 8q-11 0 -35 -6v36q24 8 48 8q36 0 54.5 -17.5t18.5 -47.5q0 -70 -94 -96v45zM238 733h70l107 -102h-60l-84 55l-91 -55h-60z" />
    <glyph glyph-name="uni1EAB" unicode="&#x1eab;" horiz-adv-x="546" 
d="M79 30q-38 36 -38 98v42q0 64 43.5 102.5t127.5 38.5h167v56q0 33 -11 53.5t-39.5 31.5t-81.5 11h-164v59q88 20 198 21q102 0 150.5 -39.5t48.5 -129.5v-374h-79l-17 60q-9 -8 -42.5 -24t-78 -29t-86.5 -13q-60 0 -98 36zM283 75.5q34 8.5 63.5 19t32.5 12.5v154
l-140 -6q-97 -6 -97 -86v-24q0 -41 24 -59.5t59 -18.5q24 0 58 8.5zM226.5 861q16.5 -5 40.5 -16q19 -8 32 -12.5t27 -4.5q22 0 35.5 10.5t13.5 30.5h51q-3 -48 -23.5 -69.5t-60.5 -21.5q-29 0 -77 20q-22 9 -36.5 13.5t-27.5 4.5q-18 0 -30 -10.5t-13 -28.5h-51q5 89 84 89
q19 0 35.5 -5zM415 631h-60l-84 55l-91 -55h-60l118 102h70z" />
    <glyph glyph-name="uni0201" unicode="&#x201;" horiz-adv-x="546" 
d="M79 30q-38 36 -38 98v42q0 64 43.5 102.5t127.5 38.5h167v56q0 33 -11 53.5t-39.5 31.5t-81.5 11h-164v59q88 20 198 21q102 0 150.5 -39.5t48.5 -129.5v-374h-79l-17 60q-9 -8 -42.5 -24t-78 -29t-86.5 -13q-60 0 -98 36zM283 75.5q34 8.5 63.5 19t32.5 12.5v154
l-140 -6q-97 -6 -97 -86v-24q0 -41 24 -59.5t59 -18.5q24 0 58 8.5zM60 769h84l97 -138h-59zM216 769h84l97 -138h-59z" />
    <glyph glyph-name="adieresis" unicode="&#xe4;" horiz-adv-x="546" 
d="M79 30q-38 36 -38 98v42q0 64 43.5 102.5t127.5 38.5h167v56q0 33 -11 53.5t-39.5 31.5t-81.5 11h-164v59q88 20 198 21q102 0 150.5 -39.5t48.5 -129.5v-374h-79l-17 60q-9 -8 -42.5 -24t-78 -29t-86.5 -13q-60 0 -98 36zM283 75.5q34 8.5 63.5 19t32.5 12.5v154
l-140 -6q-97 -6 -97 -86v-24q0 -41 24 -59.5t59 -18.5q24 0 58 8.5zM134 653q-5 5 -5 12v84q0 18 18 18h46q17 0 17 -18v-84q0 -17 -17 -17h-46q-8 0 -13 5zM329.5 653q-4.5 5 -4.5 12v84q0 18 17 18h47q17 0 17 -18v-84q0 -8 -4.5 -12.5t-12.5 -4.5h-47q-8 0 -12.5 5z" />
    <glyph glyph-name="uni1EA1" unicode="&#x1ea1;" horiz-adv-x="546" 
d="M79 30q-38 36 -38 98v42q0 64 43.5 102.5t127.5 38.5h167v56q0 33 -11 53.5t-39.5 31.5t-81.5 11h-164v59q88 20 198 21q102 0 150.5 -39.5t48.5 -129.5v-374h-79l-17 60q-9 -8 -42.5 -24t-78 -29t-86.5 -13q-60 0 -98 36zM283 75.5q34 8.5 63.5 19t32.5 12.5v154
l-140 -6q-97 -6 -97 -86v-24q0 -41 24 -59.5t59 -18.5q24 0 58 8.5zM230.5 -210.5q-4.5 4.5 -4.5 12.5v84q0 18 17 18h47q17 0 17 -18v-84q0 -8 -4.5 -12.5t-12.5 -4.5h-47q-8 0 -12.5 4.5z" />
    <glyph glyph-name="agrave" unicode="&#xe0;" horiz-adv-x="546" 
d="M79 30q-38 36 -38 98v42q0 64 43.5 102.5t127.5 38.5h167v56q0 33 -11 53.5t-39.5 31.5t-81.5 11h-164v59q88 20 198 21q102 0 150.5 -39.5t48.5 -129.5v-374h-79l-17 60q-9 -8 -42.5 -24t-78 -29t-86.5 -13q-60 0 -98 36zM283 75.5q34 8.5 63.5 19t32.5 12.5v154
l-140 -6q-97 -6 -97 -86v-24q0 -41 24 -59.5t59 -18.5q24 0 58 8.5zM139 769h83l98 -138h-59z" />
    <glyph glyph-name="uni1EA3" unicode="&#x1ea3;" horiz-adv-x="546" 
d="M79 30q-38 36 -38 98v42q0 64 43.5 102.5t127.5 38.5h167v56q0 33 -11 53.5t-39.5 31.5t-81.5 11h-164v59q88 20 198 21q102 0 150.5 -39.5t48.5 -129.5v-374h-79l-17 60q-9 -8 -42.5 -24t-78 -29t-86.5 -13q-60 0 -98 36zM283 75.5q34 8.5 63.5 19t32.5 12.5v154
l-140 -6q-97 -6 -97 -86v-24q0 -41 24 -59.5t59 -18.5q24 0 58 8.5zM249 646q27 8 39 22t12 31q0 19 -10 29t-34 10q-18 0 -34 -6v41q20 7 47 7q42 0 63.5 -20.5t21.5 -57.5q0 -72 -105 -102v46z" />
    <glyph glyph-name="uni0203" unicode="&#x203;" horiz-adv-x="546" 
d="M79 30q-38 36 -38 98v42q0 64 43.5 102.5t127.5 38.5h167v56q0 33 -11 53.5t-39.5 31.5t-81.5 11h-164v59q88 20 198 21q102 0 150.5 -39.5t48.5 -129.5v-374h-79l-17 60q-9 -8 -42.5 -24t-78 -29t-86.5 -13q-60 0 -98 36zM283 75.5q34 8.5 63.5 19t32.5 12.5v154
l-140 -6q-97 -6 -97 -86v-24q0 -41 24 -59.5t59 -18.5q24 0 58 8.5zM366 738q36 -35 36 -110h-47q0 51 -24 74.5t-60 23.5q-88 0 -88 -98h-49q0 76 36.5 110.5t98.5 34.5q61 0 97 -35z" />
    <glyph glyph-name="amacron" unicode="&#x101;" horiz-adv-x="546" 
d="M79 30q-38 36 -38 98v42q0 64 43.5 102.5t127.5 38.5h167v56q0 33 -11 53.5t-39.5 31.5t-81.5 11h-164v59q88 20 198 21q102 0 150.5 -39.5t48.5 -129.5v-374h-79l-17 60q-9 -8 -42.5 -24t-78 -29t-86.5 -13q-60 0 -98 36zM283 75.5q34 8.5 63.5 19t32.5 12.5v154
l-140 -6q-97 -6 -97 -86v-24q0 -41 24 -59.5t59 -18.5q24 0 58 8.5zM132 724h270v-60h-270v60z" />
    <glyph glyph-name="aogonek" unicode="&#x105;" horiz-adv-x="546" 
d="M503 -137v-49q-16 -2 -28 -2q-51 0 -78.5 25.5t-27.5 63.5q0 31 18 56.5t54 42.5h-40l-17 60q-9 -8 -42.5 -24t-78 -29t-86.5 -13q-60 0 -98 36t-38 98v42q0 64 43.5 102.5t127.5 38.5h167v56q0 33 -11 53.5t-39.5 31.5t-81.5 11h-164v59q88 20 198 21q102 0 150.5 -39.5
t48.5 -129.5v-374h-1q-59 -33 -59 -77q0 -28 20 -44t55 -16h8zM379 261l-140 -6q-97 -6 -97 -86v-24q0 -41 24 -59.5t59 -18.5q24 0 58 8.5t63.5 19t32.5 12.5v154z" />
    <glyph glyph-name="aring" unicode="&#xe5;" horiz-adv-x="546" 
d="M79 30q-38 36 -38 98v42q0 64 43.5 102.5t127.5 38.5h167v56q0 33 -11 53.5t-39.5 31.5t-81.5 11h-164v59q88 20 198 21q102 0 150.5 -39.5t48.5 -129.5v-374h-79l-17 60q-9 -8 -42.5 -24t-78 -29t-86.5 -13q-60 0 -98 36zM283 75.5q34 8.5 63.5 19t32.5 12.5v154
l-140 -6q-97 -6 -97 -86v-24q0 -41 24 -59.5t59 -18.5q24 0 58 8.5zM183.5 616q-28.5 25 -28.5 84t28.5 84.5t87.5 25.5q58 0 85.5 -25t27.5 -85t-27.5 -84.5t-85.5 -24.5q-59 0 -87.5 25zM321 646q15 15 15 54t-15 54.5t-50 15.5q-36 0 -52 -15.5t-16 -54.5t16 -54t52 -15
q35 0 50 15z" />
    <glyph glyph-name="aringacute" unicode="&#x1fb;" horiz-adv-x="546" 
d="M183.5 616q-28.5 25 -28.5 84q0 55 24.5 80.5t74.5 28.5l84 120h84l-109 -123q36 -8 53.5 -33t17.5 -73q0 -60 -27.5 -84.5t-85.5 -24.5q-59 0 -87.5 25zM219 754.5q-16 -15.5 -16 -54.5t16 -54t52 -15q35 0 50 15t15 54t-15 54.5t-50 15.5q-36 0 -52 -15.5zM431.5 503.5
q48.5 -39.5 48.5 -129.5v-374h-79l-17 60q-9 -8 -42.5 -24t-78 -29t-86.5 -13q-60 0 -98 36t-38 98v42q0 64 43.5 102.5t127.5 38.5h167v56q0 33 -11 53.5t-39.5 31.5t-81.5 11h-164v59q88 20 198 21q102 0 150.5 -39.5zM379 261l-140 -6q-97 -6 -97 -86v-24q0 -41 24 -59.5
t59 -18.5q24 0 58 8.5t63.5 19t32.5 12.5v154z" />
    <glyph glyph-name="atilde" unicode="&#xe3;" horiz-adv-x="546" 
d="M79 30q-38 36 -38 98v42q0 64 43.5 102.5t127.5 38.5h167v56q0 33 -11 53.5t-39.5 31.5t-81.5 11h-164v59q88 20 198 21q102 0 150.5 -39.5t48.5 -129.5v-374h-79l-17 60q-9 -8 -42.5 -24t-78 -29t-86.5 -13q-60 0 -98 36zM283 75.5q34 8.5 63.5 19t32.5 12.5v154
l-140 -6q-97 -6 -97 -86v-24q0 -41 24 -59.5t59 -18.5q24 0 58 8.5zM131 727.5q28 27.5 68 27.5q23 0 43 -8t45 -23q22 -13 36 -19t29 -6q25 0 39.5 15.5t15.5 44.5h51q-1 -56 -27 -86.5t-72 -30.5q-22 0 -41.5 8t-44.5 23q-21 13 -36.5 19.5t-30.5 6.5q-23 0 -38 -15
t-16 -43h-51q2 59 30 86.5z" />
    <glyph glyph-name="ae" unicode="&#xe6;" horiz-adv-x="872" 
d="M78 31.5q-35 37.5 -35 99.5v37q0 63 42.5 100.5t125.5 37.5h170v63q0 45 -28.5 69.5t-94.5 24.5h-173v59q42 10 83 15t100 6q59 0 104 -21.5t64 -61.5q21 43 64.5 62.5t108.5 19.5q73 0 118 -16.5t67 -56t22 -109.5q0 -67 -41 -94t-124 -27h-172q0 -98 42 -133t123 -35
h157v-60q-84 -17 -202 -17q-70 0 -116 29t-70 73q-41 -43 -101.5 -72.5t-129.5 -29.5t-104 37.5zM649 304q38 0 57 12.5t19 45.5q0 57 -28 80t-95 23q-49 0 -75 -13.5t-36.5 -47.5t-11.5 -100h170zM313.5 87q43.5 20 78.5 56q-12 50 -12 111l-151 -6q-44 -1 -64.5 -23
t-20.5 -56v-22q0 -80 81 -80q45 0 88.5 20z" />
    <glyph glyph-name="aeacute" unicode="&#x1fd;" horiz-adv-x="872" 
d="M78 31.5q-35 37.5 -35 99.5v37q0 63 42.5 100.5t125.5 37.5h170v63q0 45 -28.5 69.5t-94.5 24.5h-173v59q42 10 83 15t100 6q59 0 104 -21.5t64 -61.5q21 43 64.5 62.5t108.5 19.5q73 0 118 -16.5t67 -56t22 -109.5q0 -67 -41 -94t-124 -27h-172q0 -98 42 -133t123 -35
h157v-60q-84 -17 -202 -17q-70 0 -116 29t-70 73q-41 -43 -101.5 -72.5t-129.5 -29.5t-104 37.5zM649 304q38 0 57 12.5t19 45.5q0 57 -28 80t-95 23q-49 0 -75 -13.5t-36.5 -47.5t-11.5 -100h170zM313.5 87q43.5 20 78.5 56q-12 50 -12 111l-151 -6q-44 -1 -64.5 -23
t-20.5 -56v-22q0 -80 81 -80q45 0 88.5 20zM496 769h84l-122 -138h-59z" />
    <glyph glyph-name="b" unicode="b" horiz-adv-x="580" 
d="M170 53l-18 -53h-82v763h100v-273q39 22 84.5 37t82.5 15q100 0 145.5 -64.5t45.5 -214.5q0 -132 -45 -200.5t-141 -68.5q-91 0 -172 59zM428 268q0 78 -15.5 120t-41.5 57t-64 15q-37 0 -69.5 -10.5t-67.5 -29.5v-305q33 -17 65.5 -27.5t71.5 -10.5q121 0 121 191z" />
    <glyph glyph-name="uni1E03" unicode="&#x1e03;" horiz-adv-x="580" 
d="M170 53l-18 -53h-82v763h100v-273q39 22 84.5 37t82.5 15q100 0 145.5 -64.5t45.5 -214.5q0 -132 -45 -200.5t-141 -68.5q-91 0 -172 59zM428 268q0 78 -15.5 120t-41.5 57t-64 15q-37 0 -69.5 -10.5t-67.5 -29.5v-305q33 -17 65.5 -27.5t71.5 -10.5q121 0 121 191z
M82.5 860q-4.5 5 -4.5 12v84q0 18 17 18h47q17 0 17 -18v-84q0 -8 -4.5 -12.5t-12.5 -4.5h-47q-8 0 -12.5 5z" />
    <glyph glyph-name="c" unicode="c" horiz-adv-x="490" 
d="M108.5 54q-56.5 60 -56.5 212q0 107 26 167t73.5 84t120.5 24q101 0 179 -17v-59h-151q-53 0 -84 -16.5t-47 -60t-16 -123.5q0 -78 16.5 -120t48 -58t83.5 -16h158v-57q-38 -9 -89 -14.5t-101 -5.5q-104 0 -160.5 60z" />
    <glyph glyph-name="cacute" unicode="&#x107;" horiz-adv-x="490" 
d="M108.5 54q-56.5 60 -56.5 212q0 107 26 167t73.5 84t120.5 24q101 0 179 -17v-59h-151q-53 0 -84 -16.5t-47 -60t-16 -123.5q0 -78 16.5 -120t48 -58t83.5 -16h158v-57q-38 -9 -89 -14.5t-101 -5.5q-104 0 -160.5 60zM331 769h84l-122 -138h-59z" />
    <glyph glyph-name="ccaron" unicode="&#x10d;" horiz-adv-x="490" 
d="M108.5 54q-56.5 60 -56.5 212q0 107 26 167t73.5 84t120.5 24q101 0 179 -17v-59h-151q-53 0 -84 -16.5t-47 -60t-16 -123.5q0 -78 16.5 -120t48 -58t83.5 -16h158v-57q-38 -9 -89 -14.5t-101 -5.5q-104 0 -160.5 60zM126 768h60l84 -90l90 90h61l-118 -137h-70z" />
    <glyph glyph-name="ccedilla" unicode="&#xe7;" horiz-adv-x="490" 
d="M296 -6l-31 -47q71 -6 71 -65q0 -36 -25.5 -55t-73.5 -19h-38v41l21 2q51 6 51 42q0 38 -60 42l39 59q-95 5 -146.5 66t-51.5 206q0 107 26 167t73.5 84t120.5 24q101 0 179 -17v-59h-151q-53 0 -84 -16.5t-47 -60t-16 -123.5q0 -78 16.5 -120t48 -58t83.5 -16h158v-57
q-71 -17 -163 -20z" />
    <glyph glyph-name="uni1E09" unicode="&#x1e09;" horiz-adv-x="490" 
d="M293 631h-59l97 138h84zM296 -6l-31 -47q71 -6 71 -65q0 -36 -25.5 -55t-73.5 -19h-38v41l21 2q51 6 51 42q0 38 -60 42l39 59q-95 5 -146.5 66t-51.5 206q0 107 26 167t73.5 84t120.5 24q101 0 179 -17v-59h-151q-53 0 -84 -16.5t-47 -60t-16 -123.5q0 -78 16.5 -120
t48 -58t83.5 -16h158v-57q-71 -17 -163 -20z" />
    <glyph glyph-name="ccircumflex" unicode="&#x109;" horiz-adv-x="490" 
d="M108.5 54q-56.5 60 -56.5 212q0 107 26 167t73.5 84t120.5 24q101 0 179 -17v-59h-151q-53 0 -84 -16.5t-47 -60t-16 -123.5q0 -78 16.5 -120t48 -58t83.5 -16h158v-57q-38 -9 -89 -14.5t-101 -5.5q-104 0 -160.5 60zM238 768h70l107 -137h-60l-84 91l-91 -91h-60z" />
    <glyph glyph-name="cdotaccent" unicode="&#x10b;" horiz-adv-x="490" 
d="M108.5 54q-56.5 60 -56.5 212q0 107 26 167t73.5 84t120.5 24q101 0 179 -17v-59h-151q-53 0 -84 -16.5t-47 -60t-16 -123.5q0 -78 16.5 -120t48 -58t83.5 -16h158v-57q-38 -9 -89 -14.5t-101 -5.5q-104 0 -160.5 60zM232.5 660q-4.5 5 -4.5 12v84q0 18 17 18h47
q17 0 17 -18v-84q0 -8 -4.5 -12.5t-12.5 -4.5h-47q-8 0 -12.5 5z" />
    <glyph glyph-name="d" unicode="d" horiz-adv-x="577" 
d="M99 58.5q-47 64.5 -47 204.5q0 101 19.5 161.5t63.5 89t119 28.5q69 0 156 -29v250h100v-763h-82l-18 53q-25 -22 -74.5 -40.5t-91.5 -18.5q-98 0 -145 64.5zM410 116v325q-6 2 -32 9.5t-49 11t-45 3.5q-49 0 -77 -17.5t-41 -60t-13 -119.5q0 -72 12 -113.5t39 -60
t72 -18.5q62 0 134 40z" />
    <glyph glyph-name="eth" unicode="&#xf0;" horiz-adv-x="576" 
d="M497 512.5q27 -97.5 27 -244.5q0 -108 -24.5 -167.5t-75 -83t-136.5 -23.5q-85 0 -136 23.5t-75.5 82.5t-24.5 164q0 107 26 165.5t74 80.5t123 22q95 0 139 -40q-23 94 -79 144l-160 -62l-13 35l137 54q-60 35 -157 41v62q156 -8 240 -71l125 49l14 -36l-107 -41
q56 -57 83 -154.5zM366.5 89q28.5 13 43 53t14.5 122q0 81 -14.5 121.5t-43 53.5t-78.5 13t-78 -13t-42.5 -53.5t-14.5 -121.5q0 -82 14.5 -122t42 -53t78.5 -13q50 0 78.5 13z" />
    <glyph glyph-name="dcaron" unicode="&#x10f;" horiz-adv-x="577" 
d="M99 58.5q-47 64.5 -47 204.5q0 101 19.5 161.5t63.5 89t119 28.5q69 0 156 -29v250h100v-763h-82l-18 53q-25 -22 -74.5 -40.5t-91.5 -18.5q-98 0 -145 64.5zM410 116v325q-6 2 -32 9.5t-49 11t-45 3.5q-49 0 -77 -17.5t-41 -60t-13 -119.5q0 -72 12 -113.5t39 -60
t72 -18.5q62 0 134 40zM573 722v61h92v-61l-7 -140h-78z" />
    <glyph glyph-name="dcroat" unicode="&#x111;" horiz-adv-x="577" 
d="M576 625h-66v-625h-82l-18 53q-25 -22 -74.5 -40.5t-91.5 -18.5q-98 0 -145 64.5t-47 204.5q0 101 19.5 161.5t63.5 89t119 28.5q69 0 156 -29v112h-132v42h132v96h100v-96h66v-42zM410 441q-6 2 -32 9.5t-49 11t-45 3.5q-49 0 -77 -17.5t-41 -60t-13 -119.5
q0 -72 12 -113.5t39 -60t72 -18.5q62 0 134 40v325z" />
    <glyph glyph-name="uni1E0B" unicode="&#x1e0b;" horiz-adv-x="577" 
d="M99 58.5q-47 64.5 -47 204.5q0 101 19.5 161.5t63.5 89t119 28.5q69 0 156 -29v250h100v-763h-82l-18 53q-25 -22 -74.5 -40.5t-91.5 -18.5q-98 0 -145 64.5zM410 116v325q-6 2 -32 9.5t-49 11t-45 3.5q-49 0 -77 -17.5t-41 -60t-13 -119.5q0 -72 12 -113.5t39 -60
t72 -18.5q62 0 134 40zM422.5 860q-4.5 5 -4.5 12v84q0 18 17 18h47q17 0 17 -18v-84q0 -8 -4.5 -12.5t-12.5 -4.5h-47q-8 0 -12.5 5z" />
    <glyph glyph-name="uni1E0D" unicode="&#x1e0d;" horiz-adv-x="577" 
d="M99 58.5q-47 64.5 -47 204.5q0 101 19.5 161.5t63.5 89t119 28.5q69 0 156 -29v250h100v-763h-82l-18 53q-25 -22 -74.5 -40.5t-91.5 -18.5q-98 0 -145 64.5zM410 116v325q-6 2 -32 9.5t-49 11t-45 3.5q-49 0 -77 -17.5t-41 -60t-13 -119.5q0 -72 12 -113.5t39 -60
t72 -18.5q62 0 134 40zM246.5 -210.5q-4.5 4.5 -4.5 12.5v84q0 18 17 18h47q17 0 17 -18v-84q0 -8 -4.5 -12.5t-12.5 -4.5h-47q-8 0 -12.5 4.5z" />
    <glyph glyph-name="uni1E0F" unicode="&#x1e0f;" horiz-adv-x="577" 
d="M99 58.5q-47 64.5 -47 204.5q0 101 19.5 161.5t63.5 89t119 28.5q69 0 156 -29v250h100v-763h-82l-18 53q-25 -22 -74.5 -40.5t-91.5 -18.5q-98 0 -145 64.5zM410 116v325q-6 2 -32 9.5t-49 11t-45 3.5q-49 0 -77 -17.5t-41 -60t-13 -119.5q0 -72 12 -113.5t39 -60
t72 -18.5q62 0 134 40zM149 -136h270v-60h-270v60z" />
    <glyph glyph-name="e" unicode="e" horiz-adv-x="540" 
d="M144.5 19q-49.5 25 -71 84t-21.5 165q0 108 21.5 167t70.5 83t136 24q76 0 121 -16t66 -55t21 -108q0 -71 -41 -102.5t-118 -31.5h-177q1 -61 13.5 -94.5t45.5 -48.5t95 -15h167v-60q-55 -8 -97 -12.5t-95 -4.5q-87 0 -136.5 25zM320 292q41 0 59.5 15.5t18.5 54.5
q0 60 -26.5 83t-91.5 23q-51 0 -78.5 -15t-39 -52.5t-11.5 -108.5h169z" />
    <glyph glyph-name="eacute" unicode="&#xe9;" horiz-adv-x="540" 
d="M144.5 19q-49.5 25 -71 84t-21.5 165q0 108 21.5 167t70.5 83t136 24q76 0 121 -16t66 -55t21 -108q0 -71 -41 -102.5t-118 -31.5h-177q1 -61 13.5 -94.5t45.5 -48.5t95 -15h167v-60q-55 -8 -97 -12.5t-95 -4.5q-87 0 -136.5 25zM320 292q41 0 59.5 15.5t18.5 54.5
q0 60 -26.5 83t-91.5 23q-51 0 -78.5 -15t-39 -52.5t-11.5 -108.5h169zM331 769h84l-122 -138h-59z" />
    <glyph glyph-name="ebreve" unicode="&#x115;" horiz-adv-x="540" 
d="M144.5 19q-49.5 25 -71 84t-21.5 165q0 108 21.5 167t70.5 83t136 24q76 0 121 -16t66 -55t21 -108q0 -71 -41 -102.5t-118 -31.5h-177q1 -61 13.5 -94.5t45.5 -48.5t95 -15h167v-60q-55 -8 -97 -12.5t-95 -4.5q-87 0 -136.5 25zM320 292q41 0 59.5 15.5t18.5 54.5
q0 60 -26.5 83t-91.5 23q-51 0 -78.5 -15t-39 -52.5t-11.5 -108.5h169zM166 662q-36 35 -36 110h47q0 -50 24 -74t60 -24q88 0 88 98h49q0 -76 -36.5 -110.5t-98.5 -34.5q-61 0 -97 35z" />
    <glyph glyph-name="ecaron" unicode="&#x11b;" horiz-adv-x="540" 
d="M144.5 19q-49.5 25 -71 84t-21.5 165q0 108 21.5 167t70.5 83t136 24q76 0 121 -16t66 -55t21 -108q0 -71 -41 -102.5t-118 -31.5h-177q1 -61 13.5 -94.5t45.5 -48.5t95 -15h167v-60q-55 -8 -97 -12.5t-95 -4.5q-87 0 -136.5 25zM320 292q41 0 59.5 15.5t18.5 54.5
q0 60 -26.5 83t-91.5 23q-51 0 -78.5 -15t-39 -52.5t-11.5 -108.5h169zM126 768h60l84 -90l90 90h61l-118 -137h-70z" />
    <glyph glyph-name="uni1E1D" unicode="&#x1e1d;" horiz-adv-x="540" 
d="M166 662q-36 35 -36 110h47q0 -50 24 -74t60 -24q88 0 88 98h49q0 -76 -36.5 -110.5t-98.5 -34.5q-61 0 -97 35zM165.5 134.5q12.5 -33.5 45.5 -48.5t95 -15h167v-60q-55 -8 -92.5 -12t-84.5 -5l-31 -47q71 -6 71 -65q0 -36 -25.5 -55t-73.5 -19h-38v41l21 2q51 6 51 42
q0 38 -60 42l39 60q-75 4 -117.5 31t-61.5 84.5t-19 157.5q0 108 21.5 167t70.5 83t136 24q76 0 121 -16t66 -55t21 -108q0 -71 -41 -102.5t-118 -31.5h-177q1 -61 13.5 -94.5zM201.5 453q-27.5 -15 -39 -52.5t-11.5 -108.5h169q41 0 59.5 15.5t18.5 54.5q0 60 -26.5 83
t-91.5 23q-51 0 -78.5 -15z" />
    <glyph glyph-name="ecircumflex" unicode="&#xea;" horiz-adv-x="540" 
d="M144.5 19q-49.5 25 -71 84t-21.5 165q0 108 21.5 167t70.5 83t136 24q76 0 121 -16t66 -55t21 -108q0 -71 -41 -102.5t-118 -31.5h-177q1 -61 13.5 -94.5t45.5 -48.5t95 -15h167v-60q-55 -8 -97 -12.5t-95 -4.5q-87 0 -136.5 25zM320 292q41 0 59.5 15.5t18.5 54.5
q0 60 -26.5 83t-91.5 23q-51 0 -78.5 -15t-39 -52.5t-11.5 -108.5h169zM238 768h70l107 -137h-60l-84 91l-91 -91h-60z" />
    <glyph glyph-name="uni1EBF" unicode="&#x1ebf;" horiz-adv-x="540" 
d="M144.5 19q-49.5 25 -71 84t-21.5 165q0 108 21.5 167t70.5 83t136 24q76 0 121 -16t66 -55t21 -108q0 -71 -41 -102.5t-118 -31.5h-177q1 -61 13.5 -94.5t45.5 -48.5t95 -15h167v-60q-55 -8 -97 -12.5t-95 -4.5q-87 0 -136.5 25zM320 292q41 0 59.5 15.5t18.5 54.5
q0 60 -26.5 83t-91.5 23q-51 0 -78.5 -15t-39 -52.5t-11.5 -108.5h169zM515 839l-99 -129h-59l74 129h84zM308 733l107 -102h-60l-84 55l-91 -55h-60l118 102h70z" />
    <glyph glyph-name="uni1EC7" unicode="&#x1ec7;" horiz-adv-x="540" 
d="M144.5 19q-49.5 25 -71 84t-21.5 165q0 108 21.5 167t70.5 83t136 24q76 0 121 -16t66 -55t21 -108q0 -71 -41 -102.5t-118 -31.5h-177q1 -61 13.5 -94.5t45.5 -48.5t95 -15h167v-60q-55 -8 -97 -12.5t-95 -4.5q-87 0 -136.5 25zM320 292q41 0 59.5 15.5t18.5 54.5
q0 60 -26.5 83t-91.5 23q-51 0 -78.5 -15t-39 -52.5t-11.5 -108.5h169zM238 768h70l107 -137h-60l-84 91l-91 -91h-60zM230.5 -210.5q-4.5 4.5 -4.5 12.5v84q0 18 17 18h47q17 0 17 -18v-84q0 -8 -4.5 -12.5t-12.5 -4.5h-47q-8 0 -12.5 4.5z" />
    <glyph glyph-name="uni1EC1" unicode="&#x1ec1;" horiz-adv-x="540" 
d="M144.5 19q-49.5 25 -71 84t-21.5 165q0 108 21.5 167t70.5 83t136 24q76 0 121 -16t66 -55t21 -108q0 -71 -41 -102.5t-118 -31.5h-177q1 -61 13.5 -94.5t45.5 -48.5t95 -15h167v-60q-55 -8 -97 -12.5t-95 -4.5q-87 0 -136.5 25zM320 292q41 0 59.5 15.5t18.5 54.5
q0 60 -26.5 83t-91.5 23q-51 0 -78.5 -15t-39 -52.5t-11.5 -108.5h169zM109 839l75 -129h-59l-100 129h84zM308 733l107 -102h-60l-84 55l-91 -55h-60l118 102h70z" />
    <glyph glyph-name="uni1EC3" unicode="&#x1ec3;" horiz-adv-x="540" 
d="M144.5 19q-49.5 25 -71 84t-21.5 165q0 108 21.5 167t70.5 83t136 24q76 0 121 -16t66 -55t21 -108q0 -71 -41 -102.5t-118 -31.5h-177q1 -61 13.5 -94.5t45.5 -48.5t95 -15h167v-60q-55 -8 -97 -12.5t-95 -4.5q-87 0 -136.5 25zM320 292q41 0 59.5 15.5t18.5 54.5
q0 60 -26.5 83t-91.5 23q-51 0 -78.5 -15t-39 -52.5t-11.5 -108.5h169zM380 729q44 13 44 45q0 17 -8.5 25t-27.5 8q-11 0 -35 -6v36q24 8 48 8q36 0 54.5 -17.5t18.5 -47.5q0 -70 -94 -96v45zM238 733h70l107 -102h-60l-84 55l-91 -55h-60z" />
    <glyph glyph-name="uni1EC5" unicode="&#x1ec5;" horiz-adv-x="540" 
d="M144.5 19q-49.5 25 -71 84t-21.5 165q0 108 21.5 167t70.5 83t136 24q76 0 121 -16t66 -55t21 -108q0 -71 -41 -102.5t-118 -31.5h-177q1 -61 13.5 -94.5t45.5 -48.5t95 -15h167v-60q-55 -8 -97 -12.5t-95 -4.5q-87 0 -136.5 25zM320 292q41 0 59.5 15.5t18.5 54.5
q0 60 -26.5 83t-91.5 23q-51 0 -78.5 -15t-39 -52.5t-11.5 -108.5h169zM226.5 861q16.5 -5 40.5 -16q19 -8 32 -12.5t27 -4.5q22 0 35.5 10.5t13.5 30.5h51q-3 -48 -23.5 -69.5t-60.5 -21.5q-29 0 -77 20q-22 9 -36.5 13.5t-27.5 4.5q-18 0 -30 -10.5t-13 -28.5h-51
q5 89 84 89q19 0 35.5 -5zM415 631h-60l-84 55l-91 -55h-60l118 102h70z" />
    <glyph glyph-name="uni0205" unicode="&#x205;" horiz-adv-x="540" 
d="M144.5 19q-49.5 25 -71 84t-21.5 165q0 108 21.5 167t70.5 83t136 24q76 0 121 -16t66 -55t21 -108q0 -71 -41 -102.5t-118 -31.5h-177q1 -61 13.5 -94.5t45.5 -48.5t95 -15h167v-60q-55 -8 -97 -12.5t-95 -4.5q-87 0 -136.5 25zM320 292q41 0 59.5 15.5t18.5 54.5
q0 60 -26.5 83t-91.5 23q-51 0 -78.5 -15t-39 -52.5t-11.5 -108.5h169zM60 769h84l97 -138h-59zM216 769h84l97 -138h-59z" />
    <glyph glyph-name="edieresis" unicode="&#xeb;" horiz-adv-x="540" 
d="M144.5 19q-49.5 25 -71 84t-21.5 165q0 108 21.5 167t70.5 83t136 24q76 0 121 -16t66 -55t21 -108q0 -71 -41 -102.5t-118 -31.5h-177q1 -61 13.5 -94.5t45.5 -48.5t95 -15h167v-60q-55 -8 -97 -12.5t-95 -4.5q-87 0 -136.5 25zM320 292q41 0 59.5 15.5t18.5 54.5
q0 60 -26.5 83t-91.5 23q-51 0 -78.5 -15t-39 -52.5t-11.5 -108.5h169zM134 653q-5 5 -5 12v84q0 18 18 18h46q17 0 17 -18v-84q0 -17 -17 -17h-46q-8 0 -13 5zM329.5 653q-4.5 5 -4.5 12v84q0 18 17 18h47q17 0 17 -18v-84q0 -8 -4.5 -12.5t-12.5 -4.5h-47q-8 0 -12.5 5z
" />
    <glyph glyph-name="edotaccent" unicode="&#x117;" horiz-adv-x="540" 
d="M144.5 19q-49.5 25 -71 84t-21.5 165q0 108 21.5 167t70.5 83t136 24q76 0 121 -16t66 -55t21 -108q0 -71 -41 -102.5t-118 -31.5h-177q1 -61 13.5 -94.5t45.5 -48.5t95 -15h167v-60q-55 -8 -97 -12.5t-95 -4.5q-87 0 -136.5 25zM320 292q41 0 59.5 15.5t18.5 54.5
q0 60 -26.5 83t-91.5 23q-51 0 -78.5 -15t-39 -52.5t-11.5 -108.5h169zM232.5 660q-4.5 5 -4.5 12v84q0 18 17 18h47q17 0 17 -18v-84q0 -8 -4.5 -12.5t-12.5 -4.5h-47q-8 0 -12.5 5z" />
    <glyph glyph-name="uni1EB9" unicode="&#x1eb9;" horiz-adv-x="540" 
d="M144.5 19q-49.5 25 -71 84t-21.5 165q0 108 21.5 167t70.5 83t136 24q76 0 121 -16t66 -55t21 -108q0 -71 -41 -102.5t-118 -31.5h-177q1 -61 13.5 -94.5t45.5 -48.5t95 -15h167v-60q-55 -8 -97 -12.5t-95 -4.5q-87 0 -136.5 25zM320 292q41 0 59.5 15.5t18.5 54.5
q0 60 -26.5 83t-91.5 23q-51 0 -78.5 -15t-39 -52.5t-11.5 -108.5h169zM230.5 -210.5q-4.5 4.5 -4.5 12.5v84q0 18 17 18h47q17 0 17 -18v-84q0 -8 -4.5 -12.5t-12.5 -4.5h-47q-8 0 -12.5 4.5z" />
    <glyph glyph-name="egrave" unicode="&#xe8;" horiz-adv-x="540" 
d="M144.5 19q-49.5 25 -71 84t-21.5 165q0 108 21.5 167t70.5 83t136 24q76 0 121 -16t66 -55t21 -108q0 -71 -41 -102.5t-118 -31.5h-177q1 -61 13.5 -94.5t45.5 -48.5t95 -15h167v-60q-55 -8 -97 -12.5t-95 -4.5q-87 0 -136.5 25zM320 292q41 0 59.5 15.5t18.5 54.5
q0 60 -26.5 83t-91.5 23q-51 0 -78.5 -15t-39 -52.5t-11.5 -108.5h169zM139 769h83l98 -138h-59z" />
    <glyph glyph-name="uni1EBB" unicode="&#x1ebb;" horiz-adv-x="540" 
d="M144.5 19q-49.5 25 -71 84t-21.5 165q0 108 21.5 167t70.5 83t136 24q76 0 121 -16t66 -55t21 -108q0 -71 -41 -102.5t-118 -31.5h-177q1 -61 13.5 -94.5t45.5 -48.5t95 -15h167v-60q-55 -8 -97 -12.5t-95 -4.5q-87 0 -136.5 25zM320 292q41 0 59.5 15.5t18.5 54.5
q0 60 -26.5 83t-91.5 23q-51 0 -78.5 -15t-39 -52.5t-11.5 -108.5h169zM249 646q27 8 39 22t12 31q0 19 -10 29t-34 10q-18 0 -34 -6v41q20 7 47 7q42 0 63.5 -20.5t21.5 -57.5q0 -72 -105 -102v46z" />
    <glyph glyph-name="uni0207" unicode="&#x207;" horiz-adv-x="540" 
d="M144.5 19q-49.5 25 -71 84t-21.5 165q0 108 21.5 167t70.5 83t136 24q76 0 121 -16t66 -55t21 -108q0 -71 -41 -102.5t-118 -31.5h-177q1 -61 13.5 -94.5t45.5 -48.5t95 -15h167v-60q-55 -8 -97 -12.5t-95 -4.5q-87 0 -136.5 25zM320 292q41 0 59.5 15.5t18.5 54.5
q0 60 -26.5 83t-91.5 23q-51 0 -78.5 -15t-39 -52.5t-11.5 -108.5h169zM366 738q36 -35 36 -110h-47q0 51 -24 74.5t-60 23.5q-88 0 -88 -98h-49q0 76 36.5 110.5t98.5 34.5q61 0 97 -35z" />
    <glyph glyph-name="emacron" unicode="&#x113;" horiz-adv-x="540" 
d="M144.5 19q-49.5 25 -71 84t-21.5 165q0 108 21.5 167t70.5 83t136 24q76 0 121 -16t66 -55t21 -108q0 -71 -41 -102.5t-118 -31.5h-177q1 -61 13.5 -94.5t45.5 -48.5t95 -15h167v-60q-55 -8 -97 -12.5t-95 -4.5q-87 0 -136.5 25zM320 292q41 0 59.5 15.5t18.5 54.5
q0 60 -26.5 83t-91.5 23q-51 0 -78.5 -15t-39 -52.5t-11.5 -108.5h169zM132 724h270v-60h-270v60z" />
    <glyph glyph-name="uni1E17" unicode="&#x1e17;" horiz-adv-x="540" 
d="M144.5 19q-49.5 25 -71 84t-21.5 165q0 108 21.5 167t70.5 83t136 24q76 0 121 -16t66 -55t21 -108q0 -71 -41 -102.5t-118 -31.5h-177q1 -61 13.5 -94.5t45.5 -48.5t95 -15h167v-60q-55 -8 -97 -12.5t-95 -4.5q-87 0 -136.5 25zM320 292q41 0 59.5 15.5t18.5 54.5
q0 60 -26.5 83t-91.5 23q-51 0 -78.5 -15t-39 -52.5t-11.5 -108.5h169zM132 724h270v-60h-270v60zM327 898h84l-122 -138h-59z" />
    <glyph glyph-name="uni1E15" unicode="&#x1e15;" horiz-adv-x="540" 
d="M144.5 19q-49.5 25 -71 84t-21.5 165q0 108 21.5 167t70.5 83t136 24q76 0 121 -16t66 -55t21 -108q0 -71 -41 -102.5t-118 -31.5h-177q1 -61 13.5 -94.5t45.5 -48.5t95 -15h167v-60q-55 -8 -97 -12.5t-95 -4.5q-87 0 -136.5 25zM320 292q41 0 59.5 15.5t18.5 54.5
q0 60 -26.5 83t-91.5 23q-51 0 -78.5 -15t-39 -52.5t-11.5 -108.5h169zM132 724h270v-60h-270v60zM126 898h83l98 -138h-59z" />
    <glyph glyph-name="eogonek" unicode="&#x119;" horiz-adv-x="540" 
d="M497 -113v-49q-16 -2 -28 -2q-51 0 -78.5 25.5t-27.5 63.5q0 44 36 76q-61 -7 -118 -7q-87 0 -136.5 25t-71 84t-21.5 165q0 108 21.5 167t70.5 83t136 24q76 0 121 -16t66 -55t21 -108q0 -71 -41 -102.5t-118 -31.5h-177q1 -61 13.5 -94.5t45.5 -48.5t95 -15h167v-60
l-25 -4q-34 -27 -34 -60q0 -28 20 -44t55 -16h8zM201.5 453q-27.5 -15 -39 -52.5t-11.5 -108.5h169q41 0 59.5 15.5t18.5 54.5q0 60 -26.5 83t-91.5 23q-51 0 -78.5 -15z" />
    <glyph glyph-name="uni1EBD" unicode="&#x1ebd;" horiz-adv-x="540" 
d="M144.5 19q-49.5 25 -71 84t-21.5 165q0 108 21.5 167t70.5 83t136 24q76 0 121 -16t66 -55t21 -108q0 -71 -41 -102.5t-118 -31.5h-177q1 -61 13.5 -94.5t45.5 -48.5t95 -15h167v-60q-55 -8 -97 -12.5t-95 -4.5q-87 0 -136.5 25zM320 292q41 0 59.5 15.5t18.5 54.5
q0 60 -26.5 83t-91.5 23q-51 0 -78.5 -15t-39 -52.5t-11.5 -108.5h169zM131 727.5q28 27.5 68 27.5q23 0 43 -8t45 -23q22 -13 36 -19t29 -6q25 0 39.5 15.5t15.5 44.5h51q-1 -56 -27 -86.5t-72 -30.5q-22 0 -41.5 8t-44.5 23q-21 13 -36.5 19.5t-30.5 6.5q-23 0 -38 -15
t-16 -43h-51q2 59 30 86.5z" />
    <glyph glyph-name="uni0259" unicode="&#x259;" horiz-adv-x="540" 
d="M395.5 517q49.5 -25 71 -84t21.5 -165q0 -108 -21.5 -167t-70.5 -83t-136 -24q-76 0 -121 16t-66 55t-21 108q0 71 41 102.5t118 31.5h177q-1 61 -13.5 94.5t-45.5 48.5t-95 15h-167v60q55 8 97 12.5t95 4.5q87 0 136.5 -25zM220 244q-41 0 -59.5 -15.5t-18.5 -54.5
q0 -60 26.5 -83t91.5 -23q51 0 78.5 15t39 52.5t11.5 108.5h-169z" />
    <glyph glyph-name="f" unicode="f" horiz-adv-x="375" 
d="M102 453h-80v65l80 17v53q0 93 36.5 137t124.5 44q50 0 105 -11v-72h-87q-46 0 -62.5 -22t-16.5 -71v-58h157v-82h-157v-453h-100v453z" />
    <glyph glyph-name="uni1E1F" unicode="&#x1e1f;" horiz-adv-x="375" 
d="M102 453h-80v65l80 17v53q0 93 36.5 137t124.5 44q50 0 105 -11v-72h-87q-46 0 -62.5 -22t-16.5 -71v-58h157v-82h-157v-453h-100v453zM226.5 874q-4.5 5 -4.5 12v84q0 18 17 18h47q17 0 17 -18v-84q0 -8 -4.5 -12.5t-12.5 -4.5h-47q-8 0 -12.5 5z" />
    <glyph glyph-name="g" unicode="g" horiz-adv-x="578" 
d="M557 479l-109 -11q27 -20 43.5 -47t16.5 -82q0 -71 -45.5 -117t-145.5 -46h-88q-82 0 -82 -50q0 -21 15.5 -31t37.5 -10h169q93 0 139.5 -36.5t46.5 -114.5v-19q0 -77 -50.5 -119t-148.5 -42h-153q-79 0 -127.5 34t-48.5 97v22q0 42 23.5 73t62.5 48q-25 13 -38.5 34.5
t-13.5 47.5q0 39 23.5 64t66.5 34q-50 22 -71.5 63t-21.5 92q0 173 211 173h288v-57zM392 279.5q24 26.5 24 71.5q0 108 -103 108h-56q-53 0 -80.5 -24t-27.5 -78q0 -104 98 -104h59q62 0 86 26.5zM225 8q-44 0 -73.5 -21t-29.5 -62v-19q0 -80 107 -80h117q54 0 84.5 21
t30.5 63v19q0 38 -25 58.5t-82 20.5h-129z" />
    <glyph glyph-name="gbreve" unicode="&#x11f;" horiz-adv-x="578" 
d="M557 479l-109 -11q27 -20 43.5 -47t16.5 -82q0 -71 -45.5 -117t-145.5 -46h-88q-82 0 -82 -50q0 -21 15.5 -31t37.5 -10h169q93 0 139.5 -36.5t46.5 -114.5v-19q0 -77 -50.5 -119t-148.5 -42h-153q-79 0 -127.5 34t-48.5 97v22q0 42 23.5 73t62.5 48q-25 13 -38.5 34.5
t-13.5 47.5q0 39 23.5 64t66.5 34q-50 22 -71.5 63t-21.5 92q0 173 211 173h288v-57zM392 279.5q24 26.5 24 71.5q0 108 -103 108h-56q-53 0 -80.5 -24t-27.5 -78q0 -104 98 -104h59q62 0 86 26.5zM225 8q-44 0 -73.5 -21t-29.5 -62v-19q0 -80 107 -80h117q54 0 84.5 21
t30.5 63v19q0 38 -25 58.5t-82 20.5h-129zM185 662q-36 35 -36 110h47q0 -50 24 -74t60 -24q88 0 88 98h49q0 -76 -36.5 -110.5t-98.5 -34.5q-61 0 -97 35z" />
    <glyph glyph-name="gcaron" unicode="&#x1e7;" horiz-adv-x="578" 
d="M557 479l-109 -11q27 -20 43.5 -47t16.5 -82q0 -71 -45.5 -117t-145.5 -46h-88q-82 0 -82 -50q0 -21 15.5 -31t37.5 -10h169q93 0 139.5 -36.5t46.5 -114.5v-19q0 -77 -50.5 -119t-148.5 -42h-153q-79 0 -127.5 34t-48.5 97v22q0 42 23.5 73t62.5 48q-25 13 -38.5 34.5
t-13.5 47.5q0 39 23.5 64t66.5 34q-50 22 -71.5 63t-21.5 92q0 173 211 173h288v-57zM392 279.5q24 26.5 24 71.5q0 108 -103 108h-56q-53 0 -80.5 -24t-27.5 -78q0 -104 98 -104h59q62 0 86 26.5zM225 8q-44 0 -73.5 -21t-29.5 -62v-19q0 -80 107 -80h117q54 0 84.5 21
t30.5 63v19q0 38 -25 58.5t-82 20.5h-129zM145 768h60l84 -90l90 90h61l-118 -137h-70z" />
    <glyph glyph-name="gcircumflex" unicode="&#x11d;" horiz-adv-x="578" 
d="M557 479l-109 -11q27 -20 43.5 -47t16.5 -82q0 -71 -45.5 -117t-145.5 -46h-88q-82 0 -82 -50q0 -21 15.5 -31t37.5 -10h169q93 0 139.5 -36.5t46.5 -114.5v-19q0 -77 -50.5 -119t-148.5 -42h-153q-79 0 -127.5 34t-48.5 97v22q0 42 23.5 73t62.5 48q-25 13 -38.5 34.5
t-13.5 47.5q0 39 23.5 64t66.5 34q-50 22 -71.5 63t-21.5 92q0 173 211 173h288v-57zM392 279.5q24 26.5 24 71.5q0 108 -103 108h-56q-53 0 -80.5 -24t-27.5 -78q0 -104 98 -104h59q62 0 86 26.5zM225 8q-44 0 -73.5 -21t-29.5 -62v-19q0 -80 107 -80h117q54 0 84.5 21
t30.5 63v19q0 38 -25 58.5t-82 20.5h-129zM257 768h70l107 -137h-60l-84 91l-91 -91h-60z" />
    <glyph glyph-name="gcommaaccent" unicode="&#x123;" horiz-adv-x="578" 
d="M557 479l-109 -11q27 -20 43.5 -47t16.5 -82q0 -71 -45.5 -117t-145.5 -46h-88q-82 0 -82 -50q0 -21 15.5 -31t37.5 -10h169q93 0 139.5 -36.5t46.5 -114.5v-19q0 -77 -50.5 -119t-148.5 -42h-153q-79 0 -127.5 34t-48.5 97v22q0 42 23.5 73t62.5 48q-25 13 -38.5 34.5
t-13.5 47.5q0 39 23.5 64t66.5 34q-50 22 -71.5 63t-21.5 92q0 173 211 173h288v-57zM392 279.5q24 26.5 24 71.5q0 108 -103 108h-56q-53 0 -80.5 -24t-27.5 -78q0 -104 98 -104h59q62 0 86 26.5zM225 8q-44 0 -73.5 -21t-29.5 -62v-19q0 -80 107 -80h117q54 0 84.5 21
t30.5 63v19q0 38 -25 58.5t-82 20.5h-129zM240.5 699q9.5 30 34 44t68.5 14h42v-41l-29 -6q-25 -5 -38 -12t-19 -26t-6 -56h-62q0 53 9.5 83z" />
    <glyph glyph-name="gdotaccent" unicode="&#x121;" horiz-adv-x="578" 
d="M557 479l-109 -11q27 -20 43.5 -47t16.5 -82q0 -71 -45.5 -117t-145.5 -46h-88q-82 0 -82 -50q0 -21 15.5 -31t37.5 -10h169q93 0 139.5 -36.5t46.5 -114.5v-19q0 -77 -50.5 -119t-148.5 -42h-153q-79 0 -127.5 34t-48.5 97v22q0 42 23.5 73t62.5 48q-25 13 -38.5 34.5
t-13.5 47.5q0 39 23.5 64t66.5 34q-50 22 -71.5 63t-21.5 92q0 173 211 173h288v-57zM392 279.5q24 26.5 24 71.5q0 108 -103 108h-56q-53 0 -80.5 -24t-27.5 -78q0 -104 98 -104h59q62 0 86 26.5zM225 8q-44 0 -73.5 -21t-29.5 -62v-19q0 -80 107 -80h117q54 0 84.5 21
t30.5 63v19q0 38 -25 58.5t-82 20.5h-129zM251.5 660q-4.5 5 -4.5 12v84q0 18 17 18h47q17 0 17 -18v-84q0 -8 -4.5 -12.5t-12.5 -4.5h-47q-8 0 -12.5 5z" />
    <glyph glyph-name="uni1E21" unicode="&#x1e21;" horiz-adv-x="578" 
d="M557 479l-109 -11q27 -20 43.5 -47t16.5 -82q0 -71 -45.5 -117t-145.5 -46h-88q-82 0 -82 -50q0 -21 15.5 -31t37.5 -10h169q93 0 139.5 -36.5t46.5 -114.5v-19q0 -77 -50.5 -119t-148.5 -42h-153q-79 0 -127.5 34t-48.5 97v22q0 42 23.5 73t62.5 48q-25 13 -38.5 34.5
t-13.5 47.5q0 39 23.5 64t66.5 34q-50 22 -71.5 63t-21.5 92q0 173 211 173h288v-57zM392 279.5q24 26.5 24 71.5q0 108 -103 108h-56q-53 0 -80.5 -24t-27.5 -78q0 -104 98 -104h59q62 0 86 26.5zM225 8q-44 0 -73.5 -21t-29.5 -62v-19q0 -80 107 -80h117q54 0 84.5 21
t30.5 63v19q0 38 -25 58.5t-82 20.5h-129zM151 724h270v-60h-270v60z" />
    <glyph glyph-name="h" unicode="h" horiz-adv-x="590" 
d="M70 763h100v-286q38 28 88 47.5t100 19.5q83 0 124 -50.5t41 -132.5v-361h-100v349q0 47 -27.5 75.5t-73.5 28.5q-42 0 -76.5 -12t-75.5 -36v-405h-100v763z" />
    <glyph glyph-name="hbar" unicode="&#x127;" horiz-adv-x="590" 
d="M482 493.5q41 -50.5 41 -132.5v-361h-100v349q0 47 -27.5 75.5t-73.5 28.5q-42 0 -76.5 -12t-75.5 -36v-405h-100v625h-69v42h69v96h100v-96h130v-42h-130v-148q38 28 88 47.5t100 19.5q83 0 124 -50.5z" />
    <glyph glyph-name="uni1E2B" unicode="&#x1e2b;" horiz-adv-x="590" 
d="M70 763h100v-286q38 28 88 47.5t100 19.5q83 0 124 -50.5t41 -132.5v-361h-100v349q0 47 -27.5 75.5t-73.5 28.5q-42 0 -76.5 -12t-75.5 -36v-405h-100v763zM197 -188q-36 35 -36 110h47q0 -51 23.5 -74.5t60.5 -23.5q88 0 88 98h49q0 -76 -36.5 -110.5t-98.5 -34.5
q-61 0 -97 35z" />
    <glyph glyph-name="hcircumflex" unicode="&#x125;" horiz-adv-x="590" 
d="M70 763h100v-286q38 28 88 47.5t100 19.5q83 0 124 -50.5t41 -132.5v-361h-100v349q0 47 -27.5 75.5t-73.5 28.5q-42 0 -76.5 -12t-75.5 -36v-405h-100v763zM127 952h70l107 -137h-60l-84 91l-91 -91h-60z" />
    <glyph glyph-name="uni1E25" unicode="&#x1e25;" horiz-adv-x="590" 
d="M70 763h100v-286q38 28 88 47.5t100 19.5q83 0 124 -50.5t41 -132.5v-361h-100v349q0 47 -27.5 75.5t-73.5 28.5q-42 0 -76.5 -12t-75.5 -36v-405h-100v763zM256.5 -210.5q-4.5 4.5 -4.5 12.5v84q0 18 17 18h47q17 0 17 -18v-84q0 -8 -4.5 -12.5t-12.5 -4.5h-47
q-8 0 -12.5 4.5z" />
    <glyph glyph-name="i" unicode="i" horiz-adv-x="240" 
d="M71 629.5q-5 4.5 -5 12.5v84q0 18 18 18h74q8 0 12 -5t4 -13v-84q0 -17 -16 -17h-74q-8 0 -13 4.5zM70 535h100v-535h-100v535z" />
    <glyph glyph-name="dotlessi" unicode="&#x131;" horiz-adv-x="238" 
d="M70 535h100v-535h-100v535z" />
    <glyph glyph-name="iacute" unicode="&#xed;" horiz-adv-x="238" 
d="M70 535h100v-535h-100v535zM181 769h84l-122 -138h-59z" />
    <glyph glyph-name="ibreve" unicode="&#x12d;" horiz-adv-x="238" 
d="M70 535h100v-535h-100v535zM16 662q-36 35 -36 110h47q0 -50 24 -74t60 -24q88 0 88 98h49q0 -76 -36.5 -110.5t-98.5 -34.5q-61 0 -97 35z" />
    <glyph glyph-name="icircumflex" unicode="&#xee;" horiz-adv-x="238" 
d="M70 535h100v-535h-100v535zM88 768h70l107 -137h-60l-84 91l-91 -91h-60z" />
    <glyph glyph-name="uni0209" unicode="&#x209;" horiz-adv-x="238" 
d="M70 535h100v-535h-100v535zM-90 769h84l97 -138h-59zM66 769h84l97 -138h-59z" />
    <glyph glyph-name="idieresis" unicode="&#xef;" horiz-adv-x="238" 
d="M70 535h100v-535h-100v535zM-16 653q-5 5 -5 12v84q0 18 18 18h46q17 0 17 -18v-84q0 -17 -17 -17h-46q-8 0 -13 5zM179.5 653q-4.5 5 -4.5 12v84q0 18 17 18h47q17 0 17 -18v-84q0 -8 -4.5 -12.5t-12.5 -4.5h-47q-8 0 -12.5 5z" />
    <glyph glyph-name="uni1E2F" unicode="&#x1e2f;" horiz-adv-x="238" 
d="M70 535h100v-535h-100v535zM-16 653q-5 5 -5 12v84q0 18 18 18h46q17 0 17 -18v-84q0 -17 -17 -17h-46q-8 0 -13 5zM179.5 653q-4.5 5 -4.5 12v84q0 18 17 18h47q17 0 17 -18v-84q0 -8 -4.5 -12.5t-12.5 -4.5h-47q-8 0 -12.5 5zM177 942h84l-122 -138h-59z" />
    <glyph glyph-name="i.loclTRK" horiz-adv-x="238" 
d="M70 535h100v-535h-100v535zM82.5 660q-4.5 5 -4.5 12v84q0 18 17 18h47q17 0 17 -18v-84q0 -8 -4.5 -12.5t-12.5 -4.5h-47q-8 0 -12.5 5z" />
    <glyph glyph-name="uni1ECB" unicode="&#x1ecb;" horiz-adv-x="240" 
d="M71 629.5q-5 4.5 -5 12.5v84q0 18 18 18h74q8 0 12 -5t4 -13v-84q0 -17 -16 -17h-74q-8 0 -13 4.5zM70 535h100v-535h-100v535zM80.5 -210.5q-4.5 4.5 -4.5 12.5v84q0 18 17 18h47q17 0 17 -18v-84q0 -8 -4.5 -12.5t-12.5 -4.5h-47q-8 0 -12.5 4.5z" />
    <glyph glyph-name="igrave" unicode="&#xec;" horiz-adv-x="238" 
d="M70 535h100v-535h-100v535zM-11 769h83l98 -138h-59z" />
    <glyph glyph-name="uni1EC9" unicode="&#x1ec9;" horiz-adv-x="238" 
d="M70 535h100v-535h-100v535zM99 646q27 8 39 22t12 31q0 19 -10 29t-34 10q-18 0 -34 -6v41q20 7 47 7q42 0 63.5 -20.5t21.5 -57.5q0 -72 -105 -102v46z" />
    <glyph glyph-name="uni020B" unicode="&#x20b;" horiz-adv-x="238" 
d="M70 535h100v-535h-100v535zM216 738q36 -35 36 -110h-47q0 51 -24 74.5t-60 23.5q-88 0 -88 -98h-49q0 76 36.5 110.5t98.5 34.5q61 0 97 -35z" />
    <glyph glyph-name="imacron" unicode="&#x12b;" horiz-adv-x="238" 
d="M70 535h100v-535h-100v535zM-18 724h270v-60h-270v60z" />
    <glyph glyph-name="iogonek" unicode="&#x12f;" horiz-adv-x="240" 
d="M71 629.5q-5 4.5 -5 12.5v84q0 18 18 18h74q8 0 12 -5t4 -13v-84q0 -17 -16 -17h-74q-8 0 -13 4.5zM70 535h100v-535h-100v535zM87.5 -162.5q-27.5 25.5 -27.5 63.5q0 31 18 56.5t54 42.5h38q-59 -33 -59 -77q0 -28 20 -44t55 -16h8v-49q-16 -2 -28 -2q-51 0 -78.5 25.5z
" />
    <glyph glyph-name="itilde" unicode="&#x129;" horiz-adv-x="238" 
d="M70 535h100v-535h-100v535zM-19 727.5q28 27.5 68 27.5q23 0 43 -8t45 -23q22 -13 36 -19t29 -6q25 0 39.5 15.5t15.5 44.5h51q-1 -56 -27 -86.5t-72 -30.5q-22 0 -41.5 8t-44.5 23q-21 13 -36.5 19.5t-30.5 6.5q-23 0 -38 -15t-16 -43h-51q2 59 30 86.5z" />
    <glyph glyph-name="j" unicode="j" horiz-adv-x="240" 
d="M71 630q-5 5 -5 12v84q0 18 17 18h75q8 0 12 -5t4 -13v-84q0 -17 -16 -17h-75q-7 0 -12 5zM70 535h100v-522q0 -68 -7 -135.5t-18 -114.5h-75v772z" />
    <glyph glyph-name="uni0237" unicode="&#x237;" horiz-adv-x="240" 
d="M70 535h100v-522q0 -68 -7 -135.5t-18 -114.5h-75v772z" />
    <glyph glyph-name="jcircumflex" unicode="&#x135;" horiz-adv-x="240" 
d="M70 535h100v-522q0 -68 -7 -135.5t-18 -114.5h-75v772zM88 768h70l107 -137h-60l-84 91l-91 -91h-60z" />
    <glyph glyph-name="k" unicode="k" horiz-adv-x="521" 
d="M70 763h100v-433h73l149 205h104l-179 -250l192 -285h-104l-165 240h-70v-240h-100v763z" />
    <glyph glyph-name="kcommaaccent" unicode="&#x137;" horiz-adv-x="521" 
d="M70 763h100v-433h73l149 205h104l-179 -250l192 -285h-104l-165 240h-70v-240h-100v763zM179 -165l29 5q25 5 38 12.5t19 26t6 55.5h62q0 -53 -9.5 -82.5t-34 -43.5t-68.5 -14h-42v41z" />
    <glyph glyph-name="kgreenlandic" unicode="&#x138;" horiz-adv-x="521" 
d="M70 540h100v-216h70l149 211h107l-179 -257l192 -278h-105l-164 234h-70v-234h-100v540z" />
    <glyph glyph-name="l" unicode="l" horiz-adv-x="300" 
d="M106.5 39q-36.5 40 -36.5 133v591h100v-578q0 -59 16.5 -81t52.5 -27l50 -6v-72h-70q-76 0 -112.5 40z" />
    <glyph glyph-name="lacute" unicode="&#x13a;" horiz-adv-x="300" 
d="M106.5 39q-36.5 40 -36.5 133v591h100v-578q0 -59 16.5 -81t52.5 -27l50 -6v-72h-70q-76 0 -112.5 40zM181 997h84l-122 -138h-59z" />
    <glyph glyph-name="lcaron" unicode="&#x13e;" horiz-adv-x="300" 
d="M106.5 39q-36.5 40 -36.5 133v591h100v-578q0 -59 16.5 -81t52.5 -27l50 -6v-72h-70q-76 0 -112.5 40zM232 722v61h92v-61l-7 -140h-78z" />
    <glyph glyph-name="lcommaaccent" unicode="&#x13c;" horiz-adv-x="300" 
d="M106.5 39q-36.5 40 -36.5 133v591h100v-578q0 -59 16.5 -81t52.5 -27l50 -6v-72h-70q-76 0 -112.5 40zM88 -165l29 5q25 5 38 12.5t19 26t6 55.5h62q0 -53 -9.5 -82.5t-34 -43.5t-68.5 -14h-42v41z" />
    <glyph glyph-name="ldot" unicode="&#x140;" horiz-adv-x="338" 
d="M106.5 39q-36.5 40 -36.5 133v591h100v-578q0 -59 16.5 -81t52.5 -27l50 -6v-72h-70q-76 0 -112.5 40zM250 333q-5 5 -5 12v60q0 18 17 18h57q18 0 18 -18v-60q0 -17 -18 -17h-57q-7 0 -12 5z" />
    <glyph glyph-name="uni1E37" unicode="&#x1e37;" horiz-adv-x="300" 
d="M106.5 39q-36.5 40 -36.5 133v591h100v-578q0 -59 16.5 -81t52.5 -27l50 -6v-72h-70q-76 0 -112.5 40zM132.5 -210.5q-4.5 4.5 -4.5 12.5v84q0 18 17 18h47q17 0 17 -18v-84q0 -8 -4.5 -12.5t-12.5 -4.5h-47q-8 0 -12.5 4.5z" />
    <glyph glyph-name="uni1E3B" unicode="&#x1e3b;" horiz-adv-x="300" 
d="M106.5 39q-36.5 40 -36.5 133v591h100v-578q0 -59 16.5 -81t52.5 -27l50 -6v-72h-70q-76 0 -112.5 40zM35 -136h270v-60h-270v60z" />
    <glyph glyph-name="lslash" unicode="&#x142;" horiz-adv-x="300" 
d="M289 71v-72h-70q-76 0 -112.5 40t-36.5 133v205l-69 -26v57l69 26v329h100v-297l98 36v-57l-98 -36v-224q0 -59 16.5 -81t52.5 -27z" />
    <glyph glyph-name="m" unicode="m" horiz-adv-x="943" 
d="M70 535h80l20 -58q45 31 91.5 49t102.5 18q48 0 83 -21t55 -57q40 31 97.5 54.5t108.5 23.5q86 0 127 -50.5t41 -136.5v-357h-100v348q0 48 -27.5 76.5t-74.5 28.5q-38 0 -79.5 -14.5t-79.5 -38.5q8 -27 8 -53v-347h-100v348q0 48 -27 76.5t-74 28.5q-42 0 -76.5 -12
t-75.5 -36v-405h-100v535z" />
    <glyph glyph-name="uni1E41" unicode="&#x1e41;" horiz-adv-x="943" 
d="M70 535h80l20 -58q45 31 91.5 49t102.5 18q48 0 83 -21t55 -57q40 31 97.5 54.5t108.5 23.5q86 0 127 -50.5t41 -136.5v-357h-100v348q0 48 -27.5 76.5t-74.5 28.5q-38 0 -79.5 -14.5t-79.5 -38.5q8 -27 8 -53v-347h-100v348q0 48 -27 76.5t-74 28.5q-42 0 -76.5 -12
t-75.5 -36v-405h-100v535zM442.5 660q-4.5 5 -4.5 12v84q0 18 17 18h47q17 0 17 -18v-84q0 -8 -4.5 -12.5t-12.5 -4.5h-47q-8 0 -12.5 5z" />
    <glyph glyph-name="uni1E43" unicode="&#x1e43;" horiz-adv-x="943" 
d="M70 535h80l20 -58q45 31 91.5 49t102.5 18q48 0 83 -21t55 -57q40 31 97.5 54.5t108.5 23.5q86 0 127 -50.5t41 -136.5v-357h-100v348q0 48 -27.5 76.5t-74.5 28.5q-38 0 -79.5 -14.5t-79.5 -38.5q8 -27 8 -53v-347h-100v348q0 48 -27 76.5t-74 28.5q-42 0 -76.5 -12
t-75.5 -36v-405h-100v535zM431.5 -210.5q-4.5 4.5 -4.5 12.5v84q0 18 17 18h47q17 0 17 -18v-84q0 -8 -4.5 -12.5t-12.5 -4.5h-47q-8 0 -12.5 4.5z" />
    <glyph glyph-name="n" unicode="n" horiz-adv-x="590" 
d="M70 535h80l20 -58q39 29 88.5 48t99.5 19q85 0 125 -51.5t40 -132.5v-360h-100v348q0 48 -27 76.5t-74 28.5q-42 0 -76.5 -12t-75.5 -36v-405h-100v535z" />
    <glyph glyph-name="nacute" unicode="&#x144;" horiz-adv-x="590" 
d="M70 535h80l20 -58q39 29 88.5 48t99.5 19q85 0 125 -51.5t40 -132.5v-360h-100v348q0 48 -27 76.5t-74 28.5q-42 0 -76.5 -12t-75.5 -36v-405h-100v535zM356 769h84l-122 -138h-59z" />
    <glyph glyph-name="ncaron" unicode="&#x148;" horiz-adv-x="590" 
d="M70 535h80l20 -58q39 29 88.5 48t99.5 19q85 0 125 -51.5t40 -132.5v-360h-100v348q0 48 -27 76.5t-74 28.5q-42 0 -76.5 -12t-75.5 -36v-405h-100v535zM151 768h60l84 -90l90 90h61l-118 -137h-70z" />
    <glyph glyph-name="ncommaaccent" unicode="&#x146;" horiz-adv-x="590" 
d="M70 535h80l20 -58q39 29 88.5 48t99.5 19q85 0 125 -51.5t40 -132.5v-360h-100v348q0 48 -27 76.5t-74 28.5q-42 0 -76.5 -12t-75.5 -36v-405h-100v535zM211 -165l29 5q25 5 38 12.5t19 26t6 55.5h62q0 -53 -9.5 -82.5t-34 -43.5t-68.5 -14h-42v41z" />
    <glyph glyph-name="uni1E45" unicode="&#x1e45;" horiz-adv-x="590" 
d="M70 535h80l20 -58q39 29 88.5 48t99.5 19q85 0 125 -51.5t40 -132.5v-360h-100v348q0 48 -27 76.5t-74 28.5q-42 0 -76.5 -12t-75.5 -36v-405h-100v535zM255.5 -210.5q-4.5 4.5 -4.5 12.5v84q0 18 17 18h47q17 0 17 -18v-84q0 -8 -4.5 -12.5t-12.5 -4.5h-47
q-8 0 -12.5 4.5z" />
    <glyph glyph-name="uni1E47" unicode="&#x1e47;" horiz-adv-x="590" 
d="M70 535h80l20 -58q39 29 88.5 48t99.5 19q85 0 125 -51.5t40 -132.5v-360h-100v348q0 48 -27 76.5t-74 28.5q-42 0 -76.5 -12t-75.5 -36v-405h-100v535zM255.5 -210.5q-4.5 4.5 -4.5 12.5v84q0 18 17 18h47q17 0 17 -18v-84q0 -8 -4.5 -12.5t-12.5 -4.5h-47
q-8 0 -12.5 4.5z" />
    <glyph glyph-name="eng" unicode="&#x14b;" horiz-adv-x="590" 
d="M483 492.5q40 -51.5 40 -132.5v-369q0 -86 -33.5 -142t-90.5 -86h-81q49 38 77 91t28 134v360q0 48 -27 76.5t-74 28.5q-42 0 -76.5 -12t-75.5 -36v-405h-100v535h80l20 -58q39 29 88.5 48t99.5 19q85 0 125 -51.5z" />
    <glyph glyph-name="uni1E49" unicode="&#x1e49;" horiz-adv-x="590" 
d="M70 535h80l20 -58q39 29 88.5 48t99.5 19q85 0 125 -51.5t40 -132.5v-360h-100v348q0 48 -27 76.5t-74 28.5q-42 0 -76.5 -12t-75.5 -36v-405h-100v535zM158 -136h270v-60h-270v60z" />
    <glyph glyph-name="ntilde" unicode="&#xf1;" horiz-adv-x="590" 
d="M70 535h80l20 -58q39 29 88.5 48t99.5 19q85 0 125 -51.5t40 -132.5v-360h-100v348q0 48 -27 76.5t-74 28.5q-42 0 -76.5 -12t-75.5 -36v-405h-100v535zM156 727.5q28 27.5 68 27.5q23 0 43 -8t45 -23q22 -13 36 -19t29 -6q25 0 39.5 15.5t15.5 44.5h51q-1 -56 -27 -86.5
t-72 -30.5q-22 0 -41.5 8t-44.5 23q-21 13 -36.5 19.5t-30.5 6.5q-23 0 -38 -15t-16 -43h-51q2 59 30 86.5z" />
    <glyph glyph-name="o" unicode="o" horiz-adv-x="576" 
d="M152 18q-51 24 -75.5 83.5t-24.5 166.5q0 110 25 169.5t75.5 82t135.5 22.5t135.5 -23t75.5 -82.5t25 -168.5q0 -108 -24.5 -167.5t-75 -83t-136.5 -23.5q-85 0 -136 24zM366.5 89.5q28.5 13.5 43 55t14.5 124.5t-14.5 124.5t-43 54.5t-78.5 13q-51 0 -78.5 -13
t-42 -54.5t-14.5 -124.5q0 -84 14.5 -125.5t42 -54.5t78.5 -13q50 0 78.5 13.5z" />
    <glyph glyph-name="oacute" unicode="&#xf3;" horiz-adv-x="576" 
d="M152 18q-51 24 -75.5 83.5t-24.5 166.5q0 110 25 169.5t75.5 82t135.5 22.5t135.5 -23t75.5 -82.5t25 -168.5q0 -108 -24.5 -167.5t-75 -83t-136.5 -23.5q-85 0 -136 24zM366.5 89.5q28.5 13.5 43 55t14.5 124.5t-14.5 124.5t-43 54.5t-78.5 13q-51 0 -78.5 -13
t-42 -54.5t-14.5 -124.5q0 -84 14.5 -125.5t42 -54.5t78.5 -13q50 0 78.5 13.5zM349 769h84l-122 -138h-59z" />
    <glyph glyph-name="obreve" unicode="&#x14f;" horiz-adv-x="576" 
d="M152 18q-51 24 -75.5 83.5t-24.5 166.5q0 110 25 169.5t75.5 82t135.5 22.5t135.5 -23t75.5 -82.5t25 -168.5q0 -108 -24.5 -167.5t-75 -83t-136.5 -23.5q-85 0 -136 24zM366.5 89.5q28.5 13.5 43 55t14.5 124.5t-14.5 124.5t-43 54.5t-78.5 13q-51 0 -78.5 -13
t-42 -54.5t-14.5 -124.5q0 -84 14.5 -125.5t42 -54.5t78.5 -13q50 0 78.5 13.5zM184 662q-36 35 -36 110h47q0 -50 24 -74t60 -24q88 0 88 98h49q0 -76 -36.5 -110.5t-98.5 -34.5q-61 0 -97 35z" />
    <glyph glyph-name="ocircumflex" unicode="&#xf4;" horiz-adv-x="576" 
d="M152 18q-51 24 -75.5 83.5t-24.5 166.5q0 110 25 169.5t75.5 82t135.5 22.5t135.5 -23t75.5 -82.5t25 -168.5q0 -108 -24.5 -167.5t-75 -83t-136.5 -23.5q-85 0 -136 24zM366.5 89.5q28.5 13.5 43 55t14.5 124.5t-14.5 124.5t-43 54.5t-78.5 13q-51 0 -78.5 -13
t-42 -54.5t-14.5 -124.5q0 -84 14.5 -125.5t42 -54.5t78.5 -13q50 0 78.5 13.5zM256 768h70l107 -137h-60l-84 91l-91 -91h-60z" />
    <glyph glyph-name="uni1ED1" unicode="&#x1ed1;" horiz-adv-x="576" 
d="M152 18q-51 24 -75.5 83.5t-24.5 166.5q0 110 25 169.5t75.5 82t135.5 22.5t135.5 -23t75.5 -82.5t25 -168.5q0 -108 -24.5 -167.5t-75 -83t-136.5 -23.5q-85 0 -136 24zM366.5 89.5q28.5 13.5 43 55t14.5 124.5t-14.5 124.5t-43 54.5t-78.5 13q-51 0 -78.5 -13
t-42 -54.5t-14.5 -124.5q0 -84 14.5 -125.5t42 -54.5t78.5 -13q50 0 78.5 13.5zM533 839l-99 -129h-59l74 129h84zM326 733l107 -102h-60l-84 55l-91 -55h-60l118 102h70z" />
    <glyph glyph-name="uni1ED9" unicode="&#x1ed9;" horiz-adv-x="576" 
d="M152 18q-51 24 -75.5 83.5t-24.5 166.5q0 110 25 169.5t75.5 82t135.5 22.5t135.5 -23t75.5 -82.5t25 -168.5q0 -108 -24.5 -167.5t-75 -83t-136.5 -23.5q-85 0 -136 24zM366.5 89.5q28.5 13.5 43 55t14.5 124.5t-14.5 124.5t-43 54.5t-78.5 13q-51 0 -78.5 -13
t-42 -54.5t-14.5 -124.5q0 -84 14.5 -125.5t42 -54.5t78.5 -13q50 0 78.5 13.5zM256 768h70l107 -137h-60l-84 91l-91 -91h-60zM248.5 -210.5q-4.5 4.5 -4.5 12.5v84q0 18 17 18h47q17 0 17 -18v-84q0 -8 -4.5 -12.5t-12.5 -4.5h-47q-8 0 -12.5 4.5z" />
    <glyph glyph-name="uni1ED3" unicode="&#x1ed3;" horiz-adv-x="576" 
d="M152 18q-51 24 -75.5 83.5t-24.5 166.5q0 110 25 169.5t75.5 82t135.5 22.5t135.5 -23t75.5 -82.5t25 -168.5q0 -108 -24.5 -167.5t-75 -83t-136.5 -23.5q-85 0 -136 24zM366.5 89.5q28.5 13.5 43 55t14.5 124.5t-14.5 124.5t-43 54.5t-78.5 13q-51 0 -78.5 -13
t-42 -54.5t-14.5 -124.5q0 -84 14.5 -125.5t42 -54.5t78.5 -13q50 0 78.5 13.5zM127 839l75 -129h-59l-100 129h84zM326 733l107 -102h-60l-84 55l-91 -55h-60l118 102h70z" />
    <glyph glyph-name="uni1ED5" unicode="&#x1ed5;" horiz-adv-x="576" 
d="M152 18q-51 24 -75.5 83.5t-24.5 166.5q0 110 25 169.5t75.5 82t135.5 22.5t135.5 -23t75.5 -82.5t25 -168.5q0 -108 -24.5 -167.5t-75 -83t-136.5 -23.5q-85 0 -136 24zM366.5 89.5q28.5 13.5 43 55t14.5 124.5t-14.5 124.5t-43 54.5t-78.5 13q-51 0 -78.5 -13
t-42 -54.5t-14.5 -124.5q0 -84 14.5 -125.5t42 -54.5t78.5 -13q50 0 78.5 13.5zM398 729q44 13 44 45q0 17 -8.5 25t-27.5 8q-11 0 -35 -6v36q24 8 48 8q36 0 54.5 -17.5t18.5 -47.5q0 -70 -94 -96v45zM256 733h70l107 -102h-60l-84 55l-91 -55h-60z" />
    <glyph glyph-name="uni1ED7" unicode="&#x1ed7;" horiz-adv-x="576" 
d="M152 18q-51 24 -75.5 83.5t-24.5 166.5q0 110 25 169.5t75.5 82t135.5 22.5t135.5 -23t75.5 -82.5t25 -168.5q0 -108 -24.5 -167.5t-75 -83t-136.5 -23.5q-85 0 -136 24zM366.5 89.5q28.5 13.5 43 55t14.5 124.5t-14.5 124.5t-43 54.5t-78.5 13q-51 0 -78.5 -13
t-42 -54.5t-14.5 -124.5q0 -84 14.5 -125.5t42 -54.5t78.5 -13q50 0 78.5 13.5zM244.5 861q16.5 -5 40.5 -16q19 -8 32 -12.5t27 -4.5q22 0 35.5 10.5t13.5 30.5h51q-3 -48 -23.5 -69.5t-60.5 -21.5q-29 0 -77 20q-22 9 -36.5 13.5t-27.5 4.5q-18 0 -30 -10.5t-13 -28.5h-51
q5 89 84 89q19 0 35.5 -5zM433 631h-60l-84 55l-91 -55h-60l118 102h70z" />
    <glyph glyph-name="uni020D" unicode="&#x20d;" horiz-adv-x="576" 
d="M152 18q-51 24 -75.5 83.5t-24.5 166.5q0 110 25 169.5t75.5 82t135.5 22.5t135.5 -23t75.5 -82.5t25 -168.5q0 -108 -24.5 -167.5t-75 -83t-136.5 -23.5q-85 0 -136 24zM366.5 89.5q28.5 13.5 43 55t14.5 124.5t-14.5 124.5t-43 54.5t-78.5 13q-51 0 -78.5 -13
t-42 -54.5t-14.5 -124.5q0 -84 14.5 -125.5t42 -54.5t78.5 -13q50 0 78.5 13.5zM78 769h84l97 -138h-59zM234 769h84l97 -138h-59z" />
    <glyph glyph-name="odieresis" unicode="&#xf6;" horiz-adv-x="576" 
d="M152 18q-51 24 -75.5 83.5t-24.5 166.5q0 110 25 169.5t75.5 82t135.5 22.5t135.5 -23t75.5 -82.5t25 -168.5q0 -108 -24.5 -167.5t-75 -83t-136.5 -23.5q-85 0 -136 24zM366.5 89.5q28.5 13.5 43 55t14.5 124.5t-14.5 124.5t-43 54.5t-78.5 13q-51 0 -78.5 -13
t-42 -54.5t-14.5 -124.5q0 -84 14.5 -125.5t42 -54.5t78.5 -13q50 0 78.5 13.5zM152 653q-5 5 -5 12v84q0 18 18 18h46q17 0 17 -18v-84q0 -17 -17 -17h-46q-8 0 -13 5zM347.5 653q-4.5 5 -4.5 12v84q0 18 17 18h47q17 0 17 -18v-84q0 -8 -4.5 -12.5t-12.5 -4.5h-47
q-8 0 -12.5 5z" />
    <glyph glyph-name="uni022B" unicode="&#x22b;" horiz-adv-x="576" 
d="M152 18q-51 24 -75.5 83.5t-24.5 166.5q0 110 25 169.5t75.5 82t135.5 22.5t135.5 -23t75.5 -82.5t25 -168.5q0 -108 -24.5 -167.5t-75 -83t-136.5 -23.5q-85 0 -136 24zM366.5 89.5q28.5 13.5 43 55t14.5 124.5t-14.5 124.5t-43 54.5t-78.5 13q-51 0 -78.5 -13
t-42 -54.5t-14.5 -124.5q0 -84 14.5 -125.5t42 -54.5t78.5 -13q50 0 78.5 13.5zM152 653q-5 5 -5 12v84q0 18 18 18h46q17 0 17 -18v-84q0 -17 -17 -17h-46q-8 0 -13 5zM347.5 653q-4.5 5 -4.5 12v84q0 18 17 18h47q17 0 17 -18v-84q0 -8 -4.5 -12.5t-12.5 -4.5h-47
q-8 0 -12.5 5zM150 897h270v-60h-270v60z" />
    <glyph glyph-name="uni0231" unicode="&#x231;" horiz-adv-x="576" 
d="M152 18q-51 24 -75.5 83.5t-24.5 166.5q0 110 25 169.5t75.5 82t135.5 22.5t135.5 -23t75.5 -82.5t25 -168.5q0 -108 -24.5 -167.5t-75 -83t-136.5 -23.5q-85 0 -136 24zM366.5 89.5q28.5 13.5 43 55t14.5 124.5t-14.5 124.5t-43 54.5t-78.5 13q-51 0 -78.5 -13
t-42 -54.5t-14.5 -124.5q0 -84 14.5 -125.5t42 -54.5t78.5 -13q50 0 78.5 13.5zM250.5 660q-4.5 5 -4.5 12v84q0 18 17 18h47q17 0 17 -18v-84q0 -8 -4.5 -12.5t-12.5 -4.5h-47q-8 0 -12.5 5zM150 891h270v-60h-270v60z" />
    <glyph glyph-name="uni1ECD" unicode="&#x1ecd;" horiz-adv-x="576" 
d="M152 18q-51 24 -75.5 83.5t-24.5 166.5q0 110 25 169.5t75.5 82t135.5 22.5t135.5 -23t75.5 -82.5t25 -168.5q0 -108 -24.5 -167.5t-75 -83t-136.5 -23.5q-85 0 -136 24zM366.5 89.5q28.5 13.5 43 55t14.5 124.5t-14.5 124.5t-43 54.5t-78.5 13q-51 0 -78.5 -13
t-42 -54.5t-14.5 -124.5q0 -84 14.5 -125.5t42 -54.5t78.5 -13q50 0 78.5 13.5zM248.5 -210.5q-4.5 4.5 -4.5 12.5v84q0 18 17 18h47q17 0 17 -18v-84q0 -8 -4.5 -12.5t-12.5 -4.5h-47q-8 0 -12.5 4.5z" />
    <glyph glyph-name="ograve" unicode="&#xf2;" horiz-adv-x="576" 
d="M152 18q-51 24 -75.5 83.5t-24.5 166.5q0 110 25 169.5t75.5 82t135.5 22.5t135.5 -23t75.5 -82.5t25 -168.5q0 -108 -24.5 -167.5t-75 -83t-136.5 -23.5q-85 0 -136 24zM366.5 89.5q28.5 13.5 43 55t14.5 124.5t-14.5 124.5t-43 54.5t-78.5 13q-51 0 -78.5 -13
t-42 -54.5t-14.5 -124.5q0 -84 14.5 -125.5t42 -54.5t78.5 -13q50 0 78.5 13.5zM157 769h83l98 -138h-59z" />
    <glyph glyph-name="uni1ECF" unicode="&#x1ecf;" horiz-adv-x="576" 
d="M152 18q-51 24 -75.5 83.5t-24.5 166.5q0 110 25 169.5t75.5 82t135.5 22.5t135.5 -23t75.5 -82.5t25 -168.5q0 -108 -24.5 -167.5t-75 -83t-136.5 -23.5q-85 0 -136 24zM366.5 89.5q28.5 13.5 43 55t14.5 124.5t-14.5 124.5t-43 54.5t-78.5 13q-51 0 -78.5 -13
t-42 -54.5t-14.5 -124.5q0 -84 14.5 -125.5t42 -54.5t78.5 -13q50 0 78.5 13.5zM267 646q27 8 39 22t12 31q0 19 -10 29t-34 10q-18 0 -34 -6v41q20 7 47 7q42 0 63.5 -20.5t21.5 -57.5q0 -72 -105 -102v46z" />
    <glyph glyph-name="ohorn" unicode="&#x1a1;" horiz-adv-x="576" 
d="M532.5 539q-23.5 -40 -63.5 -53q28 -32 41.5 -85t13.5 -133q0 -108 -24.5 -167.5t-75 -83t-136.5 -23.5q-85 0 -136 24t-75.5 83.5t-24.5 166.5q0 110 25 169.5t75.5 82t135.5 22.5q50 0 85 -7h35q37 0 56.5 26t19.5 86h72q0 -68 -23.5 -108zM366.5 89.5q28.5 13.5 43 55
t14.5 124.5t-14.5 124.5t-43 54.5t-78.5 13q-51 0 -78.5 -13t-42 -54.5t-14.5 -124.5q0 -84 14.5 -125.5t42 -54.5t78.5 -13q50 0 78.5 13.5z" />
    <glyph glyph-name="uni1EDB" unicode="&#x1edb;" horiz-adv-x="576" 
d="M532.5 539q-23.5 -40 -63.5 -53q28 -32 41.5 -85t13.5 -133q0 -108 -24.5 -167.5t-75 -83t-136.5 -23.5q-85 0 -136 24t-75.5 83.5t-24.5 166.5q0 110 25 169.5t75.5 82t135.5 22.5q50 0 85 -7h35q37 0 56.5 26t19.5 86h72q0 -68 -23.5 -108zM366.5 89.5q28.5 13.5 43 55
t14.5 124.5t-14.5 124.5t-43 54.5t-78.5 13q-51 0 -78.5 -13t-42 -54.5t-14.5 -124.5q0 -84 14.5 -125.5t42 -54.5t78.5 -13q50 0 78.5 13.5zM350 769h84l-122 -138h-59z" />
    <glyph glyph-name="uni1EE3" unicode="&#x1ee3;" horiz-adv-x="576" 
d="M532.5 539q-23.5 -40 -63.5 -53q28 -32 41.5 -85t13.5 -133q0 -108 -24.5 -167.5t-75 -83t-136.5 -23.5q-85 0 -136 24t-75.5 83.5t-24.5 166.5q0 110 25 169.5t75.5 82t135.5 22.5q50 0 85 -7h35q37 0 56.5 26t19.5 86h72q0 -68 -23.5 -108zM366.5 89.5q28.5 13.5 43 55
t14.5 124.5t-14.5 124.5t-43 54.5t-78.5 13q-51 0 -78.5 -13t-42 -54.5t-14.5 -124.5q0 -84 14.5 -125.5t42 -54.5t78.5 -13q50 0 78.5 13.5zM257.5 -210.5q-4.5 4.5 -4.5 12.5v84q0 18 17 18h47q17 0 17 -18v-84q0 -8 -4.5 -12.5t-12.5 -4.5h-47q-8 0 -12.5 4.5z" />
    <glyph glyph-name="uni1EDD" unicode="&#x1edd;" horiz-adv-x="576" 
d="M532.5 539q-23.5 -40 -63.5 -53q28 -32 41.5 -85t13.5 -133q0 -108 -24.5 -167.5t-75 -83t-136.5 -23.5q-85 0 -136 24t-75.5 83.5t-24.5 166.5q0 110 25 169.5t75.5 82t135.5 22.5q50 0 85 -7h35q37 0 56.5 26t19.5 86h72q0 -68 -23.5 -108zM366.5 89.5q28.5 13.5 43 55
t14.5 124.5t-14.5 124.5t-43 54.5t-78.5 13q-51 0 -78.5 -13t-42 -54.5t-14.5 -124.5q0 -84 14.5 -125.5t42 -54.5t78.5 -13q50 0 78.5 13.5zM147 769h83l98 -138h-59z" />
    <glyph glyph-name="uni1EDF" unicode="&#x1edf;" horiz-adv-x="576" 
d="M532.5 539q-23.5 -40 -63.5 -53q28 -32 41.5 -85t13.5 -133q0 -108 -24.5 -167.5t-75 -83t-136.5 -23.5q-85 0 -136 24t-75.5 83.5t-24.5 166.5q0 110 25 169.5t75.5 82t135.5 22.5q50 0 85 -7h35q37 0 56.5 26t19.5 86h72q0 -68 -23.5 -108zM366.5 89.5q28.5 13.5 43 55
t14.5 124.5t-14.5 124.5t-43 54.5t-78.5 13q-51 0 -78.5 -13t-42 -54.5t-14.5 -124.5q0 -84 14.5 -125.5t42 -54.5t78.5 -13q50 0 78.5 13.5zM269 646q27 8 39 22t12 31q0 19 -10 29t-34 10q-18 0 -34 -6v41q20 7 47 7q42 0 63.5 -20.5t21.5 -57.5q0 -72 -105 -102v46z" />
    <glyph glyph-name="uni1EE1" unicode="&#x1ee1;" horiz-adv-x="576" 
d="M532.5 539q-23.5 -40 -63.5 -53q28 -32 41.5 -85t13.5 -133q0 -108 -24.5 -167.5t-75 -83t-136.5 -23.5q-85 0 -136 24t-75.5 83.5t-24.5 166.5q0 110 25 169.5t75.5 82t135.5 22.5q50 0 85 -7h35q37 0 56.5 26t19.5 86h72q0 -68 -23.5 -108zM366.5 89.5q28.5 13.5 43 55
t14.5 124.5t-14.5 124.5t-43 54.5t-78.5 13q-51 0 -78.5 -13t-42 -54.5t-14.5 -124.5q0 -84 14.5 -125.5t42 -54.5t78.5 -13q50 0 78.5 13.5zM130 727.5q28 27.5 68 27.5q23 0 43 -8t45 -23q22 -13 36 -19t29 -6q25 0 39.5 15.5t15.5 44.5h51q-1 -56 -27 -86.5t-72 -30.5
q-22 0 -41.5 8t-44.5 23q-21 13 -36.5 19.5t-30.5 6.5q-23 0 -38 -15t-16 -43h-51q2 59 30 86.5z" />
    <glyph glyph-name="ohungarumlaut" unicode="&#x151;" horiz-adv-x="576" 
d="M152 18q-51 24 -75.5 83.5t-24.5 166.5q0 110 25 169.5t75.5 82t135.5 22.5t135.5 -23t75.5 -82.5t25 -168.5q0 -108 -24.5 -167.5t-75 -83t-136.5 -23.5q-85 0 -136 24zM366.5 89.5q28.5 13.5 43 55t14.5 124.5t-14.5 124.5t-43 54.5t-78.5 13q-51 0 -78.5 -13
t-42 -54.5t-14.5 -124.5q0 -84 14.5 -125.5t42 -54.5t78.5 -13q50 0 78.5 13.5zM255 769h80l-113 -138h-59zM410 769h79l-113 -138h-59z" />
    <glyph glyph-name="uni020F" unicode="&#x20f;" horiz-adv-x="576" 
d="M152 18q-51 24 -75.5 83.5t-24.5 166.5q0 110 25 169.5t75.5 82t135.5 22.5t135.5 -23t75.5 -82.5t25 -168.5q0 -108 -24.5 -167.5t-75 -83t-136.5 -23.5q-85 0 -136 24zM366.5 89.5q28.5 13.5 43 55t14.5 124.5t-14.5 124.5t-43 54.5t-78.5 13q-51 0 -78.5 -13
t-42 -54.5t-14.5 -124.5q0 -84 14.5 -125.5t42 -54.5t78.5 -13q50 0 78.5 13.5zM384 738q36 -35 36 -110h-47q0 51 -24 74.5t-60 23.5q-88 0 -88 -98h-49q0 76 36.5 110.5t98.5 34.5q61 0 97 -35z" />
    <glyph glyph-name="omacron" unicode="&#x14d;" horiz-adv-x="576" 
d="M152 18q-51 24 -75.5 83.5t-24.5 166.5q0 110 25 169.5t75.5 82t135.5 22.5t135.5 -23t75.5 -82.5t25 -168.5q0 -108 -24.5 -167.5t-75 -83t-136.5 -23.5q-85 0 -136 24zM366.5 89.5q28.5 13.5 43 55t14.5 124.5t-14.5 124.5t-43 54.5t-78.5 13q-51 0 -78.5 -13
t-42 -54.5t-14.5 -124.5q0 -84 14.5 -125.5t42 -54.5t78.5 -13q50 0 78.5 13.5zM150 724h270v-60h-270v60z" />
    <glyph glyph-name="uni1E53" unicode="&#x1e53;" horiz-adv-x="576" 
d="M152 18q-51 24 -75.5 83.5t-24.5 166.5q0 110 25 169.5t75.5 82t135.5 22.5t135.5 -23t75.5 -82.5t25 -168.5q0 -108 -24.5 -167.5t-75 -83t-136.5 -23.5q-85 0 -136 24zM366.5 89.5q28.5 13.5 43 55t14.5 124.5t-14.5 124.5t-43 54.5t-78.5 13q-51 0 -78.5 -13
t-42 -54.5t-14.5 -124.5q0 -84 14.5 -125.5t42 -54.5t78.5 -13q50 0 78.5 13.5zM150 724h270v-60h-270v60zM344 898h84l-122 -138h-59z" />
    <glyph glyph-name="uni1E51" unicode="&#x1e51;" horiz-adv-x="576" 
d="M152 18q-51 24 -75.5 83.5t-24.5 166.5q0 110 25 169.5t75.5 82t135.5 22.5t135.5 -23t75.5 -82.5t25 -168.5q0 -108 -24.5 -167.5t-75 -83t-136.5 -23.5q-85 0 -136 24zM366.5 89.5q28.5 13.5 43 55t14.5 124.5t-14.5 124.5t-43 54.5t-78.5 13q-51 0 -78.5 -13
t-42 -54.5t-14.5 -124.5q0 -84 14.5 -125.5t42 -54.5t78.5 -13q50 0 78.5 13.5zM150 724h270v-60h-270v60zM148 898h83l98 -138h-59z" />
    <glyph glyph-name="uni01EB" unicode="&#x1eb;" horiz-adv-x="576" 
d="M284 -77q0 -28 20 -44t55 -16h8v-49q-16 -2 -28 -2q-51 0 -78.5 25.5t-27.5 63.5q0 59 61 93h-6q-85 0 -136 24t-75.5 83.5t-24.5 166.5q0 110 25 169.5t75.5 82t135.5 22.5t135.5 -23t75.5 -82.5t25 -168.5q0 -97 -19.5 -154.5t-60.5 -84.5t-108 -33q-52 -32 -52 -73z
M167.5 143.5q14.5 -41.5 42 -54.5t78.5 -13q50 0 78.5 13.5t43 55t14.5 124.5t-14.5 124.5t-43 54.5t-78.5 13q-51 0 -78.5 -13t-42 -54.5t-14.5 -124.5q0 -84 14.5 -125.5z" />
    <glyph glyph-name="oslash" unicode="&#xf8;" horiz-adv-x="576" 
d="M480 471q23 -32 33.5 -81t10.5 -122q0 -108 -24.5 -167.5t-75 -83t-136.5 -23.5q-55 0 -95.5 10t-68.5 32l-29 -36h-51l53 65q-23 31 -34 81t-11 122q0 110 25 169.5t75.5 82t135.5 22.5q57 0 97 -9.5t68 -32.5l28 35h51zM166 149l226 277q-16 20 -40.5 27.5t-63.5 7.5
q-51 0 -78.5 -13t-42 -54.5t-14.5 -124.5q0 -80 13 -120zM411 387l-226 -277q15 -20 39.5 -27t63.5 -7q50 0 78.5 13.5t43 55t14.5 124.5q0 78 -13 118z" />
    <glyph glyph-name="oslashacute" unicode="&#x1ff;" horiz-adv-x="576" 
d="M480 471q23 -32 33.5 -81t10.5 -122q0 -108 -24.5 -167.5t-75 -83t-136.5 -23.5q-55 0 -95.5 10t-68.5 32l-29 -36h-51l53 65q-23 31 -34 81t-11 122q0 110 25 169.5t75.5 82t135.5 22.5q57 0 97 -9.5t68 -32.5l28 35h51zM166 149l226 277q-16 20 -40.5 27.5t-63.5 7.5
q-51 0 -78.5 -13t-42 -54.5t-14.5 -124.5q0 -80 13 -120zM411 387l-226 -277q15 -20 39.5 -27t63.5 -7q50 0 78.5 13.5t43 55t14.5 124.5q0 78 -13 118zM349 769h84l-122 -138h-59z" />
    <glyph glyph-name="otilde" unicode="&#xf5;" horiz-adv-x="576" 
d="M152 18q-51 24 -75.5 83.5t-24.5 166.5q0 110 25 169.5t75.5 82t135.5 22.5t135.5 -23t75.5 -82.5t25 -168.5q0 -108 -24.5 -167.5t-75 -83t-136.5 -23.5q-85 0 -136 24zM366.5 89.5q28.5 13.5 43 55t14.5 124.5t-14.5 124.5t-43 54.5t-78.5 13q-51 0 -78.5 -13
t-42 -54.5t-14.5 -124.5q0 -84 14.5 -125.5t42 -54.5t78.5 -13q50 0 78.5 13.5zM149 727.5q28 27.5 68 27.5q23 0 43 -8t45 -23q22 -13 36 -19t29 -6q25 0 39.5 15.5t15.5 44.5h51q-1 -56 -27 -86.5t-72 -30.5q-22 0 -41.5 8t-44.5 23q-21 13 -36.5 19.5t-30.5 6.5
q-23 0 -38 -15t-16 -43h-51q2 59 30 86.5z" />
    <glyph glyph-name="uni1E4D" unicode="&#x1e4d;" horiz-adv-x="576" 
d="M152 18q-51 24 -75.5 83.5t-24.5 166.5q0 110 25 169.5t75.5 82t135.5 22.5t135.5 -23t75.5 -82.5t25 -168.5q0 -108 -24.5 -167.5t-75 -83t-136.5 -23.5q-85 0 -136 24zM366.5 89.5q28.5 13.5 43 55t14.5 124.5t-14.5 124.5t-43 54.5t-78.5 13q-51 0 -78.5 -13
t-42 -54.5t-14.5 -124.5q0 -84 14.5 -125.5t42 -54.5t78.5 -13q50 0 78.5 13.5zM149 727.5q28 27.5 68 27.5q23 0 43 -8t45 -23q22 -13 36 -19t29 -6q25 0 39.5 15.5t15.5 44.5h51q-1 -56 -27 -86.5t-72 -30.5q-22 0 -41.5 8t-44.5 23q-21 13 -36.5 19.5t-30.5 6.5
q-23 0 -38 -15t-16 -43h-51q2 59 30 86.5zM344 924h84l-122 -138h-59z" />
    <glyph glyph-name="uni1E4F" unicode="&#x1e4f;" horiz-adv-x="576" 
d="M152 18q-51 24 -75.5 83.5t-24.5 166.5q0 110 25 169.5t75.5 82t135.5 22.5t135.5 -23t75.5 -82.5t25 -168.5q0 -108 -24.5 -167.5t-75 -83t-136.5 -23.5q-85 0 -136 24zM366.5 89.5q28.5 13.5 43 55t14.5 124.5t-14.5 124.5t-43 54.5t-78.5 13q-51 0 -78.5 -13
t-42 -54.5t-14.5 -124.5q0 -84 14.5 -125.5t42 -54.5t78.5 -13q50 0 78.5 13.5zM149 727.5q28 27.5 68 27.5q23 0 43 -8t45 -23q22 -13 36 -19t29 -6q25 0 39.5 15.5t15.5 44.5h51q-1 -56 -27 -86.5t-72 -30.5q-22 0 -41.5 8t-44.5 23q-21 13 -36.5 19.5t-30.5 6.5
q-23 0 -38 -15t-16 -43h-51q2 59 30 86.5zM162 812q-5 5 -5 12v84q0 18 18 18h46q17 0 17 -18v-84q0 -17 -17 -17h-46q-8 0 -13 5zM357.5 812q-4.5 5 -4.5 12v84q0 18 17 18h47q17 0 17 -18v-84q0 -8 -4.5 -12.5t-12.5 -4.5h-47q-8 0 -12.5 5z" />
    <glyph glyph-name="uni022D" unicode="&#x22d;" horiz-adv-x="576" 
d="M152 18q-51 24 -75.5 83.5t-24.5 166.5q0 110 25 169.5t75.5 82t135.5 22.5t135.5 -23t75.5 -82.5t25 -168.5q0 -108 -24.5 -167.5t-75 -83t-136.5 -23.5q-85 0 -136 24zM366.5 89.5q28.5 13.5 43 55t14.5 124.5t-14.5 124.5t-43 54.5t-78.5 13q-51 0 -78.5 -13
t-42 -54.5t-14.5 -124.5q0 -84 14.5 -125.5t42 -54.5t78.5 -13q50 0 78.5 13.5zM150 897h270v-60h-270v60zM137 727.5q28 27.5 68 27.5q23 0 43 -8t45 -23q22 -13 36 -19t29 -6q25 0 39.5 15.5t15.5 44.5h51q-1 -56 -27 -86.5t-72 -30.5q-22 0 -41.5 8t-44.5 23
q-21 13 -36.5 19.5t-30.5 6.5q-23 0 -38 -15t-16 -43h-51q2 59 30 86.5z" />
    <glyph glyph-name="oe" unicode="&#x153;" horiz-adv-x="907" 
d="M554.5 107.5q34.5 -36.5 114.5 -36.5h171v-60q-110 -17 -199 -17q-60 0 -102 19.5t-66 61.5q-25 -45 -70 -63t-117 -18q-84 0 -134.5 24t-75 83.5t-24.5 166.5q0 110 25 169.5t75.5 82t135.5 22.5q70 0 114.5 -17.5t69.5 -60.5q24 40 65 59t104 19q77 0 122.5 -15.5
t68.5 -56t23 -116.5q0 -63 -40.5 -94t-107.5 -31h-188q1 -85 35.5 -121.5zM544.5 427.5q-26.5 -40.5 -26.5 -135.5h170q38 0 57.5 15.5t19.5 55.5q0 62 -28.5 83.5t-95.5 21.5q-70 0 -96.5 -40.5zM366.5 84.5q28.5 13.5 43 56.5t14.5 128t-14.5 127t-43 55.5t-78.5 13.5
q-51 0 -78.5 -13.5t-42 -55.5t-14.5 -127q0 -86 14.5 -128.5t42.5 -56t78 -13.5t78.5 13.5z" />
    <glyph glyph-name="p" unicode="p" horiz-adv-x="580" 
d="M70 535h82l18 -54q33 24 78 42.5t89 18.5q98 0 144.5 -75t46.5 -199q0 -137 -45.5 -206t-145.5 -69q-41 0 -85.5 12.5t-81.5 33.5v-276h-100v772zM428 268q0 99 -33.5 145.5t-86.5 46.5q-64 0 -138 -40v-305q31 -18 66.5 -28t70.5 -10q121 0 121 191z" />
    <glyph glyph-name="uni1E57" unicode="&#x1e57;" horiz-adv-x="580" 
d="M70 535h82l18 -54q33 24 78 42.5t89 18.5q98 0 144.5 -75t46.5 -199q0 -137 -45.5 -206t-145.5 -69q-41 0 -85.5 12.5t-81.5 33.5v-276h-100v772zM428 268q0 99 -33.5 145.5t-86.5 46.5q-64 0 -138 -40v-305q31 -18 66.5 -28t70.5 -10q121 0 121 191zM240.5 660
q-4.5 5 -4.5 12v84q0 18 17 18h47q17 0 17 -18v-84q0 -8 -4.5 -12.5t-12.5 -4.5h-47q-8 0 -12.5 5z" />
    <glyph glyph-name="thorn" unicode="&#xfe;" horiz-adv-x="580" 
d="M70 763h100v-282q33 24 78 42.5t89 18.5q95 0 143 -76t48 -198q0 -275 -191 -275q-41 0 -85.5 12.5t-81.5 33.5v-276h-100v1000zM428 264q0 101 -33.5 148.5t-86.5 47.5q-64 0 -138 -40v-305q31 -18 66.5 -28t70.5 -10q121 0 121 187z" />
    <glyph glyph-name="q" unicode="q" horiz-adv-x="577" 
d="M410 53q-37 -26 -81.5 -42.5t-84.5 -16.5q-105 0 -148.5 66t-43.5 208q0 143 48.5 208.5t152.5 65.5q115 0 257 -16v-763h-100v290zM410 116v349h-130q-70 0 -98.5 -49t-28.5 -145q0 -73 11.5 -115t37 -61t68.5 -19q68 0 140 40z" />
    <glyph glyph-name="r" unicode="r" horiz-adv-x="416" 
d="M70 535h77l23 -90q38 46 80 71.5t94 25.5q27 0 48 -6v-103q-32 5 -60 5q-49 0 -86 -17.5t-76 -55.5v-365h-100v535z" />
    <glyph glyph-name="racute" unicode="&#x155;" horiz-adv-x="416" 
d="M70 535h77l23 -90q38 46 80 71.5t94 25.5q27 0 48 -6v-103q-32 5 -60 5q-49 0 -86 -17.5t-76 -55.5v-365h-100v535zM275 769h84l-122 -138h-59z" />
    <glyph glyph-name="rcaron" unicode="&#x159;" horiz-adv-x="416" 
d="M70 535h77l23 -90q38 46 80 71.5t94 25.5q27 0 48 -6v-103q-32 5 -60 5q-49 0 -86 -17.5t-76 -55.5v-365h-100v535zM70 768h60l84 -90l90 90h61l-118 -137h-70z" />
    <glyph glyph-name="rcommaaccent" unicode="&#x157;" horiz-adv-x="416" 
d="M70 535h77l23 -90q38 46 80 71.5t94 25.5q27 0 48 -6v-103q-32 5 -60 5q-49 0 -86 -17.5t-76 -55.5v-365h-100v535zM36 -165l29 5q25 5 38 12.5t19 26t6 55.5h62q0 -53 -9.5 -82.5t-34 -43.5t-68.5 -14h-42v41z" />
    <glyph glyph-name="uni0211" unicode="&#x211;" horiz-adv-x="416" 
d="M70 535h77l23 -90q38 46 80 71.5t94 25.5q27 0 48 -6v-103q-32 5 -60 5q-49 0 -86 -17.5t-76 -55.5v-365h-100v535zM3 769h84l97 -138h-59zM159 769h84l97 -138h-59z" />
    <glyph glyph-name="uni1E5B" unicode="&#x1e5b;" horiz-adv-x="416" 
d="M70 535h77l23 -90q38 46 80 71.5t94 25.5q27 0 48 -6v-103q-32 5 -60 5q-49 0 -86 -17.5t-76 -55.5v-365h-100v535zM80.5 -210.5q-4.5 4.5 -4.5 12.5v84q0 18 17 18h47q17 0 17 -18v-84q0 -8 -4.5 -12.5t-12.5 -4.5h-47q-8 0 -12.5 4.5z" />
    <glyph glyph-name="uni0213" unicode="&#x213;" horiz-adv-x="416" 
d="M70 535h77l23 -90q38 46 80 71.5t94 25.5q27 0 48 -6v-103q-32 5 -60 5q-49 0 -86 -17.5t-76 -55.5v-365h-100v535zM310 738q36 -35 36 -110h-47q0 51 -24 74.5t-60 23.5q-88 0 -88 -98h-49q0 76 36.5 110.5t98.5 34.5q61 0 97 -35z" />
    <glyph glyph-name="uni1E5F" unicode="&#x1e5f;" horiz-adv-x="416" 
d="M70 535h77l23 -90q38 46 80 71.5t94 25.5q27 0 48 -6v-103q-32 5 -60 5q-49 0 -86 -17.5t-76 -55.5v-365h-100v535zM-17 -136h270v-60h-270v60z" />
    <glyph glyph-name="s" unicode="s" horiz-adv-x="501" 
d="M142.5 -1.5q-64.5 4.5 -91.5 12.5v60h225q48 0 71 13.5t23 54.5v22q0 64 -86 64h-78q-77 0 -119 31.5t-42 104.5v29q0 77 45.5 113.5t150.5 36.5q44 0 103 -5.5t91 -12.5v-60h-212q-47 0 -69 -16t-22 -56v-20q0 -38 21.5 -50t69.5 -12h80q75 0 114.5 -35t39.5 -100v-41
q0 -77 -50.5 -107.5t-149.5 -30.5q-50 0 -114.5 4.5z" />
    <glyph glyph-name="sacute" unicode="&#x15b;" horiz-adv-x="501" 
d="M142.5 -1.5q-64.5 4.5 -91.5 12.5v60h225q48 0 71 13.5t23 54.5v22q0 64 -86 64h-78q-77 0 -119 31.5t-42 104.5v29q0 77 45.5 113.5t150.5 36.5q44 0 103 -5.5t91 -12.5v-60h-212q-47 0 -69 -16t-22 -56v-20q0 -38 21.5 -50t69.5 -12h80q75 0 114.5 -35t39.5 -100v-41
q0 -77 -50.5 -107.5t-149.5 -30.5q-50 0 -114.5 4.5zM303 769h84l-122 -138h-59z" />
    <glyph glyph-name="uni1E65" unicode="&#x1e65;" horiz-adv-x="501" 
d="M142.5 -1.5q-64.5 4.5 -91.5 12.5v60h225q48 0 71 13.5t23 54.5v22q0 64 -86 64h-78q-77 0 -119 31.5t-42 104.5v29q0 77 45.5 113.5t150.5 36.5q44 0 103 -5.5t91 -12.5v-60h-212q-47 0 -69 -16t-22 -56v-20q0 -38 21.5 -50t69.5 -12h80q75 0 114.5 -35t39.5 -100v-41
q0 -77 -50.5 -107.5t-149.5 -30.5q-50 0 -114.5 4.5zM267 769h84l-122 -138h-59zM223.5 803q-4.5 5 -4.5 12v84q0 18 17 18h47q17 0 17 -18v-84q0 -8 -4.5 -12.5t-12.5 -4.5h-47q-8 0 -12.5 5z" />
    <glyph glyph-name="scaron" unicode="&#x161;" horiz-adv-x="501" 
d="M142.5 -1.5q-64.5 4.5 -91.5 12.5v60h225q48 0 71 13.5t23 54.5v22q0 64 -86 64h-78q-77 0 -119 31.5t-42 104.5v29q0 77 45.5 113.5t150.5 36.5q44 0 103 -5.5t91 -12.5v-60h-212q-47 0 -69 -16t-22 -56v-20q0 -38 21.5 -50t69.5 -12h80q75 0 114.5 -35t39.5 -100v-41
q0 -77 -50.5 -107.5t-149.5 -30.5q-50 0 -114.5 4.5zM98 768h60l84 -90l90 90h61l-118 -137h-70z" />
    <glyph glyph-name="uni1E67" unicode="&#x1e67;" horiz-adv-x="501" 
d="M142.5 -1.5q-64.5 4.5 -91.5 12.5v60h225q48 0 71 13.5t23 54.5v22q0 64 -86 64h-78q-77 0 -119 31.5t-42 104.5v29q0 77 45.5 113.5t150.5 36.5q44 0 103 -5.5t91 -12.5v-60h-212q-47 0 -69 -16t-22 -56v-20q0 -38 21.5 -50t69.5 -12h80q75 0 114.5 -35t39.5 -100v-41
q0 -77 -50.5 -107.5t-149.5 -30.5q-50 0 -114.5 4.5zM98 768h60l84 -90l90 90h61l-118 -137h-70zM204.5 807q-4.5 5 -4.5 12v84q0 18 17 18h47q17 0 17 -18v-84q0 -8 -4.5 -12.5t-12.5 -4.5h-47q-8 0 -12.5 5z" />
    <glyph glyph-name="scedilla" unicode="&#x15f;" horiz-adv-x="501" 
d="M417.5 273q39.5 -35 39.5 -100v-41q0 -75 -48 -105.5t-141 -32.5l-31 -47q71 -6 71 -65q0 -36 -25.5 -55t-73.5 -19h-38v41l21 2q51 6 51 42q0 38 -60 42l39 60q-48 1 -98 5.5t-73 10.5v60h225q48 0 71 13.5t23 54.5v22q0 64 -86 64h-78q-77 0 -119 31.5t-42 104.5v29
q0 77 45.5 113.5t150.5 36.5q44 0 103 -5.5t91 -12.5v-60h-212q-47 0 -69 -16t-22 -56v-20q0 -38 21.5 -50t69.5 -12h80q75 0 114.5 -35z" />
    <glyph glyph-name="scircumflex" unicode="&#x15d;" horiz-adv-x="501" 
d="M142.5 -1.5q-64.5 4.5 -91.5 12.5v60h225q48 0 71 13.5t23 54.5v22q0 64 -86 64h-78q-77 0 -119 31.5t-42 104.5v29q0 77 45.5 113.5t150.5 36.5q44 0 103 -5.5t91 -12.5v-60h-212q-47 0 -69 -16t-22 -56v-20q0 -38 21.5 -50t69.5 -12h80q75 0 114.5 -35t39.5 -100v-41
q0 -77 -50.5 -107.5t-149.5 -30.5q-50 0 -114.5 4.5zM210 768h70l107 -137h-60l-84 91l-91 -91h-60z" />
    <glyph glyph-name="scommaaccent" unicode="&#x219;" horiz-adv-x="501" 
d="M142.5 -1.5q-64.5 4.5 -91.5 12.5v60h225q48 0 71 13.5t23 54.5v22q0 64 -86 64h-78q-77 0 -119 31.5t-42 104.5v29q0 77 45.5 113.5t150.5 36.5q44 0 103 -5.5t91 -12.5v-60h-212q-47 0 -69 -16t-22 -56v-20q0 -38 21.5 -50t69.5 -12h80q75 0 114.5 -35t39.5 -100v-41
q0 -77 -50.5 -107.5t-149.5 -30.5q-50 0 -114.5 4.5zM158 -165l29 5q25 5 38 12.5t19 26t6 55.5h62q0 -53 -9.5 -82.5t-34 -43.5t-68.5 -14h-42v41z" />
    <glyph glyph-name="uni1E61" unicode="&#x1e61;" horiz-adv-x="501" 
d="M142.5 -1.5q-64.5 4.5 -91.5 12.5v60h225q48 0 71 13.5t23 54.5v22q0 64 -86 64h-78q-77 0 -119 31.5t-42 104.5v29q0 77 45.5 113.5t150.5 36.5q44 0 103 -5.5t91 -12.5v-60h-212q-47 0 -69 -16t-22 -56v-20q0 -38 21.5 -50t69.5 -12h80q75 0 114.5 -35t39.5 -100v-41
q0 -77 -50.5 -107.5t-149.5 -30.5q-50 0 -114.5 4.5zM204.5 660q-4.5 5 -4.5 12v84q0 18 17 18h47q17 0 17 -18v-84q0 -8 -4.5 -12.5t-12.5 -4.5h-47q-8 0 -12.5 5z" />
    <glyph glyph-name="uni1E63" unicode="&#x1e63;" horiz-adv-x="501" 
d="M142.5 -1.5q-64.5 4.5 -91.5 12.5v60h225q48 0 71 13.5t23 54.5v22q0 64 -86 64h-78q-77 0 -119 31.5t-42 104.5v29q0 77 45.5 113.5t150.5 36.5q44 0 103 -5.5t91 -12.5v-60h-212q-47 0 -69 -16t-22 -56v-20q0 -38 21.5 -50t69.5 -12h80q75 0 114.5 -35t39.5 -100v-41
q0 -77 -50.5 -107.5t-149.5 -30.5q-50 0 -114.5 4.5zM202.5 -210.5q-4.5 4.5 -4.5 12.5v84q0 18 17 18h47q17 0 17 -18v-84q0 -8 -4.5 -12.5t-12.5 -4.5h-47q-8 0 -12.5 4.5z" />
    <glyph glyph-name="uni1E69" unicode="&#x1e69;" horiz-adv-x="501" 
d="M142.5 -1.5q-64.5 4.5 -91.5 12.5v60h225q48 0 71 13.5t23 54.5v22q0 64 -86 64h-78q-77 0 -119 31.5t-42 104.5v29q0 77 45.5 113.5t150.5 36.5q44 0 103 -5.5t91 -12.5v-60h-212q-47 0 -69 -16t-22 -56v-20q0 -38 21.5 -50t69.5 -12h80q75 0 114.5 -35t39.5 -100v-41
q0 -77 -50.5 -107.5t-149.5 -30.5q-50 0 -114.5 4.5zM202.5 -210.5q-4.5 4.5 -4.5 12.5v84q0 18 17 18h47q17 0 17 -18v-84q0 -8 -4.5 -12.5t-12.5 -4.5h-47q-8 0 -12.5 4.5zM204.5 660q-4.5 5 -4.5 12v84q0 18 17 18h47q17 0 17 -18v-84q0 -8 -4.5 -12.5t-12.5 -4.5h-47
q-8 0 -12.5 5z" />
    <glyph glyph-name="germandbls" unicode="&#xdf;" horiz-adv-x="590" 
d="M307 -2.5q-44 4.5 -70 10.5v67q68 -4 135 -4q55 0 78 22.5t23 49.5v20q0 25 -19 38t-59 29q-35 14 -56 25.5t-36 32.5t-15 53q0 37 18 65.5t54 65.5q32 33 48.5 58t16.5 56q0 98 -128 98q-137 0 -137 -149v-535h-100v544q0 99 59.5 161t177.5 62q115 0 169 -48t54 -127
q0 -46 -21 -78t-60 -70q-29 -29 -42 -47t-13 -39q0 -24 18.5 -37.5t56.5 -28.5q36 -15 57.5 -28t37 -36t15.5 -58v-29q0 -75 -51 -111.5t-122 -36.5q-45 0 -89 4.5z" />
    <glyph glyph-name="t" unicode="t" horiz-adv-x="374" 
d="M134 41q-38 41 -36 137l4 275h-85v65l87 17l15 150h79v-150h145v-82h-145v-274q0 -54 20.5 -75t51.5 -24l66 -6v-74h-81q-83 0 -121 41z" />
    <glyph glyph-name="tbar" unicode="&#x167;" horiz-adv-x="374" 
d="M198 453v-125h134v-42h-134v-107q0 -54 20.5 -75t51.5 -24l66 -6v-74h-81q-83 0 -121 41t-36 137l2 108h-83v42h83l2 125h-85v65l87 17l15 150h79v-150h145v-82h-145z" />
    <glyph glyph-name="tcaron" unicode="&#x165;" horiz-adv-x="374" 
d="M134 41q-38 41 -36 137l4 275h-85v65l87 17l15 150h79v-150h145v-82h-145v-274q0 -54 20.5 -75t51.5 -24l66 -6v-74h-81q-83 0 -121 41zM260 722v61h92v-61l-7 -140h-78z" />
    <glyph glyph-name="uni0163" unicode="&#x163;" horiz-adv-x="374" 
d="M198 453v-274q0 -54 20.5 -75t51.5 -24l66 -6v-74h-81q-18 0 -27 1l-35 -54q71 -6 71 -65q0 -36 -25.5 -55t-73.5 -19h-38v41l21 2q51 6 51 42q0 38 -60 42l48 74q-47 14 -68.5 54.5t-20.5 114.5l4 275h-85v65l87 17l15 150h79v-150h145v-82h-145z" />
    <glyph glyph-name="uni021B" unicode="&#x21b;" horiz-adv-x="374" 
d="M134 41q-38 41 -36 137l4 275h-85v65l87 17l15 150h79v-150h145v-82h-145v-274q0 -54 20.5 -75t51.5 -24l66 -6v-74h-81q-83 0 -121 41zM104 -165l29 5q25 5 38 12.5t19 26t6 55.5h62q0 -53 -9.5 -82.5t-34 -43.5t-68.5 -14h-42v41z" />
    <glyph glyph-name="uni1E97" unicode="&#x1e97;" horiz-adv-x="374" 
d="M134 41q-38 41 -36 137l4 275h-85v65l87 17l15 150h79v-150h145v-82h-145v-274q0 -54 20.5 -75t51.5 -24l66 -6v-74h-81q-83 0 -121 41zM36 742q-5 5 -5 12v84q0 18 18 18h46q17 0 17 -18v-84q0 -17 -17 -17h-46q-8 0 -13 5zM231.5 742q-4.5 5 -4.5 12v84q0 18 17 18h47
q17 0 17 -18v-84q0 -8 -4.5 -12.5t-12.5 -4.5h-47q-8 0 -12.5 5z" />
    <glyph glyph-name="uni1E6B" unicode="&#x1e6b;" horiz-adv-x="374" 
d="M134 41q-38 41 -36 137l4 275h-85v65l87 17l15 150h79v-150h145v-82h-145v-274q0 -54 20.5 -75t51.5 -24l66 -6v-74h-81q-83 0 -121 41zM122.5 749q-4.5 5 -4.5 12v84q0 18 17 18h47q17 0 17 -18v-84q0 -8 -4.5 -12.5t-12.5 -4.5h-47q-8 0 -12.5 5z" />
    <glyph glyph-name="uni1E6D" unicode="&#x1e6d;" horiz-adv-x="374" 
d="M134 41q-38 41 -36 137l4 275h-85v65l87 17l15 150h79v-150h145v-82h-145v-274q0 -54 20.5 -75t51.5 -24l66 -6v-74h-81q-83 0 -121 41zM158.5 -210.5q-4.5 4.5 -4.5 12.5v84q0 18 17 18h47q17 0 17 -18v-84q0 -8 -4.5 -12.5t-12.5 -4.5h-47q-8 0 -12.5 4.5z" />
    <glyph glyph-name="uni1E6F" unicode="&#x1e6f;" horiz-adv-x="374" 
d="M134 41q-38 41 -36 137l4 275h-85v65l87 17l15 150h79v-150h145v-82h-145v-274q0 -54 20.5 -75t51.5 -24l66 -6v-74h-81q-83 0 -121 41zM61 -136h270v-60h-270v60z" />
    <glyph glyph-name="u" unicode="u" horiz-adv-x="590" 
d="M109.5 35q-40.5 41 -40.5 123v377h100v-350q0 -57 26 -79.5t79 -22.5q74 0 148 47v405h100v-535h-80l-20 58q-100 -64 -195 -64q-77 0 -117.5 41z" />
    <glyph glyph-name="uacute" unicode="&#xfa;" horiz-adv-x="590" 
d="M109.5 35q-40.5 41 -40.5 123v377h100v-350q0 -57 26 -79.5t79 -22.5q74 0 148 47v405h100v-535h-80l-20 58q-100 -64 -195 -64q-77 0 -117.5 41zM349 769h84l-122 -138h-59z" />
    <glyph glyph-name="ubreve" unicode="&#x16d;" horiz-adv-x="590" 
d="M109.5 35q-40.5 41 -40.5 123v377h100v-350q0 -57 26 -79.5t79 -22.5q74 0 148 47v405h100v-535h-80l-20 58q-100 -64 -195 -64q-77 0 -117.5 41zM184 662q-36 35 -36 110h47q0 -50 24 -74t60 -24q88 0 88 98h49q0 -76 -36.5 -110.5t-98.5 -34.5q-61 0 -97 35z" />
    <glyph glyph-name="ucircumflex" unicode="&#xfb;" horiz-adv-x="590" 
d="M109.5 35q-40.5 41 -40.5 123v377h100v-350q0 -57 26 -79.5t79 -22.5q74 0 148 47v405h100v-535h-80l-20 58q-100 -64 -195 -64q-77 0 -117.5 41zM256 768h70l107 -137h-60l-84 91l-91 -91h-60z" />
    <glyph glyph-name="uni0215" unicode="&#x215;" horiz-adv-x="590" 
d="M109.5 35q-40.5 41 -40.5 123v377h100v-350q0 -57 26 -79.5t79 -22.5q74 0 148 47v405h100v-535h-80l-20 58q-100 -64 -195 -64q-77 0 -117.5 41zM78 769h84l97 -138h-59zM234 769h84l97 -138h-59z" />
    <glyph glyph-name="udieresis" unicode="&#xfc;" horiz-adv-x="590" 
d="M109.5 35q-40.5 41 -40.5 123v377h100v-350q0 -57 26 -79.5t79 -22.5q74 0 148 47v405h100v-535h-80l-20 58q-100 -64 -195 -64q-77 0 -117.5 41zM152 653q-5 5 -5 12v84q0 18 18 18h46q17 0 17 -18v-84q0 -17 -17 -17h-46q-8 0 -13 5zM347.5 653q-4.5 5 -4.5 12v84
q0 18 17 18h47q17 0 17 -18v-84q0 -8 -4.5 -12.5t-12.5 -4.5h-47q-8 0 -12.5 5z" />
    <glyph glyph-name="uni1EE5" unicode="&#x1ee5;" horiz-adv-x="590" 
d="M109.5 35q-40.5 41 -40.5 123v377h100v-350q0 -57 26 -79.5t79 -22.5q74 0 148 47v405h100v-535h-80l-20 58q-100 -64 -195 -64q-77 0 -117.5 41zM248.5 -210.5q-4.5 4.5 -4.5 12.5v84q0 18 17 18h47q17 0 17 -18v-84q0 -8 -4.5 -12.5t-12.5 -4.5h-47q-8 0 -12.5 4.5z
" />
    <glyph glyph-name="ugrave" unicode="&#xf9;" horiz-adv-x="590" 
d="M109.5 35q-40.5 41 -40.5 123v377h100v-350q0 -57 26 -79.5t79 -22.5q74 0 148 47v405h100v-535h-80l-20 58q-100 -64 -195 -64q-77 0 -117.5 41zM157 769h83l98 -138h-59z" />
    <glyph glyph-name="uni1EE7" unicode="&#x1ee7;" horiz-adv-x="590" 
d="M109.5 35q-40.5 41 -40.5 123v377h100v-350q0 -57 26 -79.5t79 -22.5q74 0 148 47v405h100v-535h-80l-20 58q-100 -64 -195 -64q-77 0 -117.5 41zM267 646q27 8 39 22t12 31q0 19 -10 29t-34 10q-18 0 -34 -6v41q20 7 47 7q42 0 63.5 -20.5t21.5 -57.5q0 -72 -105 -102
v46z" />
    <glyph glyph-name="uhorn" unicode="&#x1b0;" horiz-adv-x="590" 
d="M590 536.5q-25 -40.5 -68 -52.5v-484h-80l-20 58q-100 -64 -195 -64q-77 0 -117.5 41t-40.5 123v377h100v-350q0 -57 26 -79.5t79 -22.5q74 0 148 47v405h45q37 0 57 26t20 86h71q0 -70 -25 -110.5z" />
    <glyph glyph-name="uni1EE9" unicode="&#x1ee9;" horiz-adv-x="590" 
d="M590 536.5q-25 -40.5 -68 -52.5v-484h-80l-20 58q-100 -64 -195 -64q-77 0 -117.5 41t-40.5 123v377h100v-350q0 -57 26 -79.5t79 -22.5q74 0 148 47v405h45q37 0 57 26t20 86h71q0 -70 -25 -110.5zM353 769h84l-122 -138h-59z" />
    <glyph glyph-name="uni1EF1" unicode="&#x1ef1;" horiz-adv-x="590" 
d="M590 536.5q-25 -40.5 -68 -52.5v-484h-80l-20 58q-100 -64 -195 -64q-77 0 -117.5 41t-40.5 123v377h100v-350q0 -57 26 -79.5t79 -22.5q74 0 148 47v405h45q37 0 57 26t20 86h71q0 -70 -25 -110.5zM238.5 -210.5q-4.5 4.5 -4.5 12.5v84q0 18 17 18h47q17 0 17 -18v-84
q0 -8 -4.5 -12.5t-12.5 -4.5h-47q-8 0 -12.5 4.5z" />
    <glyph glyph-name="uni1EEB" unicode="&#x1eeb;" horiz-adv-x="590" 
d="M590 536.5q-25 -40.5 -68 -52.5v-484h-80l-20 58q-100 -64 -195 -64q-77 0 -117.5 41t-40.5 123v377h100v-350q0 -57 26 -79.5t79 -22.5q74 0 148 47v405h45q37 0 57 26t20 86h71q0 -70 -25 -110.5zM157 769h83l98 -138h-59z" />
    <glyph glyph-name="uni1EED" unicode="&#x1eed;" horiz-adv-x="590" 
d="M590 536.5q-25 -40.5 -68 -52.5v-484h-80l-20 58q-100 -64 -195 -64q-77 0 -117.5 41t-40.5 123v377h100v-350q0 -57 26 -79.5t79 -22.5q74 0 148 47v405h45q37 0 57 26t20 86h71q0 -70 -25 -110.5zM273 646q27 8 39 22t12 31q0 19 -10 29t-34 10q-18 0 -34 -6v41
q20 7 47 7q42 0 63.5 -20.5t21.5 -57.5q0 -72 -105 -102v46z" />
    <glyph glyph-name="uni1EEF" unicode="&#x1eef;" horiz-adv-x="590" 
d="M590 536.5q-25 -40.5 -68 -52.5v-484h-80l-20 58q-100 -64 -195 -64q-77 0 -117.5 41t-40.5 123v377h100v-350q0 -57 26 -79.5t79 -22.5q74 0 148 47v405h45q37 0 57 26t20 86h71q0 -70 -25 -110.5zM148 727.5q28 27.5 68 27.5q23 0 43 -8t45 -23q22 -13 36 -19t29 -6
q25 0 39.5 15.5t15.5 44.5h51q-1 -56 -27 -86.5t-72 -30.5q-22 0 -41.5 8t-44.5 23q-21 13 -36.5 19.5t-30.5 6.5q-23 0 -38 -15t-16 -43h-51q2 59 30 86.5z" />
    <glyph glyph-name="uhungarumlaut" unicode="&#x171;" horiz-adv-x="590" 
d="M109.5 35q-40.5 41 -40.5 123v377h100v-350q0 -57 26 -79.5t79 -22.5q74 0 148 47v405h100v-535h-80l-20 58q-100 -64 -195 -64q-77 0 -117.5 41zM255 769h80l-113 -138h-59zM410 769h79l-113 -138h-59z" />
    <glyph glyph-name="uni0217" unicode="&#x217;" horiz-adv-x="590" 
d="M109.5 35q-40.5 41 -40.5 123v377h100v-350q0 -57 26 -79.5t79 -22.5q74 0 148 47v405h100v-535h-80l-20 58q-100 -64 -195 -64q-77 0 -117.5 41zM384 738q36 -35 36 -110h-47q0 51 -24 74.5t-60 23.5q-88 0 -88 -98h-49q0 76 36.5 110.5t98.5 34.5q61 0 97 -35z" />
    <glyph glyph-name="umacron" unicode="&#x16b;" horiz-adv-x="590" 
d="M109.5 35q-40.5 41 -40.5 123v377h100v-350q0 -57 26 -79.5t79 -22.5q74 0 148 47v405h100v-535h-80l-20 58q-100 -64 -195 -64q-77 0 -117.5 41zM150 724h270v-60h-270v60z" />
    <glyph glyph-name="uni1E7B" unicode="&#x1e7b;" horiz-adv-x="590" 
d="M109.5 35q-40.5 41 -40.5 123v377h100v-350q0 -57 26 -79.5t79 -22.5q74 0 148 47v405h100v-535h-80l-20 58q-100 -64 -195 -64q-77 0 -117.5 41zM150 724h270v-60h-270v60zM152 791q-5 5 -5 12v84q0 18 18 18h46q17 0 17 -18v-84q0 -17 -17 -17h-46q-8 0 -13 5z
M347.5 791q-4.5 5 -4.5 12v84q0 18 17 18h47q17 0 17 -18v-84q0 -8 -4.5 -12.5t-12.5 -4.5h-47q-8 0 -12.5 5z" />
    <glyph glyph-name="uogonek" unicode="&#x173;" horiz-adv-x="590" 
d="M546 -137v-49q-16 -2 -28 -2q-51 0 -78.5 25.5t-27.5 63.5q0 31 18 56.5t54 42.5h-42l-20 58q-100 -64 -195 -64q-77 0 -117.5 41t-40.5 123v377h100v-350q0 -57 26 -79.5t79 -22.5q74 0 148 47v405h100v-535q-59 -33 -59 -77q0 -28 20 -44t55 -16h8z" />
    <glyph glyph-name="uring" unicode="&#x16f;" horiz-adv-x="590" 
d="M109.5 35q-40.5 41 -40.5 123v377h100v-350q0 -57 26 -79.5t79 -22.5q74 0 148 47v405h100v-535h-80l-20 58q-100 -64 -195 -64q-77 0 -117.5 41zM201.5 616q-28.5 25 -28.5 84t28.5 84.5t87.5 25.5q58 0 85.5 -25t27.5 -85t-27.5 -84.5t-85.5 -24.5q-59 0 -87.5 25z
M339 646q15 15 15 54t-15 54.5t-50 15.5q-36 0 -52 -15.5t-16 -54.5t16 -54t52 -15q35 0 50 15z" />
    <glyph glyph-name="utilde" unicode="&#x169;" horiz-adv-x="590" 
d="M109.5 35q-40.5 41 -40.5 123v377h100v-350q0 -57 26 -79.5t79 -22.5q74 0 148 47v405h100v-535h-80l-20 58q-100 -64 -195 -64q-77 0 -117.5 41zM149 727.5q28 27.5 68 27.5q23 0 43 -8t45 -23q22 -13 36 -19t29 -6q25 0 39.5 15.5t15.5 44.5h51q-1 -56 -27 -86.5
t-72 -30.5q-22 0 -41.5 8t-44.5 23q-21 13 -36.5 19.5t-30.5 6.5q-23 0 -38 -15t-16 -43h-51q2 59 30 86.5z" />
    <glyph glyph-name="uni1E79" unicode="&#x1e79;" horiz-adv-x="590" 
d="M109.5 35q-40.5 41 -40.5 123v377h100v-350q0 -57 26 -79.5t79 -22.5q74 0 148 47v405h100v-535h-80l-20 58q-100 -64 -195 -64q-77 0 -117.5 41zM149 727.5q28 27.5 68 27.5q23 0 43 -8t45 -23q22 -13 36 -19t29 -6q25 0 39.5 15.5t15.5 44.5h51q-1 -56 -27 -86.5
t-72 -30.5q-22 0 -41.5 8t-44.5 23q-21 13 -36.5 19.5t-30.5 6.5q-23 0 -38 -15t-16 -43h-51q2 59 30 86.5zM345 924h84l-122 -138h-59z" />
    <glyph glyph-name="v" unicode="v" horiz-adv-x="545" 
d="M17 535h103l151 -442l155 442h102l-201 -535h-116z" />
    <glyph glyph-name="w" unicode="w" horiz-adv-x="806" 
d="M17 535h103l117 -442l126 442h85l126 -442l112 442h103l-154 -535h-111l-120 397l-122 -397h-109z" />
    <glyph glyph-name="wacute" unicode="&#x1e83;" horiz-adv-x="806" 
d="M17 535h103l117 -442l126 442h85l126 -442l112 442h103l-154 -535h-111l-120 397l-122 -397h-109zM469 769h84l-122 -138h-59z" />
    <glyph glyph-name="wcircumflex" unicode="&#x175;" horiz-adv-x="806" 
d="M17 535h103l117 -442l126 442h85l126 -442l112 442h103l-154 -535h-111l-120 397l-122 -397h-109zM376 768h70l107 -137h-60l-84 91l-91 -91h-60z" />
    <glyph glyph-name="wdieresis" unicode="&#x1e85;" horiz-adv-x="806" 
d="M17 535h103l117 -442l126 442h85l126 -442l112 442h103l-154 -535h-111l-120 397l-122 -397h-109zM272 653q-5 5 -5 12v84q0 18 18 18h46q17 0 17 -18v-84q0 -17 -17 -17h-46q-8 0 -13 5zM467.5 653q-4.5 5 -4.5 12v84q0 18 17 18h47q17 0 17 -18v-84q0 -8 -4.5 -12.5
t-12.5 -4.5h-47q-8 0 -12.5 5z" />
    <glyph glyph-name="wgrave" unicode="&#x1e81;" horiz-adv-x="806" 
d="M17 535h103l117 -442l126 442h85l126 -442l112 442h103l-154 -535h-111l-120 397l-122 -397h-109zM277 769h83l98 -138h-59z" />
    <glyph glyph-name="x" unicode="x" horiz-adv-x="518" 
d="M314 262l186 -262h-102l-143 201l-135 -201h-102l186 273l-186 262h102l143 -202l135 201l102 1z" />
    <glyph glyph-name="y" unicode="y" horiz-adv-x="550" 
d="M286 0q-52 1 -91 32t-58 99l-120 404h105l108 -383q22 -68 75 -68l125 451h103l-184 -673l-48 -99h-80z" />
    <glyph glyph-name="yacute" unicode="&#xfd;" horiz-adv-x="550" 
d="M286 0q-52 1 -91 32t-58 99l-120 404h105l108 -383q22 -68 75 -68l125 451h103l-184 -673l-48 -99h-80zM330 769h84l-122 -138h-59z" />
    <glyph glyph-name="ycircumflex" unicode="&#x177;" horiz-adv-x="550" 
d="M286 0q-52 1 -91 32t-58 99l-120 404h105l108 -383q22 -68 75 -68l125 451h103l-184 -673l-48 -99h-80zM237 768h70l107 -137h-60l-84 91l-91 -91h-60z" />
    <glyph glyph-name="ydieresis" unicode="&#xff;" horiz-adv-x="550" 
d="M286 0q-52 1 -91 32t-58 99l-120 404h105l108 -383q22 -68 75 -68l125 451h103l-184 -673l-48 -99h-80zM133 653q-5 5 -5 12v84q0 18 18 18h46q17 0 17 -18v-84q0 -17 -17 -17h-46q-8 0 -13 5zM328.5 653q-4.5 5 -4.5 12v84q0 18 17 18h47q17 0 17 -18v-84
q0 -8 -4.5 -12.5t-12.5 -4.5h-47q-8 0 -12.5 5z" />
    <glyph glyph-name="uni1E8F" unicode="&#x1e8f;" horiz-adv-x="550" 
d="M286 0q-52 1 -91 32t-58 99l-120 404h105l108 -383q22 -68 75 -68l125 451h103l-184 -673l-48 -99h-80zM438.5 -210.5q-4.5 4.5 -4.5 12.5v84q0 18 17 18h47q17 0 17 -18v-84q0 -8 -4.5 -12.5t-12.5 -4.5h-47q-8 0 -12.5 4.5z" />
    <glyph glyph-name="uni1EF5" unicode="&#x1ef5;" horiz-adv-x="550" 
d="M286 0q-52 1 -91 32t-58 99l-120 404h105l108 -383q22 -68 75 -68l125 451h103l-184 -673l-48 -99h-80zM438.5 -210.5q-4.5 4.5 -4.5 12.5v84q0 18 17 18h47q17 0 17 -18v-84q0 -8 -4.5 -12.5t-12.5 -4.5h-47q-8 0 -12.5 4.5z" />
    <glyph glyph-name="ygrave" unicode="&#x1ef3;" horiz-adv-x="550" 
d="M286 0q-52 1 -91 32t-58 99l-120 404h105l108 -383q22 -68 75 -68l125 451h103l-184 -673l-48 -99h-80zM138 769h83l98 -138h-59z" />
    <glyph glyph-name="uni1EF7" unicode="&#x1ef7;" horiz-adv-x="550" 
d="M286 0q-52 1 -91 32t-58 99l-120 404h105l108 -383q22 -68 75 -68l125 451h103l-184 -673l-48 -99h-80zM248 646q27 8 39 22t12 31q0 19 -10 29t-34 10q-18 0 -34 -6v41q20 7 47 7q42 0 63.5 -20.5t21.5 -57.5q0 -72 -105 -102v46z" />
    <glyph glyph-name="uni0233" unicode="&#x233;" horiz-adv-x="550" 
d="M286 0q-52 1 -91 32t-58 99l-120 404h105l108 -383q22 -68 75 -68l125 451h103l-184 -673l-48 -99h-80zM131 724h270v-60h-270v60z" />
    <glyph glyph-name="uni1EF9" unicode="&#x1ef9;" horiz-adv-x="550" 
d="M286 0q-52 1 -91 32t-58 99l-120 404h105l108 -383q22 -68 75 -68l125 451h103l-184 -673l-48 -99h-80zM130 727.5q28 27.5 68 27.5q23 0 43 -8t45 -23q22 -13 36 -19t29 -6q25 0 39.5 15.5t15.5 44.5h51q-1 -56 -27 -86.5t-72 -30.5q-22 0 -41.5 8t-44.5 23
q-21 13 -36.5 19.5t-30.5 6.5q-23 0 -38 -15t-16 -43h-51q2 59 30 86.5z" />
    <glyph glyph-name="z" unicode="z" horiz-adv-x="498" 
d="M49 74l291 379h-299v82h416v-75l-292 -379h292v-81h-408v74z" />
    <glyph glyph-name="zacute" unicode="&#x17a;" horiz-adv-x="498" 
d="M49 74l291 379h-299v82h416v-75l-292 -379h292v-81h-408v74zM300 769h84l-122 -138h-59z" />
    <glyph glyph-name="zcaron" unicode="&#x17e;" horiz-adv-x="498" 
d="M49 74l291 379h-299v82h416v-75l-292 -379h292v-81h-408v74zM95 768h60l84 -90l90 90h61l-118 -137h-70z" />
    <glyph glyph-name="zdotaccent" unicode="&#x17c;" horiz-adv-x="498" 
d="M49 74l291 379h-299v82h416v-75l-292 -379h292v-81h-408v74zM201.5 660q-4.5 5 -4.5 12v84q0 18 17 18h47q17 0 17 -18v-84q0 -8 -4.5 -12.5t-12.5 -4.5h-47q-8 0 -12.5 5z" />
    <glyph glyph-name="uni1E93" unicode="&#x1e93;" horiz-adv-x="498" 
d="M49 74l291 379h-299v82h416v-75l-292 -379h292v-81h-408v74zM199.5 -210.5q-4.5 4.5 -4.5 12.5v84q0 18 17 18h47q17 0 17 -18v-84q0 -8 -4.5 -12.5t-12.5 -4.5h-47q-8 0 -12.5 4.5z" />
    <glyph glyph-name="a.salt" horiz-adv-x="532" 
d="M84.5 272.5q43.5 38.5 127.5 38.5h167v56q0 33 -11 53.5t-39.5 31.5t-81.5 11h-164v59q88 20 198 21q102 0 150.5 -39.5t48.5 -129.5v-305q-49 -31 -120 -53t-135 -22h-25q-75 0 -117 35.5t-42 98.5v42q0 64 43.5 102.5zM307 77.5q40 10.5 72 29.5v154l-140 -6
q-97 -6 -97 -86v-24q0 -42 25 -60t61 -18q39 0 79 10.5z" />
    <glyph glyph-name="aacute.salt" horiz-adv-x="532" 
d="M84.5 272.5q43.5 38.5 127.5 38.5h167v56q0 33 -11 53.5t-39.5 31.5t-81.5 11h-164v59q88 20 198 21q102 0 150.5 -39.5t48.5 -129.5v-305q-49 -31 -120 -53t-135 -22h-25q-75 0 -117 35.5t-42 98.5v42q0 64 43.5 102.5zM307 77.5q40 10.5 72 29.5v154l-140 -6
q-97 -6 -97 -86v-24q0 -42 25 -60t61 -18q39 0 79 10.5zM337 769h84l-122 -138h-59z" />
    <glyph glyph-name="abreve.salt" horiz-adv-x="532" 
d="M84.5 272.5q43.5 38.5 127.5 38.5h167v56q0 33 -11 53.5t-39.5 31.5t-81.5 11h-164v59q88 20 198 21q102 0 150.5 -39.5t48.5 -129.5v-305q-49 -31 -120 -53t-135 -22h-25q-75 0 -117 35.5t-42 98.5v42q0 64 43.5 102.5zM307 77.5q40 10.5 72 29.5v154l-140 -6
q-97 -6 -97 -86v-24q0 -42 25 -60t61 -18q39 0 79 10.5zM172 662q-36 35 -36 110h47q0 -50 24 -74t60 -24q88 0 88 98h49q0 -76 -36.5 -110.5t-98.5 -34.5q-61 0 -97 35z" />
    <glyph glyph-name="uni1EAF.salt" horiz-adv-x="532" 
d="M84.5 272.5q43.5 38.5 127.5 38.5h167v56q0 33 -11 53.5t-39.5 31.5t-81.5 11h-164v59q88 20 198 21q102 0 150.5 -39.5t48.5 -129.5v-305q-49 -31 -120 -53t-135 -22h-25q-75 0 -117 35.5t-42 98.5v42q0 64 43.5 102.5zM307 77.5q40 10.5 72 29.5v154l-140 -6
q-97 -6 -97 -86v-24q0 -42 25 -60t61 -18q39 0 79 10.5zM332 883h84l-122 -138h-59zM207 678.5q23 -17.5 59 -17.5q42 0 65.5 16.5t23.5 55.5h49q0 -60 -36.5 -87.5t-98.5 -27.5q-61 0 -97 28t-36 87h48q0 -37 23 -54.5z" />
    <glyph glyph-name="uni1EB7.salt" horiz-adv-x="532" 
d="M84.5 272.5q43.5 38.5 127.5 38.5h167v56q0 33 -11 53.5t-39.5 31.5t-81.5 11h-164v59q88 20 198 21q102 0 150.5 -39.5t48.5 -129.5v-305q-49 -31 -120 -53t-135 -22h-25q-75 0 -117 35.5t-42 98.5v42q0 64 43.5 102.5zM307 77.5q40 10.5 72 29.5v154l-140 -6
q-97 -6 -97 -86v-24q0 -42 25 -60t61 -18q39 0 79 10.5zM172 662q-36 35 -36 110h47q0 -50 24 -74t60 -24q88 0 88 98h49q0 -76 -36.5 -110.5t-98.5 -34.5q-61 0 -97 35zM230.5 -210.5q-4.5 4.5 -4.5 12.5v84q0 18 17 18h47q17 0 17 -18v-84q0 -8 -4.5 -12.5t-12.5 -4.5h-47
q-8 0 -12.5 4.5z" />
    <glyph glyph-name="uni1EB1.salt" horiz-adv-x="532" 
d="M84.5 272.5q43.5 38.5 127.5 38.5h167v56q0 33 -11 53.5t-39.5 31.5t-81.5 11h-164v59q88 20 198 21q102 0 150.5 -39.5t48.5 -129.5v-305q-49 -31 -120 -53t-135 -22h-25q-75 0 -117 35.5t-42 98.5v42q0 64 43.5 102.5zM307 77.5q40 10.5 72 29.5v154l-140 -6
q-97 -6 -97 -86v-24q0 -42 25 -60t61 -18q39 0 79 10.5zM131 883h83l98 -138h-59zM207 678.5q23 -17.5 59 -17.5q42 0 65.5 16.5t23.5 55.5h49q0 -60 -36.5 -87.5t-98.5 -27.5q-61 0 -97 28t-36 87h48q0 -37 23 -54.5z" />
    <glyph glyph-name="uni1EB3.salt" horiz-adv-x="532" 
d="M84.5 272.5q43.5 38.5 127.5 38.5h167v56q0 33 -11 53.5t-39.5 31.5t-81.5 11h-164v59q88 20 198 21q102 0 150.5 -39.5t48.5 -129.5v-305q-49 -31 -120 -53t-135 -22h-25q-75 0 -117 35.5t-42 98.5v42q0 64 43.5 102.5zM307 77.5q40 10.5 72 29.5v154l-140 -6
q-97 -6 -97 -86v-24q0 -42 25 -60t61 -18q39 0 79 10.5zM251 749q27 8 39 22t12 31q0 19 -10 29t-34 10q-18 0 -34 -6v41q20 7 47 7q42 0 63.5 -20.5t21.5 -57.5q0 -72 -105 -102v46zM172 646q-36 28 -36 87h48q0 -37 23 -54.5t59 -17.5q42 0 65.5 16.5t23.5 55.5h49
q0 -60 -36.5 -87.5t-98.5 -27.5q-61 0 -97 28z" />
    <glyph glyph-name="uni1EB5.salt" horiz-adv-x="532" 
d="M84.5 272.5q43.5 38.5 127.5 38.5h167v56q0 33 -11 53.5t-39.5 31.5t-81.5 11h-164v59q88 20 198 21q102 0 150.5 -39.5t48.5 -129.5v-305q-49 -31 -120 -53t-135 -22h-25q-75 0 -117 35.5t-42 98.5v42q0 64 43.5 102.5zM307 77.5q40 10.5 72 29.5v154l-140 -6
q-97 -6 -97 -86v-24q0 -42 25 -60t61 -18q39 0 79 10.5zM232.5 852q16.5 -5 40.5 -16q19 -8 32 -12.5t27 -4.5q22 0 35.5 10.5t13.5 30.5h51q-3 -48 -23.5 -69.5t-60.5 -21.5q-18 0 -34.5 5t-40.5 15q-22 9 -35 13.5t-26 4.5q-21 0 -34 -10.5t-14 -28.5h-51q5 89 84 89
q19 0 35.5 -5zM207 678.5q23 -17.5 59 -17.5q42 0 65.5 16.5t23.5 55.5h49q0 -60 -36.5 -87.5t-98.5 -27.5q-61 0 -97 28t-36 87h48q0 -37 23 -54.5z" />
    <glyph glyph-name="acircumflex.salt" horiz-adv-x="532" 
d="M84.5 272.5q43.5 38.5 127.5 38.5h167v56q0 33 -11 53.5t-39.5 31.5t-81.5 11h-164v59q88 20 198 21q102 0 150.5 -39.5t48.5 -129.5v-305q-49 -31 -120 -53t-135 -22h-25q-75 0 -117 35.5t-42 98.5v42q0 64 43.5 102.5zM307 77.5q40 10.5 72 29.5v154l-140 -6
q-97 -6 -97 -86v-24q0 -42 25 -60t61 -18q39 0 79 10.5zM244 768h70l107 -137h-60l-84 91l-91 -91h-60z" />
    <glyph glyph-name="uni1EA5.salt" horiz-adv-x="532" 
d="M84.5 272.5q43.5 38.5 127.5 38.5h167v56q0 33 -11 53.5t-39.5 31.5t-81.5 11h-164v59q88 20 198 21q102 0 150.5 -39.5t48.5 -129.5v-305q-49 -31 -120 -53t-135 -22h-25q-75 0 -117 35.5t-42 98.5v42q0 64 43.5 102.5zM307 77.5q40 10.5 72 29.5v154l-140 -6
q-97 -6 -97 -86v-24q0 -42 25 -60t61 -18q39 0 79 10.5zM521 839l-99 -129h-59l74 129h84zM314 733l107 -102h-60l-84 55l-91 -55h-60l118 102h70z" />
    <glyph glyph-name="uni1EAD.salt" horiz-adv-x="532" 
d="M84.5 272.5q43.5 38.5 127.5 38.5h167v56q0 33 -11 53.5t-39.5 31.5t-81.5 11h-164v59q88 20 198 21q102 0 150.5 -39.5t48.5 -129.5v-305q-49 -31 -120 -53t-135 -22h-25q-75 0 -117 35.5t-42 98.5v42q0 64 43.5 102.5zM307 77.5q40 10.5 72 29.5v154l-140 -6
q-97 -6 -97 -86v-24q0 -42 25 -60t61 -18q39 0 79 10.5zM244 768h70l107 -137h-60l-84 91l-91 -91h-60zM230.5 -210.5q-4.5 4.5 -4.5 12.5v84q0 18 17 18h47q17 0 17 -18v-84q0 -8 -4.5 -12.5t-12.5 -4.5h-47q-8 0 -12.5 4.5z" />
    <glyph glyph-name="uni1EA7.salt" horiz-adv-x="532" 
d="M84.5 272.5q43.5 38.5 127.5 38.5h167v56q0 33 -11 53.5t-39.5 31.5t-81.5 11h-164v59q88 20 198 21q102 0 150.5 -39.5t48.5 -129.5v-305q-49 -31 -120 -53t-135 -22h-25q-75 0 -117 35.5t-42 98.5v42q0 64 43.5 102.5zM307 77.5q40 10.5 72 29.5v154l-140 -6
q-97 -6 -97 -86v-24q0 -42 25 -60t61 -18q39 0 79 10.5zM115 839l75 -129h-59l-100 129h84zM314 733l107 -102h-60l-84 55l-91 -55h-60l118 102h70z" />
    <glyph glyph-name="uni1EA9.salt" horiz-adv-x="532" 
d="M84.5 272.5q43.5 38.5 127.5 38.5h167v56q0 33 -11 53.5t-39.5 31.5t-81.5 11h-164v59q88 20 198 21q102 0 150.5 -39.5t48.5 -129.5v-305q-49 -31 -120 -53t-135 -22h-25q-75 0 -117 35.5t-42 98.5v42q0 64 43.5 102.5zM307 77.5q40 10.5 72 29.5v154l-140 -6
q-97 -6 -97 -86v-24q0 -42 25 -60t61 -18q39 0 79 10.5zM386 729q44 13 44 45q0 17 -8.5 25t-27.5 8q-11 0 -35 -6v36q24 8 48 8q36 0 54.5 -17.5t18.5 -47.5q0 -70 -94 -96v45zM244 733h70l107 -102h-60l-84 55l-91 -55h-60z" />
    <glyph glyph-name="uni1EAB.salt" horiz-adv-x="532" 
d="M84.5 272.5q43.5 38.5 127.5 38.5h167v56q0 33 -11 53.5t-39.5 31.5t-81.5 11h-164v59q88 20 198 21q102 0 150.5 -39.5t48.5 -129.5v-305q-49 -31 -120 -53t-135 -22h-25q-75 0 -117 35.5t-42 98.5v42q0 64 43.5 102.5zM307 77.5q40 10.5 72 29.5v154l-140 -6
q-97 -6 -97 -86v-24q0 -42 25 -60t61 -18q39 0 79 10.5zM232.5 861q16.5 -5 40.5 -16q19 -8 32 -12.5t27 -4.5q22 0 35.5 10.5t13.5 30.5h51q-3 -48 -23.5 -69.5t-60.5 -21.5q-29 0 -77 20q-22 9 -36.5 13.5t-27.5 4.5q-18 0 -30 -10.5t-13 -28.5h-51q5 89 84 89
q19 0 35.5 -5zM421 631h-60l-84 55l-91 -55h-60l118 102h70z" />
    <glyph glyph-name="uni0201.salt" horiz-adv-x="532" 
d="M84.5 272.5q43.5 38.5 127.5 38.5h167v56q0 33 -11 53.5t-39.5 31.5t-81.5 11h-164v59q88 20 198 21q102 0 150.5 -39.5t48.5 -129.5v-305q-49 -31 -120 -53t-135 -22h-25q-75 0 -117 35.5t-42 98.5v42q0 64 43.5 102.5zM307 77.5q40 10.5 72 29.5v154l-140 -6
q-97 -6 -97 -86v-24q0 -42 25 -60t61 -18q39 0 79 10.5zM65 769h84l97 -138h-59zM221 769h84l97 -138h-59z" />
    <glyph glyph-name="adieresis.salt" horiz-adv-x="532" 
d="M84.5 272.5q43.5 38.5 127.5 38.5h167v56q0 33 -11 53.5t-39.5 31.5t-81.5 11h-164v59q88 20 198 21q102 0 150.5 -39.5t48.5 -129.5v-305q-49 -31 -120 -53t-135 -22h-25q-75 0 -117 35.5t-42 98.5v42q0 64 43.5 102.5zM307 77.5q40 10.5 72 29.5v154l-140 -6
q-97 -6 -97 -86v-24q0 -42 25 -60t61 -18q39 0 79 10.5zM140 653q-5 5 -5 12v84q0 18 18 18h46q17 0 17 -18v-84q0 -17 -17 -17h-46q-8 0 -13 5zM335.5 653q-4.5 5 -4.5 12v84q0 18 17 18h47q17 0 17 -18v-84q0 -8 -4.5 -12.5t-12.5 -4.5h-47q-8 0 -12.5 5z" />
    <glyph glyph-name="uni1EA1.salt" horiz-adv-x="532" 
d="M84.5 272.5q43.5 38.5 127.5 38.5h167v56q0 33 -11 53.5t-39.5 31.5t-81.5 11h-164v59q88 20 198 21q102 0 150.5 -39.5t48.5 -129.5v-305q-49 -31 -120 -53t-135 -22h-25q-75 0 -117 35.5t-42 98.5v42q0 64 43.5 102.5zM307 77.5q40 10.5 72 29.5v154l-140 -6
q-97 -6 -97 -86v-24q0 -42 25 -60t61 -18q39 0 79 10.5zM230.5 -210.5q-4.5 4.5 -4.5 12.5v84q0 18 17 18h47q17 0 17 -18v-84q0 -8 -4.5 -12.5t-12.5 -4.5h-47q-8 0 -12.5 4.5z" />
    <glyph glyph-name="agrave.salt" horiz-adv-x="532" 
d="M84.5 272.5q43.5 38.5 127.5 38.5h167v56q0 33 -11 53.5t-39.5 31.5t-81.5 11h-164v59q88 20 198 21q102 0 150.5 -39.5t48.5 -129.5v-305q-49 -31 -120 -53t-135 -22h-25q-75 0 -117 35.5t-42 98.5v42q0 64 43.5 102.5zM307 77.5q40 10.5 72 29.5v154l-140 -6
q-97 -6 -97 -86v-24q0 -42 25 -60t61 -18q39 0 79 10.5zM145 769h83l98 -138h-59z" />
    <glyph glyph-name="uni1EA3.salt" horiz-adv-x="532" 
d="M84.5 272.5q43.5 38.5 127.5 38.5h167v56q0 33 -11 53.5t-39.5 31.5t-81.5 11h-164v59q88 20 198 21q102 0 150.5 -39.5t48.5 -129.5v-305q-49 -31 -120 -53t-135 -22h-25q-75 0 -117 35.5t-42 98.5v42q0 64 43.5 102.5zM307 77.5q40 10.5 72 29.5v154l-140 -6
q-97 -6 -97 -86v-24q0 -42 25 -60t61 -18q39 0 79 10.5zM255 646q27 8 39 22t12 31q0 19 -10 29t-34 10q-18 0 -34 -6v41q20 7 47 7q42 0 63.5 -20.5t21.5 -57.5q0 -72 -105 -102v46z" />
    <glyph glyph-name="uni0203.salt" horiz-adv-x="532" 
d="M84.5 272.5q43.5 38.5 127.5 38.5h167v56q0 33 -11 53.5t-39.5 31.5t-81.5 11h-164v59q88 20 198 21q102 0 150.5 -39.5t48.5 -129.5v-305q-49 -31 -120 -53t-135 -22h-25q-75 0 -117 35.5t-42 98.5v42q0 64 43.5 102.5zM307 77.5q40 10.5 72 29.5v154l-140 -6
q-97 -6 -97 -86v-24q0 -42 25 -60t61 -18q39 0 79 10.5zM372 738q36 -35 36 -110h-47q0 51 -24 74.5t-60 23.5q-88 0 -88 -98h-49q0 76 36.5 110.5t98.5 34.5q61 0 97 -35z" />
    <glyph glyph-name="amacron.salt" horiz-adv-x="532" 
d="M84.5 272.5q43.5 38.5 127.5 38.5h167v56q0 33 -11 53.5t-39.5 31.5t-81.5 11h-164v59q88 20 198 21q102 0 150.5 -39.5t48.5 -129.5v-305q-49 -31 -120 -53t-135 -22h-25q-75 0 -117 35.5t-42 98.5v42q0 64 43.5 102.5zM307 77.5q40 10.5 72 29.5v154l-140 -6
q-97 -6 -97 -86v-24q0 -42 25 -60t61 -18q39 0 79 10.5zM138 724h270v-60h-270v60z" />
    <glyph glyph-name="aogonek.salt" horiz-adv-x="532" 
d="M233 -77q0 -28 20 -44t55 -16h8v-49q-16 -2 -28 -2q-51 0 -78.5 25.5t-27.5 63.5q0 29 15.5 53t45.5 40h-18h-25q-75 0 -117 35.5t-42 98.5v42q0 64 43.5 102.5t127.5 38.5h167v56q0 33 -11 53.5t-39.5 31.5t-81.5 11h-164v59q88 20 198 21q102 0 150.5 -39.5
t48.5 -129.5v-305q-35 -23 -85.5 -41.5t-102.5 -27.5q-59 -33 -59 -77zM307 77.5q40 10.5 72 29.5v154l-140 -6q-97 -6 -97 -86v-24q0 -42 25 -60t61 -18q39 0 79 10.5z" />
    <glyph glyph-name="aring.salt" horiz-adv-x="532" 
d="M84.5 272.5q43.5 38.5 127.5 38.5h167v56q0 33 -11 53.5t-39.5 31.5t-81.5 11h-164v59q88 20 198 21q102 0 150.5 -39.5t48.5 -129.5v-305q-49 -31 -120 -53t-135 -22h-25q-75 0 -117 35.5t-42 98.5v42q0 64 43.5 102.5zM307 77.5q40 10.5 72 29.5v154l-140 -6
q-97 -6 -97 -86v-24q0 -42 25 -60t61 -18q39 0 79 10.5zM189.5 616q-28.5 25 -28.5 84t28.5 84.5t87.5 25.5q58 0 85.5 -25t27.5 -85t-27.5 -84.5t-85.5 -24.5q-59 0 -87.5 25zM327 646q15 15 15 54t-15 54.5t-50 15.5q-36 0 -52 -15.5t-16 -54.5t16 -54t52 -15q35 0 50 15z
" />
    <glyph glyph-name="aringacute.salt" horiz-adv-x="532" 
d="M189.5 616q-28.5 25 -28.5 84q0 53 23 78.5t70 30.5l84 120h84l-108 -122q39 -7 57.5 -32.5t18.5 -74.5q0 -60 -27.5 -84.5t-85.5 -24.5q-59 0 -87.5 25zM225 754.5q-16 -15.5 -16 -54.5t16 -54t52 -15q35 0 50 15t15 54t-15 54.5t-50 15.5q-36 0 -52 -15.5zM431.5 503.5
q48.5 -39.5 48.5 -129.5v-305q-49 -31 -120 -53t-135 -22h-25q-75 0 -117 35.5t-42 98.5v42q0 64 43.5 102.5t127.5 38.5h167v56q0 33 -11 53.5t-39.5 31.5t-81.5 11h-164v59q88 20 198 21q102 0 150.5 -39.5zM379 261l-140 -6q-97 -6 -97 -86v-24q0 -42 25 -60t61 -18
q39 0 79 10.5t72 29.5v154z" />
    <glyph glyph-name="atilde.salt" horiz-adv-x="532" 
d="M84.5 272.5q43.5 38.5 127.5 38.5h167v56q0 33 -11 53.5t-39.5 31.5t-81.5 11h-164v59q88 20 198 21q102 0 150.5 -39.5t48.5 -129.5v-305q-49 -31 -120 -53t-135 -22h-25q-75 0 -117 35.5t-42 98.5v42q0 64 43.5 102.5zM307 77.5q40 10.5 72 29.5v154l-140 -6
q-97 -6 -97 -86v-24q0 -42 25 -60t61 -18q39 0 79 10.5zM137 727.5q28 27.5 68 27.5q23 0 43 -8t45 -23q22 -13 36 -19t29 -6q25 0 39.5 15.5t15.5 44.5h51q-1 -56 -27 -86.5t-72 -30.5q-22 0 -41.5 8t-44.5 23q-21 13 -36.5 19.5t-30.5 6.5q-23 0 -38 -15t-16 -43h-51
q2 59 30 86.5z" />
    <glyph glyph-name="b.salt" horiz-adv-x="571" 
d="M64 18v745h101v-261q38 17 87 28t85 11q104 0 143.5 -69.5t39.5 -211.5q0 -135 -53.5 -202t-163.5 -67q-142 0 -239 27zM302 75q118 0 118 189q0 104 -27 149t-87 45q-35 0 -65.5 -6t-75.5 -20v-355q43 -2 137 -2z" />
    <glyph glyph-name="uni1E03.salt" horiz-adv-x="571" 
d="M64 18v745h101v-261q38 17 87 28t85 11q104 0 143.5 -69.5t39.5 -211.5q0 -135 -53.5 -202t-163.5 -67q-142 0 -239 27zM302 75q118 0 118 189q0 104 -27 149t-87 45q-35 0 -65.5 -6t-75.5 -20v-355q43 -2 137 -2zM77.5 860q-4.5 5 -4.5 12v84q0 18 17 18h47q17 0 17 -18
v-84q0 -8 -4.5 -12.5t-12.5 -4.5h-47q-8 0 -12.5 5z" />
    <glyph glyph-name="d.salt" horiz-adv-x="570" 
d="M102 56.5q-51 65.5 -51 203.5q0 94 16.5 155t58.5 93.5t117 32.5q33 0 80.5 -8.5t82.5 -22.5v253h100v-732q-41 -17 -105 -28.5t-138 -11.5q-110 0 -161 65.5zM355 78q43 4 51 5v355q-41 13 -70.5 19t-63.5 6q-68 0 -94.5 -46t-26.5 -153q0 -97 27 -143.5t90 -46.5
q44 0 87 4z" />
    <glyph glyph-name="dcaron.salt" horiz-adv-x="570" 
d="M102 56.5q-51 65.5 -51 203.5q0 94 16.5 155t58.5 93.5t117 32.5q33 0 80.5 -8.5t82.5 -22.5v253h100v-732q-41 -17 -105 -28.5t-138 -11.5q-110 0 -161 65.5zM355 78q43 4 51 5v355q-41 13 -70.5 19t-63.5 6q-68 0 -94.5 -46t-26.5 -153q0 -97 27 -143.5t90 -46.5
q44 0 87 4zM568 722v61h92v-61l-7 -140h-78z" />
    <glyph glyph-name="dcroat.salt" horiz-adv-x="570" 
d="M572 625h-66v-594q-41 -17 -105 -28.5t-138 -11.5q-110 0 -161 65.5t-51 203.5q0 94 16.5 155t58.5 93.5t117 32.5q33 0 80.5 -8.5t82.5 -22.5v115h-132v42h132v96h100v-96h66v-42zM406 438q-41 13 -70.5 19t-63.5 6q-68 0 -94.5 -46t-26.5 -153q0 -97 27 -143.5
t90 -46.5q44 0 87 4t51 5v355z" />
    <glyph glyph-name="uni1E0B.salt" horiz-adv-x="570" 
d="M102 56.5q-51 65.5 -51 203.5q0 94 16.5 155t58.5 93.5t117 32.5q33 0 80.5 -8.5t82.5 -22.5v253h100v-732q-41 -17 -105 -28.5t-138 -11.5q-110 0 -161 65.5zM355 78q43 4 51 5v355q-41 13 -70.5 19t-63.5 6q-68 0 -94.5 -46t-26.5 -153q0 -97 27 -143.5t90 -46.5
q44 0 87 4zM418.5 860q-4.5 5 -4.5 12v84q0 18 17 18h47q17 0 17 -18v-84q0 -8 -4.5 -12.5t-12.5 -4.5h-47q-8 0 -12.5 5z" />
    <glyph glyph-name="uni1E0D.salt" horiz-adv-x="570" 
d="M102 56.5q-51 65.5 -51 203.5q0 94 16.5 155t58.5 93.5t117 32.5q33 0 80.5 -8.5t82.5 -22.5v253h100v-732q-41 -17 -105 -28.5t-138 -11.5q-110 0 -161 65.5zM355 78q43 4 51 5v355q-41 13 -70.5 19t-63.5 6q-68 0 -94.5 -46t-26.5 -153q0 -97 27 -143.5t90 -46.5
q44 0 87 4zM241.5 -210.5q-4.5 4.5 -4.5 12.5v84q0 18 17 18h47q17 0 17 -18v-84q0 -8 -4.5 -12.5t-12.5 -4.5h-47q-8 0 -12.5 4.5z" />
    <glyph glyph-name="uni1E0F.salt" horiz-adv-x="570" 
d="M102 56.5q-51 65.5 -51 203.5q0 94 16.5 155t58.5 93.5t117 32.5q33 0 80.5 -8.5t82.5 -22.5v253h100v-732q-41 -17 -105 -28.5t-138 -11.5q-110 0 -161 65.5zM355 78q43 4 51 5v355q-41 13 -70.5 19t-63.5 6q-68 0 -94.5 -46t-26.5 -153q0 -97 27 -143.5t90 -46.5
q44 0 87 4zM144 -136h270v-60h-270v60z" />
    <glyph glyph-name="f.salt" horiz-adv-x="351" 
d="M109.5 725q36.5 44 124.5 44q50 0 105 -11v-72h-87q-46 0 -62.5 -22t-16.5 -71v-58h152v-82h-152v-453h-100v588q0 93 36.5 137z" />
    <glyph glyph-name="uni1E1F.salt" horiz-adv-x="351" 
d="M109.5 725q36.5 44 124.5 44q50 0 105 -11v-72h-87q-46 0 -62.5 -22t-16.5 -71v-58h152v-82h-152v-453h-100v588q0 93 36.5 137zM187.5 874q-4.5 5 -4.5 12v84q0 18 17 18h47q17 0 17 -18v-84q0 -8 -4.5 -12.5t-12.5 -4.5h-47q-8 0 -12.5 5z" />
    <glyph glyph-name="g.salt" horiz-adv-x="573" 
d="M506 526v-520q0 -131 -57.5 -190t-184.5 -59q-94 0 -184 21v59h162q89 0 126 34.5t37 111.5v64q-34 -25 -77 -39t-86 -14q-101 0 -145.5 64.5t-44.5 207.5q0 95 20.5 155t69.5 90.5t133 30.5q98 0 231 -16zM339 86q32 10 66 30v346q-60 3 -127 3q-69 0 -97 -48t-28 -147
q0 -72 12 -114t37.5 -61t69.5 -19q35 0 67 10z" />
    <glyph glyph-name="gbreve.salt" horiz-adv-x="573" 
d="M506 526v-520q0 -131 -57.5 -190t-184.5 -59q-94 0 -184 21v59h162q89 0 126 34.5t37 111.5v64q-34 -25 -77 -39t-86 -14q-101 0 -145.5 64.5t-44.5 207.5q0 95 20.5 155t69.5 90.5t133 30.5q98 0 231 -16zM339 86q32 10 66 30v346q-60 3 -127 3q-69 0 -97 -48t-28 -147
q0 -72 12 -114t37.5 -61t69.5 -19q35 0 67 10zM195 662q-36 35 -36 110h47q0 -50 24 -74t60 -24q88 0 88 98h49q0 -76 -36.5 -110.5t-98.5 -34.5q-61 0 -97 35z" />
    <glyph glyph-name="gcaron.salt" horiz-adv-x="573" 
d="M506 526v-520q0 -131 -57.5 -190t-184.5 -59q-94 0 -184 21v59h162q89 0 126 34.5t37 111.5v64q-34 -25 -77 -39t-86 -14q-101 0 -145.5 64.5t-44.5 207.5q0 95 20.5 155t69.5 90.5t133 30.5q98 0 231 -16zM339 86q32 10 66 30v346q-60 3 -127 3q-69 0 -97 -48t-28 -147
q0 -72 12 -114t37.5 -61t69.5 -19q35 0 67 10zM155 768h60l84 -90l90 90h61l-118 -137h-70z" />
    <glyph glyph-name="gcircumflex.salt" horiz-adv-x="573" 
d="M506 526v-520q0 -131 -57.5 -190t-184.5 -59q-94 0 -184 21v59h162q89 0 126 34.5t37 111.5v64q-34 -25 -77 -39t-86 -14q-101 0 -145.5 64.5t-44.5 207.5q0 95 20.5 155t69.5 90.5t133 30.5q98 0 231 -16zM339 86q32 10 66 30v346q-60 3 -127 3q-69 0 -97 -48t-28 -147
q0 -72 12 -114t37.5 -61t69.5 -19q35 0 67 10zM267 768h70l107 -137h-60l-84 91l-91 -91h-60z" />
    <glyph glyph-name="gcommaaccent.salt" horiz-adv-x="573" 
d="M506 526v-520q0 -131 -57.5 -190t-184.5 -59q-94 0 -184 21v59h162q89 0 126 34.5t37 111.5v64q-34 -25 -77 -39t-86 -14q-101 0 -145.5 64.5t-44.5 207.5q0 95 20.5 155t69.5 90.5t133 30.5q98 0 231 -16zM339 86q32 10 66 30v346q-60 3 -127 3q-69 0 -97 -48t-28 -147
q0 -72 12 -114t37.5 -61t69.5 -19q35 0 67 10zM250.5 699q9.5 30 34 44t68.5 14h42v-41l-29 -6q-25 -5 -38 -12t-19 -26t-6 -56h-62q0 53 9.5 83z" />
    <glyph glyph-name="gdotaccent.salt" horiz-adv-x="573" 
d="M506 526v-520q0 -131 -57.5 -190t-184.5 -59q-94 0 -184 21v59h162q89 0 126 34.5t37 111.5v64q-34 -25 -77 -39t-86 -14q-101 0 -145.5 64.5t-44.5 207.5q0 95 20.5 155t69.5 90.5t133 30.5q98 0 231 -16zM339 86q32 10 66 30v346q-60 3 -127 3q-69 0 -97 -48t-28 -147
q0 -72 12 -114t37.5 -61t69.5 -19q35 0 67 10zM261.5 660q-4.5 5 -4.5 12v84q0 18 17 18h47q17 0 17 -18v-84q0 -8 -4.5 -12.5t-12.5 -4.5h-47q-8 0 -12.5 5z" />
    <glyph glyph-name="uni1E21.salt" horiz-adv-x="573" 
d="M506 526v-520q0 -131 -57.5 -190t-184.5 -59q-94 0 -184 21v59h162q89 0 126 34.5t37 111.5v64q-34 -25 -77 -39t-86 -14q-101 0 -145.5 64.5t-44.5 207.5q0 95 20.5 155t69.5 90.5t133 30.5q98 0 231 -16zM339 86q32 10 66 30v346q-60 3 -127 3q-69 0 -97 -48t-28 -147
q0 -72 12 -114t37.5 -61t69.5 -19q35 0 67 10zM161 724h270v-60h-270v60z" />
    <glyph glyph-name="m.salt" horiz-adv-x="902" 
d="M195.5 531q52.5 13 122.5 13q53 0 89 -15.5t67 -47.5q40 28 98 45.5t114 17.5q89 0 129.5 -50.5t40.5 -136.5v-357h-100v348q0 47 -27 76t-72 29q-43 0 -85 -14t-68 -34q9 -22 9 -58v-347h-100v348q0 47 -27.5 76t-73.5 29q-36 0 -69 -7.5t-73 -24.5v-421h-100v485
q73 33 125.5 46z" />
    <glyph glyph-name="uni1E41.salt" horiz-adv-x="902" 
d="M195.5 531q52.5 13 122.5 13q53 0 89 -15.5t67 -47.5q40 28 98 45.5t114 17.5q89 0 129.5 -50.5t40.5 -136.5v-357h-100v348q0 47 -27 76t-72 29q-43 0 -85 -14t-68 -34q9 -22 9 -58v-347h-100v348q0 47 -27.5 76t-73.5 29q-36 0 -69 -7.5t-73 -24.5v-421h-100v485
q73 33 125.5 46zM435.5 660q-4.5 5 -4.5 12v84q0 18 17 18h47q17 0 17 -18v-84q0 -8 -4.5 -12.5t-12.5 -4.5h-47q-8 0 -12.5 5z" />
    <glyph glyph-name="uni1E43.salt" horiz-adv-x="902" 
d="M195.5 531q52.5 13 122.5 13q53 0 89 -15.5t67 -47.5q40 28 98 45.5t114 17.5q89 0 129.5 -50.5t40.5 -136.5v-357h-100v348q0 47 -27 76t-72 29q-43 0 -85 -14t-68 -34q9 -22 9 -58v-347h-100v348q0 47 -27.5 76t-73.5 29q-36 0 -69 -7.5t-73 -24.5v-421h-100v485
q73 33 125.5 46zM424.5 -210.5q-4.5 4.5 -4.5 12.5v84q0 18 17 18h47q17 0 17 -18v-84q0 -8 -4.5 -12.5t-12.5 -4.5h-47q-8 0 -12.5 4.5z" />
    <glyph glyph-name="n.salt" horiz-adv-x="586" 
d="M319 544q103 0 147 -50.5t44 -133.5v-360h-100v348q0 48 -27 76.5t-74 28.5q-73 0 -139 -32v-421h-100v485q116 59 249 59z" />
    <glyph glyph-name="nacute.salt" horiz-adv-x="586" 
d="M319 544q103 0 147 -50.5t44 -133.5v-360h-100v348q0 48 -27 76.5t-74 28.5q-73 0 -139 -32v-421h-100v485q116 59 249 59zM348 769h84l-122 -138h-59z" />
    <glyph glyph-name="ncaron.salt" horiz-adv-x="586" 
d="M319 544q103 0 147 -50.5t44 -133.5v-360h-100v348q0 48 -27 76.5t-74 28.5q-73 0 -139 -32v-421h-100v485q116 59 249 59zM143 768h60l84 -90l90 90h61l-118 -137h-70z" />
    <glyph glyph-name="ncommaaccent.salt" horiz-adv-x="586" 
d="M319 544q103 0 147 -50.5t44 -133.5v-360h-100v348q0 48 -27 76.5t-74 28.5q-73 0 -139 -32v-421h-100v485q116 59 249 59zM203 -165l29 5q25 5 38 12.5t19 26t6 55.5h62q0 -53 -9.5 -82.5t-34 -43.5t-68.5 -14h-42v41z" />
    <glyph glyph-name="uni1E45.salt" horiz-adv-x="586" 
d="M319 544q103 0 147 -50.5t44 -133.5v-360h-100v348q0 48 -27 76.5t-74 28.5q-73 0 -139 -32v-421h-100v485q116 59 249 59zM247.5 -210.5q-4.5 4.5 -4.5 12.5v84q0 18 17 18h47q17 0 17 -18v-84q0 -8 -4.5 -12.5t-12.5 -4.5h-47q-8 0 -12.5 4.5z" />
    <glyph glyph-name="uni1E47.salt" horiz-adv-x="586" 
d="M319 544q103 0 147 -50.5t44 -133.5v-360h-100v348q0 48 -27 76.5t-74 28.5q-73 0 -139 -32v-421h-100v485q116 59 249 59zM247.5 -210.5q-4.5 4.5 -4.5 12.5v84q0 18 17 18h47q17 0 17 -18v-84q0 -8 -4.5 -12.5t-12.5 -4.5h-47q-8 0 -12.5 4.5z" />
    <glyph glyph-name="uni1E49.salt" horiz-adv-x="586" 
d="M319 544q103 0 147 -50.5t44 -133.5v-360h-100v348q0 48 -27 76.5t-74 28.5q-73 0 -139 -32v-421h-100v485q116 59 249 59zM150 -136h270v-60h-270v60z" />
    <glyph glyph-name="ntilde.salt" horiz-adv-x="586" 
d="M319 544q103 0 147 -50.5t44 -133.5v-360h-100v348q0 48 -27 76.5t-74 28.5q-73 0 -139 -32v-421h-100v485q116 59 249 59zM148 727.5q28 27.5 68 27.5q23 0 43 -8t45 -23q22 -13 36 -19t29 -6q25 0 39.5 15.5t15.5 44.5h51q-1 -56 -27 -86.5t-72 -30.5q-22 0 -41.5 8
t-44.5 23q-21 13 -36.5 19.5t-30.5 6.5q-23 0 -38 -15t-16 -43h-51q2 59 30 86.5z" />
    <glyph glyph-name="p.salt" horiz-adv-x="571" 
d="M64 509q92 36 248 36q112 0 160 -68t48 -206q0 -135 -39.5 -206t-146.5 -71q-36 0 -84.5 9t-84.5 24v-282h-101v764zM392 124q28 45 28 143q0 96 -27.5 145.5t-88.5 49.5q-53 0 -139 -4v-355q43 -13 73.5 -18.5t64.5 -5.5q61 0 89 45z" />
    <glyph glyph-name="uni1E57.salt" horiz-adv-x="571" 
d="M64 509q92 36 248 36q112 0 160 -68t48 -206q0 -135 -39.5 -206t-146.5 -71q-36 0 -84.5 9t-84.5 24v-282h-101v764zM392 124q28 45 28 143q0 96 -27.5 145.5t-88.5 49.5q-53 0 -139 -4v-355q43 -13 73.5 -18.5t64.5 -5.5q61 0 89 45zM241.5 660q-4.5 5 -4.5 12v84
q0 18 17 18h47q17 0 17 -18v-84q0 -8 -4.5 -12.5t-12.5 -4.5h-47q-8 0 -12.5 5z" />
    <glyph glyph-name="r.salt" horiz-adv-x="380" 
d="M292 541q41 0 65 -5v-93q-27 5 -53 5q-76 0 -134 -26v-422h-100v485q102 56 222 56z" />
    <glyph glyph-name="racute.salt" horiz-adv-x="380" 
d="M292 541q41 0 65 -5v-93q-27 5 -53 5q-76 0 -134 -26v-422h-100v485q102 56 222 56zM290 769h84l-122 -138h-59z" />
    <glyph glyph-name="rcaron.salt" horiz-adv-x="380" 
d="M292 541q41 0 65 -5v-93q-27 5 -53 5q-76 0 -134 -26v-422h-100v485q102 56 222 56zM85 768h60l84 -90l90 90h61l-118 -137h-70z" />
    <glyph glyph-name="rcommaaccent.salt" horiz-adv-x="380" 
d="M292 541q41 0 65 -5v-93q-27 5 -53 5q-76 0 -134 -26v-422h-100v485q102 56 222 56zM36 -165l29 5q25 5 38 12.5t19 26t6 55.5h62q0 -53 -9.5 -82.5t-34 -43.5t-68.5 -14h-42v41z" />
    <glyph glyph-name="uni0211.salt" horiz-adv-x="380" 
d="M292 541q41 0 65 -5v-93q-27 5 -53 5q-76 0 -134 -26v-422h-100v485q102 56 222 56zM19 769h84l97 -138h-59zM175 769h84l97 -138h-59z" />
    <glyph glyph-name="uni1E5B.salt" horiz-adv-x="380" 
d="M292 541q41 0 65 -5v-93q-27 5 -53 5q-76 0 -134 -26v-422h-100v485q102 56 222 56zM80.5 -210.5q-4.5 4.5 -4.5 12.5v84q0 18 17 18h47q17 0 17 -18v-84q0 -8 -4.5 -12.5t-12.5 -4.5h-47q-8 0 -12.5 4.5z" />
    <glyph glyph-name="uni0213.salt" horiz-adv-x="380" 
d="M292 541q41 0 65 -5v-93q-27 5 -53 5q-76 0 -134 -26v-422h-100v485q102 56 222 56zM325 738q36 -35 36 -110h-47q0 51 -24 74.5t-60 23.5q-88 0 -88 -98h-49q0 76 36.5 110.5t98.5 34.5q61 0 97 -35z" />
    <glyph glyph-name="uni1E5F.salt" horiz-adv-x="380" 
d="M292 541q41 0 65 -5v-93q-27 5 -53 5q-76 0 -134 -26v-422h-100v485q102 56 222 56zM-17 -136h270v-60h-270v60z" />
    <glyph glyph-name="t.salt" horiz-adv-x="340" 
d="M164 685v-150h145v-82h-145v-274q0 -54 20.5 -74.5t51.5 -24.5l67 -6v-74h-81q-83 0 -121 41t-37 137l4 275v232h96z" />
    <glyph glyph-name="tbar.salt" horiz-adv-x="340" 
d="M164 453v-142h134v-42h-134v-90q0 -54 20.5 -74.5t51.5 -24.5l67 -6v-74h-81q-83 0 -121 41t-37 137l1 91h-51v42h52l2 142v232h96v-150h145v-82h-145z" />
    <glyph glyph-name="tcaron.salt" horiz-adv-x="340" 
d="M164 685v-150h145v-82h-145v-274q0 -54 20.5 -74.5t51.5 -24.5l67 -6v-74h-81q-83 0 -121 41t-37 137l4 275v232h96zM226 722v61h92v-61l-7 -140h-78z" />
    <glyph glyph-name="uni0163.salt" horiz-adv-x="340" 
d="M164 453v-274q0 -54 20.5 -74.5t51.5 -24.5l67 -6v-74h-81h-16l-35 -53q71 -6 71 -65q0 -36 -25.5 -55t-73.5 -19h-38v41l21 2q51 6 51 42q0 38 -60 42l46 71q-52 13 -76 54t-23 118l4 275v232h96v-150h145v-82h-145z" />
    </font>
</defs>
</svg>
