<?xml version="1.0" standalone="no"?>
<!DOCTYPE svg PUBLIC "-//W3C//DTD SVG 1.1//EN" "http://www.w3.org/Graphics/SVG/1.1/DTD/svg11.dtd" >
<svg xmlns="http://www.w3.org/2000/svg" xmlns:xlink="http://www.w3.org/1999/xlink" version="1.1">
<metadata>
Created by FontForge 20170924 at Mon Jul 24 21:10:42 2017
 By www-data
Copyright 2017 The Exo Project Authors (https://github.com/NDISCOVER/Exo-1.0)
</metadata>
<defs>
<font id="Exo-ExtraLight" horiz-adv-x="609" >
  <font-face 
    font-family="Exo ExtraLight"
    font-weight="275"
    font-stretch="normal"
    units-per-em="1000"
    panose-1="0 0 3 0 0 0 0 0 0 0"
    ascent="800"
    descent="-200"
    x-height="532"
    cap-height="733"
    bbox="-498 -270 1326 1091"
    underline-thickness="50"
    underline-position="-100"
    unicode-range="U+000D-FB04"
  />
<missing-glyph horiz-adv-x="652" 
d="M593 533v-534h-534v534h534zM563 503h-474v-474h474v474zM326 242l-144 -144l-23 23l144 144l-144 144l23 23l144 -144l144 144l23 -23l-144 -144l144 -144l-23 -23z" />
    <glyph glyph-name="f_f" unicode="ff" horiz-adv-x="754" 
d="M550 704.5q-21 -29.5 -21 -95.5v-77h181v-35h-181v-497h-41v497h-337v-497h-41v497h-85v26l85 9v79q0 80 29.5 119t108.5 39q32 0 53.5 -3t47.5 -10v-29q-54 7 -94 7q-62 0 -83 -30t-21 -96v-76h337v76q0 81 30 121t110 40q39 0 65.5 -3t32.5 -4v-28h-94q-61 0 -82 -29.5
z" />
    <glyph glyph-name="f_f_i" unicode="ffi" horiz-adv-x="967" 
d="M881 0h-41v497h-312v-497h-41v497h-336v-497h-41v497h-85v26l85 9v79q0 80 29.5 119t108.5 39q32 0 53.5 -3t47.5 -10v-29q-54 7 -94 7q-62 0 -83 -30t-21 -96v-76h336v79q0 80 29.5 119t108.5 39q32 0 53.5 -3t47.5 -10v-29q-54 7 -94 7q-62 0 -83 -30t-21 -96v-76h353
v-532zM886 717v-67q0 -13 -12 -13h-25q-13 0 -13 13v67q0 13 13 13h25q12 0 12 -13z" />
    <glyph glyph-name="f_f_l" unicode="ffl" horiz-adv-x="1037" 
d="M1027 29v-29h-62q-63 0 -94 37.5t-31 132.5v557q-102 7 -178 7q-54 0 -83.5 -14t-40 -41t-10.5 -71v-76h181v-35h-181v-497h-41v497h-336v-497h-41v497h-85v26l85 9v79q0 80 29.5 119t108.5 39q32 0 53.5 -3t47.5 -10v-29q-54 7 -94 7q-62 0 -83 -30t-21 -96v-76h336v77
q0 81 37.5 120.5t134.5 39.5q64 0 167 -11q28 -4 55 -6v-579q0 -54 10 -83t28 -40.5t48 -14.5z" />
    <glyph glyph-name="fi" unicode="fi" horiz-adv-x="591" 
d="M504 0h-41v497h-312v-497h-41v497h-85v26l85 9v79q0 80 29.5 119t108.5 39q32 0 53.5 -3t47.5 -10v-29q-54 7 -94 7q-62 0 -83 -30t-21 -96v-76h353v-532zM509 717v-67q0 -13 -12 -13h-25q-13 0 -13 13v67q0 13 13 13h25q12 0 12 -13z" />
    <glyph glyph-name="fl" unicode="fl" horiz-adv-x="660" 
d="M650 29v-29h-62q-63 0 -94 37.5t-31 132.5v557q-102 7 -178 7q-54 0 -83.5 -14t-40 -41t-10.5 -71v-76h181v-35h-181v-497h-41v497h-85v26l85 9v77q0 81 37.5 120.5t134.5 39.5q64 0 167 -11q28 -4 55 -6v-579q0 -54 10 -83t28 -40.5t48 -14.5z" />
    <glyph glyph-name=".notdef" horiz-adv-x="652" 
d="M593 533v-534h-534v534h534zM563 503h-474v-474h474v474zM326 242l-144 -144l-23 23l144 144l-144 144l23 23l144 -144l144 144l23 -23l-144 -144l144 -144l-23 -23z" />
    <glyph glyph-name="NULL" horiz-adv-x="0" 
 />
    <glyph glyph-name="nonmarkingreturn" unicode="&#xd;" horiz-adv-x="277" 
 />
    <glyph glyph-name="space" unicode=" " horiz-adv-x="277" 
 />
    <glyph glyph-name="A" unicode="A" horiz-adv-x="669" 
d="M307 733h55l263 -733h-44l-87 241h-320l-87 -241h-43zM481 279l-147 416l-150 -416h297z" />
    <glyph glyph-name="Aacute" unicode="&#xc1;" horiz-adv-x="669" 
d="M307 733h55l263 -733h-44l-87 241h-320l-87 -241h-43zM481 279l-147 416l-150 -416h297zM441 925h39l-131 -134h-24z" />
    <glyph glyph-name="Abreve" unicode="&#x102;" horiz-adv-x="669" 
d="M307 733h55l263 -733h-44l-87 241h-320l-87 -241h-43zM481 279l-147 416l-150 -416h297zM237 823.5q-36 31.5 -36 104.5h22q0 -59 28.5 -87t72.5 -28q52 0 80.5 26.5t28.5 88.5h22q0 -74 -36.5 -105t-91.5 -31q-54 0 -90 31.5z" />
    <glyph glyph-name="uni1EAE" unicode="&#x1eae;" horiz-adv-x="669" 
d="M307 733h55l263 -733h-44l-87 241h-320l-87 -241h-43zM481 279l-147 416l-150 -416h297zM422 1028h39l-131 -134h-24zM250.5 831q28.5 -21 73.5 -21q109 0 109 86h22q0 -58 -36 -82t-92 -24q-55 0 -90.5 25t-35.5 81h21q0 -44 28.5 -65z" />
    <glyph glyph-name="uni1EB6" unicode="&#x1eb6;" horiz-adv-x="669" 
d="M307 733h55l263 -733h-44l-87 241h-320l-87 -241h-43zM481 279l-147 416l-150 -416h297zM237 823.5q-36 31.5 -36 104.5h22q0 -59 28.5 -87t72.5 -28q52 0 80.5 26.5t28.5 88.5h22q0 -74 -36.5 -105t-91.5 -31q-54 0 -90 31.5zM313.5 -197q-3.5 4 -3.5 9v67q0 13 13 13
h19q13 0 13 -13v-67q0 -6 -4 -9.5t-9 -3.5h-19q-6 0 -9.5 4z" />
    <glyph glyph-name="uni1EB0" unicode="&#x1eb0;" horiz-adv-x="669" 
d="M307 733h55l263 -733h-44l-87 241h-320l-87 -241h-43zM481 279l-147 416l-150 -416h297zM205 1028h39l116 -134h-24zM250.5 831q28.5 -21 73.5 -21q109 0 109 86h22q0 -58 -36 -82t-92 -24q-55 0 -90.5 25t-35.5 81h21q0 -44 28.5 -65z" />
    <glyph glyph-name="uni1EB2" unicode="&#x1eb2;" horiz-adv-x="669" 
d="M307 733h55l263 -733h-44l-87 241h-320l-87 -241h-43zM481 279l-147 416l-150 -416h297zM313 874q34 11 50 29t16 40q0 27 -13.5 40.5t-43.5 13.5q-19 0 -37 -6v20q17 6 42 6q38 0 57 -20t19 -54q0 -29 -22.5 -53t-67.5 -37v21zM236.5 815q-35.5 25 -35.5 81h21
q0 -44 28.5 -65t73.5 -21q109 0 109 86h22q0 -58 -36 -82t-92 -24q-55 0 -90.5 25z" />
    <glyph glyph-name="uni1EB4" unicode="&#x1eb4;" horiz-adv-x="669" 
d="M307 733h55l263 -733h-44l-87 241h-320l-87 -241h-43zM481 279l-147 416l-150 -416h297zM292.5 997.5q18.5 -6.5 44.5 -19.5q25 -12 40.5 -18t32.5 -6q27 0 44.5 13t17.5 37h22q-1 -34 -22.5 -53.5t-59.5 -19.5q-19 0 -36 6t-42 18q-23 12 -41 18.5t-38 6.5
q-25 0 -42 -12.5t-17 -37.5h-22q1 39 24 56.5t55 17.5q21 0 39.5 -6.5zM250.5 831q28.5 -21 73.5 -21q109 0 109 86h22q0 -58 -36 -82t-92 -24q-55 0 -90.5 25t-35.5 81h21q0 -44 28.5 -65z" />
    <glyph glyph-name="Acircumflex" unicode="&#xc2;" horiz-adv-x="669" 
d="M307 733h55l263 -733h-44l-87 241h-320l-87 -241h-43zM481 279l-147 416l-150 -416h297zM321 923h31l117 -132h-27l-106 110l-117 -110h-27z" />
    <glyph glyph-name="uni1EA4" unicode="&#x1ea4;" horiz-adv-x="669" 
d="M307 733h55l263 -733h-44l-87 241h-320l-87 -241h-43zM481 279l-147 416l-150 -416h297zM562 995l-126 -132h-24l111 132h39zM352 884l117 -93h-28l-105 71l-117 -71h-27l129 93h31z" />
    <glyph glyph-name="uni1EAC" unicode="&#x1eac;" horiz-adv-x="669" 
d="M307 733h55l263 -733h-44l-87 241h-320l-87 -241h-43zM481 279l-147 416l-150 -416h297zM321 923h31l117 -132h-27l-106 110l-117 -110h-27zM313.5 -197q-3.5 4 -3.5 9v67q0 13 13 13h19q13 0 13 -13v-67q0 -6 -4 -9.5t-9 -3.5h-19q-6 0 -9.5 4z" />
    <glyph glyph-name="uni1EA6" unicode="&#x1ea6;" horiz-adv-x="669" 
d="M307 733h55l263 -733h-44l-87 241h-320l-87 -241h-43zM481 279l-147 416l-150 -416h297zM144 995l111 -132h-24l-126 132h39zM352 884l117 -93h-28l-105 71l-117 -71h-27l129 93h31z" />
    <glyph glyph-name="uni1EA8" unicode="&#x1ea8;" horiz-adv-x="669" 
d="M307 733h55l263 -733h-44l-87 241h-320l-87 -241h-43zM481 279l-147 416l-150 -416h297zM435 862q60 19 60 60q0 44 -51 44q-19 0 -37 -6v19q20 7 42 7q35 0 52 -17t17 -47q0 -26 -21 -48t-62 -33v21zM321 884h31l117 -93h-28l-105 71l-117 -71h-27z" />
    <glyph glyph-name="uni1EAA" unicode="&#x1eaa;" horiz-adv-x="669" 
d="M307 733h55l263 -733h-44l-87 241h-320l-87 -241h-43zM481 279l-147 416l-150 -416h297zM292.5 999.5q18.5 -6.5 44.5 -19.5q25 -12 40.5 -18t32.5 -6q27 0 44.5 13t17.5 37h22q-1 -34 -22.5 -53.5t-59.5 -19.5q-20 0 -38 6.5t-41 18.5q-24 12 -42 18t-37 6
q-25 0 -41.5 -12.5t-16.5 -37.5h-22q1 39 24 56.5t55 17.5q21 0 39.5 -6.5zM469 791h-28l-105 71l-117 -71h-27l129 93h31z" />
    <glyph glyph-name="uni0200" unicode="&#x200;" horiz-adv-x="669" 
d="M307 733h55l263 -733h-44l-87 241h-320l-87 -241h-43zM481 279l-147 416l-150 -416h297zM143 925h39l116 -134h-24zM271 925h39l116 -134h-24z" />
    <glyph glyph-name="Adieresis" unicode="&#xc4;" horiz-adv-x="669" 
d="M307 733h55l263 -733h-44l-87 241h-320l-87 -241h-43zM481 279l-147 416l-150 -416h297zM182.5 826q-3.5 4 -3.5 9v67q0 13 13 13h19q13 0 13 -13v-67q0 -13 -13 -13h-19q-6 0 -9.5 4zM431 826q-4 4 -4 9v67q0 13 13 13h19q13 0 13 -13v-67q0 -13 -13 -13h-19q-5 0 -9 4z
" />
    <glyph glyph-name="uni1EA0" unicode="&#x1ea0;" horiz-adv-x="669" 
d="M307 733h55l263 -733h-44l-87 241h-320l-87 -241h-43zM481 279l-147 416l-150 -416h297zM313.5 -197q-3.5 4 -3.5 9v67q0 13 13 13h19q13 0 13 -13v-67q0 -6 -4 -9.5t-9 -3.5h-19q-6 0 -9.5 4z" />
    <glyph glyph-name="Agrave" unicode="&#xc0;" horiz-adv-x="669" 
d="M307 733h55l263 -733h-44l-87 241h-320l-87 -241h-43zM481 279l-147 416l-150 -416h297zM190 925h39l116 -134h-24z" />
    <glyph glyph-name="uni1EA2" unicode="&#x1ea2;" horiz-adv-x="669" 
d="M307 733h55l263 -733h-44l-87 241h-320l-87 -241h-43zM481 279l-147 416l-150 -416h297zM316 791q34 11 50 29t16 40q0 27 -13.5 40.5t-43.5 13.5q-19 0 -37 -6v20q17 6 42 6q38 0 57 -20t19 -54q0 -29 -22.5 -53t-67.5 -37v21z" />
    <glyph glyph-name="uni0202" unicode="&#x202;" horiz-adv-x="669" 
d="M307 733h55l263 -733h-44l-87 241h-320l-87 -241h-43zM481 279l-147 416l-150 -416h297zM420 896.5q36 -31.5 36 -104.5h-22q0 59 -28.5 87t-72.5 28q-52 0 -80.5 -26.5t-28.5 -88.5h-22q0 74 36.5 105t91.5 31q54 0 90 -31.5z" />
    <glyph glyph-name="Amacron" unicode="&#x100;" horiz-adv-x="669" 
d="M307 733h55l263 -733h-44l-87 241h-320l-87 -241h-43zM481 279l-147 416l-150 -416h297zM199 870h256v-25h-256v25z" />
    <glyph glyph-name="Aogonek" unicode="&#x104;" horiz-adv-x="669" 
d="M307 733h55l263 -733h-44l-87 241h-320l-87 -241h-43zM481 279l-147 416l-150 -416h297zM530 -159.5q-29 23.5 -29 63.5q0 28 20 53t60 43h18q-35 -18 -53.5 -40.5t-18.5 -47.5q0 -35 24.5 -53.5t71.5 -18.5h6v-22q-8 -1 -23 -1q-47 0 -76 23.5z" />
    <glyph glyph-name="Aring" unicode="&#xc5;" horiz-adv-x="669" 
d="M307 733h55l263 -733h-44l-87 241h-320l-87 -241h-43zM481 279l-147 416l-150 -416h297zM255 784.5q-26 23.5 -26 80.5t26 80.5t79 23.5t78 -23.5t25 -80.5t-25 -80.5t-78 -23.5t-79 23.5zM395.5 800q18.5 18 18.5 65t-18.5 65t-61.5 18t-62.5 -18.5t-19.5 -64.5
q0 -47 19.5 -65t62.5 -18t61.5 18z" />
    <glyph glyph-name="Aringacute" unicode="&#x1fa;" horiz-adv-x="669" 
d="M255 784.5q-26 23.5 -26 80.5t26 80.5t79 23.5h1l106 122h39l-121 -123q40 -5 59 -29t19 -74q0 -57 -25 -80.5t-78 -23.5t-79 23.5zM271.5 929.5q-19.5 -18.5 -19.5 -64.5q0 -47 19.5 -65t62.5 -18t61.5 18t18.5 65t-18.5 65t-61.5 18t-62.5 -18.5zM625 0h-44l-87 241
h-320l-87 -241h-43l263 733h55zM481 279l-147 416l-150 -416h297z" />
    <glyph glyph-name="Atilde" unicode="&#xc3;" horiz-adv-x="669" 
d="M307 733h55l263 -733h-44l-87 241h-320l-87 -241h-43zM481 279l-147 416l-150 -416h297zM198.5 888.5q26.5 22.5 62.5 22.5q22 0 41 -9.5t47 -27.5q27 -17 41.5 -24.5t31.5 -7.5q31 0 51 18.5t20 51.5h22q-1 -43 -25.5 -69t-67.5 -26q-20 0 -38 9t-45 26q-27 18 -43.5 26
t-34.5 8q-29 0 -48 -17t-20 -52h-22q1 49 27.5 71.5z" />
    <glyph glyph-name="AE" unicode="&#xc6;" horiz-adv-x="954" 
d="M521 26q-34 29 -35 94v120h-250l-150 -240h-42l387 630q31 51 69.5 77t98.5 26q63 0 138.5 -2t103.5 -3l48 -2v-31h-285q-43 0 -61 -17t-18 -55v-241l323 -3v-30l-323 -4v-211q0 -52 26.5 -75.5t80.5 -23.5h257v-31l-47 -2q-25 -1 -94.5 -3t-127.5 -2q-65 0 -99 29z
M486 276v368l-230 -368h230z" />
    <glyph glyph-name="AEacute" unicode="&#x1fc;" horiz-adv-x="954" 
d="M521 26q-34 29 -35 94v120h-250l-150 -240h-42l387 630q31 51 69.5 77t98.5 26q63 0 138.5 -2t103.5 -3l48 -2v-31h-285q-43 0 -61 -17t-18 -55v-241l323 -3v-30l-323 -4v-211q0 -52 26.5 -75.5t80.5 -23.5h257v-31l-47 -2q-25 -1 -94.5 -3t-127.5 -2q-65 0 -99 29z
M486 276v368l-230 -368h230zM636 925h39l-131 -134h-24z" />
    <glyph glyph-name="B" unicode="B" horiz-adv-x="590" 
d="M85 733h252q178 0 178 -185q0 -66 -31 -110.5t-74 -56.5q49 -11 90.5 -53.5t41.5 -123.5q0 -113 -50.5 -158.5t-146.5 -45.5h-260v733zM343 396q59 0 95.5 43t36.5 116q0 141 -138 141h-211v-300h217zM344 37q77 0 117.5 36.5t40.5 135.5q0 70 -45.5 111.5t-112.5 41.5
h-218v-325h218z" />
    <glyph glyph-name="uni1E02" unicode="&#x1e02;" horiz-adv-x="590" 
d="M85 733h252q178 0 178 -185q0 -66 -31 -110.5t-74 -56.5q49 -11 90.5 -53.5t41.5 -123.5q0 -113 -50.5 -158.5t-146.5 -45.5h-260v733zM343 396q59 0 95.5 43t36.5 116q0 141 -138 141h-211v-300h217zM344 37q77 0 117.5 36.5t40.5 135.5q0 70 -45.5 111.5t-112.5 41.5
h-218v-325h218zM273.5 833q-3.5 4 -3.5 9v67q0 13 13 13h19q13 0 13 -13v-67q0 -6 -4 -9.5t-9 -3.5h-19q-6 0 -9.5 4z" />
    <glyph glyph-name="C" unicode="C" horiz-adv-x="578" 
d="M171.5 23q-53.5 29 -79 109.5t-25.5 236.5q0 146 26.5 226t82.5 112t153 32q36 0 95 -6t106 -16v-29q-30 5 -88 9.5t-111 4.5q-85 0 -132 -27.5t-69 -99.5t-22 -207q0 -142 21.5 -214t67 -97.5t130.5 -25.5q121 0 203 14v-30q-48 -10 -106 -15.5t-102 -5.5
q-97 0 -150.5 29z" />
    <glyph glyph-name="Cacute" unicode="&#x106;" horiz-adv-x="578" 
d="M171.5 23q-53.5 29 -79 109.5t-25.5 236.5q0 146 26.5 226t82.5 112t153 32q36 0 95 -6t106 -16v-29q-30 5 -88 9.5t-111 4.5q-85 0 -132 -27.5t-69 -99.5t-22 -207q0 -142 21.5 -214t67 -97.5t130.5 -25.5q121 0 203 14v-30q-48 -10 -106 -15.5t-102 -5.5
q-97 0 -150.5 29zM435 925h39l-131 -134h-24z" />
    <glyph glyph-name="Ccaron" unicode="&#x10c;" horiz-adv-x="578" 
d="M171.5 23q-53.5 29 -79 109.5t-25.5 236.5q0 146 26.5 226t82.5 112t153 32q36 0 95 -6t106 -16v-29q-30 5 -88 9.5t-111 4.5q-85 0 -132 -27.5t-69 -99.5t-22 -207q0 -142 21.5 -214t67 -97.5t130.5 -25.5q121 0 203 14v-30q-48 -10 -106 -15.5t-102 -5.5
q-97 0 -150.5 29zM195 923h27l106 -110l117 110h27l-129 -132h-31z" />
    <glyph glyph-name="Ccedilla" unicode="&#xc7;" horiz-adv-x="578" 
d="M199 674.5q-47 -27.5 -69 -99.5t-22 -207q0 -142 21.5 -214t67 -97.5t130.5 -25.5q121 0 203 14v-30q-44 -9 -96.5 -14.5t-95.5 -6.5l-34 -51q40 -1 57.5 -17t17.5 -45q0 -31 -23.5 -48.5t-66.5 -17.5h-24v17l25 2q31 2 47 14.5t16 36.5q0 22 -16.5 34.5t-60.5 13.5
l41 61q-94 1 -147 30.5t-78 110t-25 234.5q0 146 26.5 226t82.5 112t153 32q36 0 95 -6t106 -16v-29q-30 5 -88 9.5t-111 4.5q-85 0 -132 -27.5z" />
    <glyph glyph-name="uni1E08" unicode="&#x1e08;" horiz-adv-x="578" 
d="M343 791h-24l116 134h39zM199 674.5q-47 -27.5 -69 -99.5t-22 -207q0 -142 21.5 -214t67 -97.5t130.5 -25.5q121 0 203 14v-30q-44 -9 -96.5 -14.5t-95.5 -6.5l-34 -51q40 -1 57.5 -17t17.5 -45q0 -31 -23.5 -48.5t-66.5 -17.5h-24v17l25 2q31 2 47 14.5t16 36.5
q0 22 -16.5 34.5t-60.5 13.5l41 61q-94 1 -147 30.5t-78 110t-25 234.5q0 146 26.5 226t82.5 112t153 32q36 0 95 -6t106 -16v-29q-30 5 -88 9.5t-111 4.5q-85 0 -132 -27.5z" />
    <glyph glyph-name="Ccircumflex" unicode="&#x108;" horiz-adv-x="578" 
d="M171.5 23q-53.5 29 -79 109.5t-25.5 236.5q0 146 26.5 226t82.5 112t153 32q36 0 95 -6t106 -16v-29q-30 5 -88 9.5t-111 4.5q-85 0 -132 -27.5t-69 -99.5t-22 -207q0 -142 21.5 -214t67 -97.5t130.5 -25.5q121 0 203 14v-30q-48 -10 -106 -15.5t-102 -5.5
q-97 0 -150.5 29zM315 923h31l117 -132h-27l-106 110l-117 -110h-27z" />
    <glyph glyph-name="Cdotaccent" unicode="&#x10a;" horiz-adv-x="578" 
d="M171.5 23q-53.5 29 -79 109.5t-25.5 236.5q0 146 26.5 226t82.5 112t153 32q36 0 95 -6t106 -16v-29q-30 5 -88 9.5t-111 4.5q-85 0 -132 -27.5t-69 -99.5t-22 -207q0 -142 21.5 -214t67 -97.5t130.5 -25.5q121 0 203 14v-30q-48 -10 -106 -15.5t-102 -5.5
q-97 0 -150.5 29zM308.5 833q-3.5 4 -3.5 9v67q0 13 13 13h19q13 0 13 -13v-67q0 -6 -4 -9.5t-9 -3.5h-19q-6 0 -9.5 4z" />
    <glyph glyph-name="D" unicode="D" horiz-adv-x="663" 
d="M85 733h278q122 0 177.5 -90t55.5 -276q0 -169 -60.5 -268t-172.5 -99h-278v733zM361 37q96 0 145 89t49 241q0 117 -20 189t-62.5 106t-111.5 34h-235v-659h235z" />
    <glyph glyph-name="Eth" unicode="&#xd0;" horiz-adv-x="663" 
d="M540.5 643q55.5 -90 55.5 -276q0 -169 -60.5 -268t-172.5 -99h-278v356h-69v32h69v345h278q122 0 177.5 -90zM506 126q49 89 49 241q0 117 -20 189t-62.5 106t-111.5 34h-235v-308h196v-32h-196v-319h235q96 0 145 89z" />
    <glyph glyph-name="Dcaron" unicode="&#x10e;" horiz-adv-x="663" 
d="M85 733h278q122 0 177.5 -90t55.5 -276q0 -169 -60.5 -268t-172.5 -99h-278v733zM361 37q96 0 145 89t49 241q0 117 -20 189t-62.5 106t-111.5 34h-235v-659h235zM179 923h27l106 -110l117 110h27l-129 -132h-31z" />
    <glyph glyph-name="Dcroat" unicode="&#x110;" horiz-adv-x="663" 
d="M540.5 643q55.5 -90 55.5 -276q0 -169 -60.5 -268t-172.5 -99h-278v356h-69v32h69v345h278q122 0 177.5 -90zM506 126q49 89 49 241q0 117 -20 189t-62.5 106t-111.5 34h-235v-308h196v-32h-196v-319h235q96 0 145 89z" />
    <glyph glyph-name="uni1E0A" unicode="&#x1e0a;" horiz-adv-x="663" 
d="M85 733h278q122 0 177.5 -90t55.5 -276q0 -169 -60.5 -268t-172.5 -99h-278v733zM361 37q96 0 145 89t49 241q0 117 -20 189t-62.5 106t-111.5 34h-235v-659h235zM292.5 833q-3.5 4 -3.5 9v67q0 13 13 13h19q13 0 13 -13v-67q0 -6 -4 -9.5t-9 -3.5h-19q-6 0 -9.5 4z" />
    <glyph glyph-name="uni1E0C" unicode="&#x1e0c;" horiz-adv-x="663" 
d="M85 733h278q122 0 177.5 -90t55.5 -276q0 -169 -60.5 -268t-172.5 -99h-278v733zM361 37q96 0 145 89t49 241q0 117 -20 189t-62.5 106t-111.5 34h-235v-659h235zM287.5 -197q-3.5 4 -3.5 9v67q0 13 13 13h19q13 0 13 -13v-67q0 -6 -4 -9.5t-9 -3.5h-19q-6 0 -9.5 4z" />
    <glyph glyph-name="uni1E0E" unicode="&#x1e0e;" horiz-adv-x="663" 
d="M85 733h278q122 0 177.5 -90t55.5 -276q0 -169 -60.5 -268t-172.5 -99h-278v733zM361 37q96 0 145 89t49 241q0 117 -20 189t-62.5 106t-111.5 34h-235v-659h235zM174 -150h256v-25h-256v25z" />
    <glyph glyph-name="E" unicode="E" horiz-adv-x="582" 
d="M123 24q-38 27 -38 104v470q0 70 37 102.5t92 32.5q68 0 145 -2t105 -3l53 -2v-31h-294q-46 0 -71.5 -24.5t-25.5 -76.5v-212l350 -3v-30l-350 -4v-211q0 -60 28 -79.5t77 -19.5h286v-31l-49 -2q-30 -1 -108 -3t-138 -2q-61 0 -99 27z" />
    <glyph glyph-name="Eacute" unicode="&#xc9;" horiz-adv-x="582" 
d="M123 24q-38 27 -38 104v470q0 70 37 102.5t92 32.5q68 0 145 -2t105 -3l53 -2v-31h-294q-46 0 -71.5 -24.5t-25.5 -76.5v-212l350 -3v-30l-350 -4v-211q0 -60 28 -79.5t77 -19.5h286v-31l-49 -2q-30 -1 -108 -3t-138 -2q-61 0 -99 27zM417 925h39l-131 -134h-24z" />
    <glyph glyph-name="Ebreve" unicode="&#x114;" horiz-adv-x="582" 
d="M123 24q-38 27 -38 104v470q0 70 37 102.5t92 32.5q68 0 145 -2t105 -3l53 -2v-31h-294q-46 0 -71.5 -24.5t-25.5 -76.5v-212l350 -3v-30l-350 -4v-211q0 -60 28 -79.5t77 -19.5h286v-31l-49 -2q-30 -1 -108 -3t-138 -2q-61 0 -99 27zM213 823.5q-36 31.5 -36 104.5h22
q0 -59 28.5 -87t72.5 -28q52 0 80.5 26.5t28.5 88.5h22q0 -74 -36.5 -105t-91.5 -31q-54 0 -90 31.5z" />
    <glyph glyph-name="Ecaron" unicode="&#x11a;" horiz-adv-x="582" 
d="M123 24q-38 27 -38 104v470q0 70 37 102.5t92 32.5q68 0 145 -2t105 -3l53 -2v-31h-294q-46 0 -71.5 -24.5t-25.5 -76.5v-212l350 -3v-30l-350 -4v-211q0 -60 28 -79.5t77 -19.5h286v-31l-49 -2q-30 -1 -108 -3t-138 -2q-61 0 -99 27zM177 923h27l106 -110l117 110h27
l-129 -132h-31z" />
    <glyph glyph-name="uni1E1C" unicode="&#x1e1c;" horiz-adv-x="582" 
d="M213 823.5q-36 31.5 -36 104.5h22q0 -59 28.5 -87t72.5 -28q52 0 80.5 26.5t28.5 88.5h22q0 -74 -36.5 -105t-91.5 -31q-54 0 -90 31.5zM151.5 670.5q-25.5 -24.5 -25.5 -76.5v-212l350 -3v-30l-350 -4v-211q0 -60 28 -79.5t77 -19.5h286v-31q-123 -4 -194 -5l-37 -56
q40 -1 57.5 -17t17.5 -45q0 -31 -23.5 -48.5t-66.5 -17.5h-24v17l25 2q31 2 47 14.5t16 36.5q0 22 -16.5 34.5t-60.5 13.5l43 65l-79 -1q-61 0 -99 27t-38 104v470q0 70 37 102.5t92 32.5q68 0 145 -2t105 -3l53 -2v-31h-294q-46 0 -71.5 -24.5z" />
    <glyph glyph-name="Ecircumflex" unicode="&#xca;" horiz-adv-x="582" 
d="M123 24q-38 27 -38 104v470q0 70 37 102.5t92 32.5q68 0 145 -2t105 -3l53 -2v-31h-294q-46 0 -71.5 -24.5t-25.5 -76.5v-212l350 -3v-30l-350 -4v-211q0 -60 28 -79.5t77 -19.5h286v-31l-49 -2q-30 -1 -108 -3t-138 -2q-61 0 -99 27zM297 923h31l117 -132h-27l-106 110
l-117 -110h-27z" />
    <glyph glyph-name="uni1EBE" unicode="&#x1ebe;" horiz-adv-x="582" 
d="M123 24q-38 27 -38 104v470q0 70 37 102.5t92 32.5q68 0 145 -2t105 -3l53 -2v-31h-294q-46 0 -71.5 -24.5t-25.5 -76.5v-212l350 -3v-30l-350 -4v-211q0 -60 28 -79.5t77 -19.5h286v-31l-49 -2q-30 -1 -108 -3t-138 -2q-61 0 -99 27zM538 995l-126 -132h-24l111 132h39z
M328 884l117 -93h-28l-105 71l-117 -71h-27l129 93h31z" />
    <glyph glyph-name="uni1EC6" unicode="&#x1ec6;" horiz-adv-x="582" 
d="M123 24q-38 27 -38 104v470q0 70 37 102.5t92 32.5q68 0 145 -2t105 -3l53 -2v-31h-294q-46 0 -71.5 -24.5t-25.5 -76.5v-212l350 -3v-30l-350 -4v-211q0 -60 28 -79.5t77 -19.5h286v-31l-49 -2q-30 -1 -108 -3t-138 -2q-61 0 -99 27zM297 923h31l117 -132h-27l-106 110
l-117 -110h-27zM292.5 -197q-3.5 4 -3.5 9v67q0 13 13 13h19q13 0 13 -13v-67q0 -6 -4 -9.5t-9 -3.5h-19q-6 0 -9.5 4z" />
    <glyph glyph-name="uni1EC0" unicode="&#x1ec0;" horiz-adv-x="582" 
d="M123 24q-38 27 -38 104v470q0 70 37 102.5t92 32.5q68 0 145 -2t105 -3l53 -2v-31h-294q-46 0 -71.5 -24.5t-25.5 -76.5v-212l350 -3v-30l-350 -4v-211q0 -60 28 -79.5t77 -19.5h286v-31l-49 -2q-30 -1 -108 -3t-138 -2q-61 0 -99 27zM120 995l111 -132h-24l-126 132h39z
M328 884l117 -93h-28l-105 71l-117 -71h-27l129 93h31z" />
    <glyph glyph-name="uni1EC2" unicode="&#x1ec2;" horiz-adv-x="582" 
d="M123 24q-38 27 -38 104v470q0 70 37 102.5t92 32.5q68 0 145 -2t105 -3l53 -2v-31h-294q-46 0 -71.5 -24.5t-25.5 -76.5v-212l350 -3v-30l-350 -4v-211q0 -60 28 -79.5t77 -19.5h286v-31l-49 -2q-30 -1 -108 -3t-138 -2q-61 0 -99 27zM411 862q60 19 60 60q0 44 -51 44
q-19 0 -37 -6v19q20 7 42 7q35 0 52 -17t17 -47q0 -26 -21 -48t-62 -33v21zM297 884h31l117 -93h-28l-105 71l-117 -71h-27z" />
    <glyph glyph-name="uni1EC4" unicode="&#x1ec4;" horiz-adv-x="582" 
d="M123 24q-38 27 -38 104v470q0 70 37 102.5t92 32.5q68 0 145 -2t105 -3l53 -2v-31h-294q-46 0 -71.5 -24.5t-25.5 -76.5v-212l350 -3v-30l-350 -4v-211q0 -60 28 -79.5t77 -19.5h286v-31l-49 -2q-30 -1 -108 -3t-138 -2q-61 0 -99 27zM268.5 999.5q18.5 -6.5 44.5 -19.5
q25 -12 40.5 -18t32.5 -6q27 0 44.5 13t17.5 37h22q-1 -34 -22.5 -53.5t-59.5 -19.5q-20 0 -38 6.5t-41 18.5q-24 12 -42 18t-37 6q-25 0 -41.5 -12.5t-16.5 -37.5h-22q1 39 24 56.5t55 17.5q21 0 39.5 -6.5zM445 791h-28l-105 71l-117 -71h-27l129 93h31z" />
    <glyph glyph-name="uni0204" unicode="&#x204;" horiz-adv-x="582" 
d="M123 24q-38 27 -38 104v470q0 70 37 102.5t92 32.5q68 0 145 -2t105 -3l53 -2v-31h-294q-46 0 -71.5 -24.5t-25.5 -76.5v-212l350 -3v-30l-350 -4v-211q0 -60 28 -79.5t77 -19.5h286v-31l-49 -2q-30 -1 -108 -3t-138 -2q-61 0 -99 27zM120 925h39l116 -134h-24zM248 925
h39l116 -134h-24z" />
    <glyph glyph-name="Edieresis" unicode="&#xcb;" horiz-adv-x="582" 
d="M123 24q-38 27 -38 104v470q0 70 37 102.5t92 32.5q68 0 145 -2t105 -3l53 -2v-31h-294q-46 0 -71.5 -24.5t-25.5 -76.5v-212l350 -3v-30l-350 -4v-211q0 -60 28 -79.5t77 -19.5h286v-31l-49 -2q-30 -1 -108 -3t-138 -2q-61 0 -99 27zM158.5 826q-3.5 4 -3.5 9v67
q0 13 13 13h19q13 0 13 -13v-67q0 -13 -13 -13h-19q-6 0 -9.5 4zM407 826q-4 4 -4 9v67q0 13 13 13h19q13 0 13 -13v-67q0 -13 -13 -13h-19q-5 0 -9 4z" />
    <glyph glyph-name="Edotaccent" unicode="&#x116;" horiz-adv-x="582" 
d="M123 24q-38 27 -38 104v470q0 70 37 102.5t92 32.5q68 0 145 -2t105 -3l53 -2v-31h-294q-46 0 -71.5 -24.5t-25.5 -76.5v-212l350 -3v-30l-350 -4v-211q0 -60 28 -79.5t77 -19.5h286v-31l-49 -2q-30 -1 -108 -3t-138 -2q-61 0 -99 27zM290.5 833q-3.5 4 -3.5 9v67
q0 13 13 13h19q13 0 13 -13v-67q0 -6 -4 -9.5t-9 -3.5h-19q-6 0 -9.5 4z" />
    <glyph glyph-name="uni1EB8" unicode="&#x1eb8;" horiz-adv-x="582" 
d="M123 24q-38 27 -38 104v470q0 70 37 102.5t92 32.5q68 0 145 -2t105 -3l53 -2v-31h-294q-46 0 -71.5 -24.5t-25.5 -76.5v-212l350 -3v-30l-350 -4v-211q0 -60 28 -79.5t77 -19.5h286v-31l-49 -2q-30 -1 -108 -3t-138 -2q-61 0 -99 27zM292.5 -197q-3.5 4 -3.5 9v67
q0 13 13 13h19q13 0 13 -13v-67q0 -6 -4 -9.5t-9 -3.5h-19q-6 0 -9.5 4z" />
    <glyph glyph-name="Egrave" unicode="&#xc8;" horiz-adv-x="582" 
d="M123 24q-38 27 -38 104v470q0 70 37 102.5t92 32.5q68 0 145 -2t105 -3l53 -2v-31h-294q-46 0 -71.5 -24.5t-25.5 -76.5v-212l350 -3v-30l-350 -4v-211q0 -60 28 -79.5t77 -19.5h286v-31l-49 -2q-30 -1 -108 -3t-138 -2q-61 0 -99 27zM166 925h39l116 -134h-24z" />
    <glyph glyph-name="uni1EBA" unicode="&#x1eba;" horiz-adv-x="582" 
d="M123 24q-38 27 -38 104v470q0 70 37 102.5t92 32.5q68 0 145 -2t105 -3l53 -2v-31h-294q-46 0 -71.5 -24.5t-25.5 -76.5v-212l350 -3v-30l-350 -4v-211q0 -60 28 -79.5t77 -19.5h286v-31l-49 -2q-30 -1 -108 -3t-138 -2q-61 0 -99 27zM292 791q34 11 50 29t16 40
q0 27 -13.5 40.5t-43.5 13.5q-19 0 -37 -6v20q17 6 42 6q38 0 57 -20t19 -54q0 -29 -22.5 -53t-67.5 -37v21z" />
    <glyph glyph-name="uni0206" unicode="&#x206;" horiz-adv-x="582" 
d="M123 24q-38 27 -38 104v470q0 70 37 102.5t92 32.5q68 0 145 -2t105 -3l53 -2v-31h-294q-46 0 -71.5 -24.5t-25.5 -76.5v-212l350 -3v-30l-350 -4v-211q0 -60 28 -79.5t77 -19.5h286v-31l-49 -2q-30 -1 -108 -3t-138 -2q-61 0 -99 27zM396 896.5q36 -31.5 36 -104.5h-22
q0 59 -28.5 87t-72.5 28q-52 0 -80.5 -26.5t-28.5 -88.5h-22q0 74 36.5 105t91.5 31q54 0 90 -31.5z" />
    <glyph glyph-name="Emacron" unicode="&#x112;" horiz-adv-x="582" 
d="M123 24q-38 27 -38 104v470q0 70 37 102.5t92 32.5q68 0 145 -2t105 -3l53 -2v-31h-294q-46 0 -71.5 -24.5t-25.5 -76.5v-212l350 -3v-30l-350 -4v-211q0 -60 28 -79.5t77 -19.5h286v-31l-49 -2q-30 -1 -108 -3t-138 -2q-61 0 -99 27zM175 870h256v-25h-256v25z" />
    <glyph glyph-name="uni1E16" unicode="&#x1e16;" horiz-adv-x="582" 
d="M123 24q-38 27 -38 104v470q0 70 37 102.5t92 32.5q68 0 145 -2t105 -3l53 -2v-31h-294q-46 0 -71.5 -24.5t-25.5 -76.5v-212l350 -3v-30l-350 -4v-211q0 -60 28 -79.5t77 -19.5h286v-31l-49 -2q-30 -1 -108 -3t-138 -2q-61 0 -99 27zM175 870h256v-25h-256v25zM416 1048
h39l-131 -134h-24z" />
    <glyph glyph-name="uni1E14" unicode="&#x1e14;" horiz-adv-x="582" 
d="M123 24q-38 27 -38 104v470q0 70 37 102.5t92 32.5q68 0 145 -2t105 -3l53 -2v-31h-294q-46 0 -71.5 -24.5t-25.5 -76.5v-212l350 -3v-30l-350 -4v-211q0 -60 28 -79.5t77 -19.5h286v-31l-49 -2q-30 -1 -108 -3t-138 -2q-61 0 -99 27zM175 870h256v-25h-256v25zM163 1048
h39l116 -134h-24z" />
    <glyph glyph-name="Eogonek" unicode="&#x118;" horiz-adv-x="582" 
d="M547 -156v-22q-8 -1 -23 -1q-47 0 -76 23.5t-29 63.5q0 27 19.5 52t59.5 43q-60 -2 -90 -2q-124 -4 -186 -4q-61 0 -99 27t-38 104v470q0 70 37 102.5t92 32.5q68 0 145 -2t105 -3l53 -2v-31h-294q-46 0 -71.5 -24.5t-25.5 -76.5v-212l350 -3v-30l-350 -4v-211
q0 -60 28 -79.5t77 -19.5h286v-31q-35 -18 -53.5 -40.5t-18.5 -47.5q0 -35 24.5 -53.5t71.5 -18.5h6z" />
    <glyph glyph-name="uni1EBC" unicode="&#x1ebc;" horiz-adv-x="582" 
d="M123 24q-38 27 -38 104v470q0 70 37 102.5t92 32.5q68 0 145 -2t105 -3l53 -2v-31h-294q-46 0 -71.5 -24.5t-25.5 -76.5v-212l350 -3v-30l-350 -4v-211q0 -60 28 -79.5t77 -19.5h286v-31l-49 -2q-30 -1 -108 -3t-138 -2q-61 0 -99 27zM174.5 888.5q26.5 22.5 62.5 22.5
q22 0 41 -9.5t47 -27.5q27 -17 41.5 -24.5t31.5 -7.5q31 0 51 18.5t20 51.5h22q-1 -43 -25.5 -69t-67.5 -26q-20 0 -38 9t-45 26q-27 18 -43.5 26t-34.5 8q-29 0 -48 -17t-20 -52h-22q1 49 27.5 71.5z" />
    <glyph glyph-name="F" unicode="F" horiz-adv-x="559" 
d="M85 598q0 70 37 102.5t92 32.5q124 0 303 -7v-31h-295q-46 0 -71 -25t-25 -76v-226l350 -4v-30l-350 -3v-331h-41v598z" />
    <glyph glyph-name="uni1E1E" unicode="&#x1e1e;" horiz-adv-x="559" 
d="M85 598q0 70 37 102.5t92 32.5q124 0 303 -7v-31h-295q-46 0 -71 -25t-25 -76v-226l350 -4v-30l-350 -3v-331h-41v598zM290.5 833q-3.5 4 -3.5 9v67q0 13 13 13h19q13 0 13 -13v-67q0 -6 -4 -9.5t-9 -3.5h-19q-6 0 -9.5 4z" />
    <glyph glyph-name="G" unicode="G" horiz-adv-x="645" 
d="M159 31.5q-51 36.5 -71.5 117t-20.5 221.5q0 132 21.5 212t73 118.5t141.5 38.5q48 0 115 -6t115 -15v-30q-137 14 -227 14q-77 0 -120 -34t-60.5 -105.5t-17.5 -194.5q0 -133 17.5 -203.5t61.5 -101t127 -30.5q48 0 103 13.5t103 33.5v258h-202v28q74 10 161 10
q47 0 82 -5v-371h-29l-8 53q-48 -24 -106 -41t-115 -17q-93 0 -144 36.5z" />
    <glyph glyph-name="Gbreve" unicode="&#x11e;" horiz-adv-x="645" 
d="M159 31.5q-51 36.5 -71.5 117t-20.5 221.5q0 132 21.5 212t73 118.5t141.5 38.5q48 0 115 -6t115 -15v-30q-137 14 -227 14q-77 0 -120 -34t-60.5 -105.5t-17.5 -194.5q0 -133 17.5 -203.5t61.5 -101t127 -30.5q48 0 103 13.5t103 33.5v258h-202v28q74 10 161 10
q47 0 82 -5v-371h-29l-8 53q-48 -24 -106 -41t-115 -17q-93 0 -144 36.5zM232 823.5q-36 31.5 -36 104.5h22q0 -59 28.5 -87t72.5 -28q52 0 80.5 26.5t28.5 88.5h22q0 -74 -36.5 -105t-91.5 -31q-54 0 -90 31.5z" />
    <glyph glyph-name="Gcaron" unicode="&#x1e6;" horiz-adv-x="645" 
d="M159 31.5q-51 36.5 -71.5 117t-20.5 221.5q0 132 21.5 212t73 118.5t141.5 38.5q48 0 115 -6t115 -15v-30q-137 14 -227 14q-77 0 -120 -34t-60.5 -105.5t-17.5 -194.5q0 -133 17.5 -203.5t61.5 -101t127 -30.5q48 0 103 13.5t103 33.5v258h-202v28q74 10 161 10
q47 0 82 -5v-371h-29l-8 53q-48 -24 -106 -41t-115 -17q-93 0 -144 36.5zM196 923h27l106 -110l117 110h27l-129 -132h-31z" />
    <glyph glyph-name="Gcircumflex" unicode="&#x11c;" horiz-adv-x="645" 
d="M159 31.5q-51 36.5 -71.5 117t-20.5 221.5q0 132 21.5 212t73 118.5t141.5 38.5q48 0 115 -6t115 -15v-30q-137 14 -227 14q-77 0 -120 -34t-60.5 -105.5t-17.5 -194.5q0 -133 17.5 -203.5t61.5 -101t127 -30.5q48 0 103 13.5t103 33.5v258h-202v28q74 10 161 10
q47 0 82 -5v-371h-29l-8 53q-48 -24 -106 -41t-115 -17q-93 0 -144 36.5zM316 923h31l117 -132h-27l-106 110l-117 -110h-27z" />
    <glyph glyph-name="Gcommaaccent" unicode="&#x122;" horiz-adv-x="645" 
d="M159 31.5q-51 36.5 -71.5 117t-20.5 221.5q0 132 21.5 212t73 118.5t141.5 38.5q48 0 115 -6t115 -15v-30q-137 14 -227 14q-77 0 -120 -34t-60.5 -105.5t-17.5 -194.5q0 -133 17.5 -203.5t61.5 -101t127 -30.5q48 0 103 13.5t103 33.5v258h-202v28q74 10 161 10
q47 0 82 -5v-371h-29l-8 53q-48 -24 -106 -41t-115 -17q-93 0 -144 36.5zM252 -178l31 4q30 3 46 11.5t24.5 32.5t7.5 73h27q0 -53 -8.5 -82t-31 -42t-66.5 -13h-30v16z" />
    <glyph glyph-name="Gdotaccent" unicode="&#x120;" horiz-adv-x="645" 
d="M159 31.5q-51 36.5 -71.5 117t-20.5 221.5q0 132 21.5 212t73 118.5t141.5 38.5q48 0 115 -6t115 -15v-30q-137 14 -227 14q-77 0 -120 -34t-60.5 -105.5t-17.5 -194.5q0 -133 17.5 -203.5t61.5 -101t127 -30.5q48 0 103 13.5t103 33.5v258h-202v28q74 10 161 10
q47 0 82 -5v-371h-29l-8 53q-48 -24 -106 -41t-115 -17q-93 0 -144 36.5zM309.5 833q-3.5 4 -3.5 9v67q0 13 13 13h19q13 0 13 -13v-67q0 -6 -4 -9.5t-9 -3.5h-19q-6 0 -9.5 4z" />
    <glyph glyph-name="uni1E20" unicode="&#x1e20;" horiz-adv-x="645" 
d="M159 31.5q-51 36.5 -71.5 117t-20.5 221.5q0 132 21.5 212t73 118.5t141.5 38.5q48 0 115 -6t115 -15v-30q-137 14 -227 14q-77 0 -120 -34t-60.5 -105.5t-17.5 -194.5q0 -133 17.5 -203.5t61.5 -101t127 -30.5q48 0 103 13.5t103 33.5v258h-202v28q74 10 161 10
q47 0 82 -5v-371h-29l-8 53q-48 -24 -106 -41t-115 -17q-93 0 -144 36.5zM194 870h256v-25h-256v25z" />
    <glyph glyph-name="H" unicode="H" horiz-adv-x="669" 
d="M85 733h41v-359h418v359h41v-733h-41v337h-418v-337h-41v733z" />
    <glyph glyph-name="Hbar" unicode="&#x126;" horiz-adv-x="669" 
d="M653 529h-68v-529h-41v337h-418v-337h-41v529h-69v29h69v175h41v-175h418v175h41v-175h68v-29zM544 529h-418v-155h418v155z" />
    <glyph glyph-name="uni1E2A" unicode="&#x1e2a;" horiz-adv-x="669" 
d="M85 733h41v-359h418v359h41v-733h-41v337h-418v-337h-41v733zM239 -186.5q-36 31.5 -36 104.5h22q0 -59 28.5 -87t72.5 -28q52 0 80.5 26.5t28.5 88.5h22q0 -74 -36.5 -105t-91.5 -31q-54 0 -90 31.5z" />
    <glyph glyph-name="Hcircumflex" unicode="&#x124;" horiz-adv-x="669" 
d="M85 733h41v-359h418v359h41v-733h-41v337h-418v-337h-41v733zM322 923h31l117 -132h-27l-106 110l-117 -110h-27z" />
    <glyph glyph-name="uni1E24" unicode="&#x1e24;" horiz-adv-x="669" 
d="M85 733h41v-359h418v359h41v-733h-41v337h-418v-337h-41v733zM314.5 -197q-3.5 4 -3.5 9v67q0 13 13 13h19q13 0 13 -13v-67q0 -6 -4 -9.5t-9 -3.5h-19q-6 0 -9.5 4z" />
    <glyph glyph-name="I" unicode="I" horiz-adv-x="210" 
d="M85 733h41v-733h-41v733z" />
    <glyph glyph-name="Iacute" unicode="&#xcd;" horiz-adv-x="210" 
d="M85 733h41v-733h-41v733zM212 925h39l-131 -134h-24z" />
    <glyph glyph-name="Ibreve" unicode="&#x12c;" horiz-adv-x="210" 
d="M85 733h41v-733h-41v733zM8 823.5q-36 31.5 -36 104.5h22q0 -59 28.5 -87t72.5 -28q52 0 80.5 26.5t28.5 88.5h22q0 -74 -36.5 -105t-91.5 -31q-54 0 -90 31.5z" />
    <glyph glyph-name="Icircumflex" unicode="&#xce;" horiz-adv-x="210" 
d="M85 733h41v-733h-41v733zM92 923h31l117 -132h-27l-106 110l-117 -110h-27z" />
    <glyph glyph-name="uni0208" unicode="&#x208;" horiz-adv-x="210" 
d="M85 733h41v-733h-41v733zM-86 925h39l116 -134h-24zM42 925h39l116 -134h-24z" />
    <glyph glyph-name="Idieresis" unicode="&#xcf;" horiz-adv-x="210" 
d="M85 733h41v-733h-41v733zM-46.5 826q-3.5 4 -3.5 9v67q0 13 13 13h19q13 0 13 -13v-67q0 -13 -13 -13h-19q-6 0 -9.5 4zM202 826q-4 4 -4 9v67q0 13 13 13h19q13 0 13 -13v-67q0 -13 -13 -13h-19q-5 0 -9 4z" />
    <glyph glyph-name="uni1E2E" unicode="&#x1e2e;" horiz-adv-x="210" 
d="M85 733h41v-733h-41v733zM-46.5 826q-3.5 4 -3.5 9v67q0 13 13 13h19q13 0 13 -13v-67q0 -13 -13 -13h-19q-6 0 -9.5 4zM202 826q-4 4 -4 9v67q0 13 13 13h19q13 0 13 -13v-67q0 -13 -13 -13h-19q-5 0 -9 4zM211 1079h39l-131 -134h-24z" />
    <glyph glyph-name="Idotaccent" unicode="&#x130;" horiz-adv-x="210" 
d="M85 733h41v-733h-41v733zM85.5 833q-3.5 4 -3.5 9v67q0 13 13 13h19q13 0 13 -13v-67q0 -6 -4 -9.5t-9 -3.5h-19q-6 0 -9.5 4z" />
    <glyph glyph-name="uni1ECA" unicode="&#x1eca;" horiz-adv-x="210" 
d="M85 733h41v-733h-41v733zM84.5 -197q-3.5 4 -3.5 9v67q0 13 13 13h19q13 0 13 -13v-67q0 -6 -4 -9.5t-9 -3.5h-19q-6 0 -9.5 4z" />
    <glyph glyph-name="Igrave" unicode="&#xcc;" horiz-adv-x="210" 
d="M85 733h41v-733h-41v733zM-39 925h39l116 -134h-24z" />
    <glyph glyph-name="uni1EC8" unicode="&#x1ec8;" horiz-adv-x="210" 
d="M85 733h41v-733h-41v733zM87 791q34 11 50 29t16 40q0 27 -13.5 40.5t-43.5 13.5q-19 0 -37 -6v20q17 6 42 6q38 0 57 -20t19 -54q0 -29 -22.5 -53t-67.5 -37v21z" />
    <glyph glyph-name="uni020A" unicode="&#x20a;" horiz-adv-x="210" 
d="M85 733h41v-733h-41v733zM191 896.5q36 -31.5 36 -104.5h-22q0 59 -28.5 87t-72.5 28q-52 0 -80.5 -26.5t-28.5 -88.5h-22q0 74 36.5 105t91.5 31q54 0 90 -31.5z" />
    <glyph glyph-name="Imacron" unicode="&#x12a;" horiz-adv-x="210" 
d="M85 733h41v-733h-41v733zM-30 870h256v-25h-256v25z" />
    <glyph glyph-name="Iogonek" unicode="&#x12e;" horiz-adv-x="210" 
d="M85 733h41v-733h-41v733zM57 -159.5q-29 23.5 -29 63.5q0 28 20 53t60 43h18q-35 -18 -53.5 -40.5t-18.5 -47.5q0 -35 24.5 -53.5t71.5 -18.5h6v-22q-8 -1 -23 -1q-47 0 -76 23.5z" />
    <glyph glyph-name="Itilde" unicode="&#x128;" horiz-adv-x="210" 
d="M85 733h41v-733h-41v733zM-30.5 888.5q26.5 22.5 62.5 22.5q22 0 41 -9.5t47 -27.5q27 -17 41.5 -24.5t31.5 -7.5q31 0 51 18.5t20 51.5h22q-1 -43 -25.5 -69t-67.5 -26q-20 0 -38 9t-45 26q-27 18 -43.5 26t-34.5 8q-29 0 -48 -17t-20 -52h-22q1 49 27.5 71.5z" />
    <glyph glyph-name="J" unicode="J" horiz-adv-x="374" 
d="M79 1q-31 7 -52 17v30q25 -7 54 -12t50 -5q58 0 87.5 25.5t29.5 96.5v580h41v-583q0 -86 -37.5 -121t-115.5 -35q-26 0 -57 7z" />
    <glyph glyph-name="Jcircumflex" unicode="&#x134;" horiz-adv-x="374" 
d="M79 1q-31 7 -52 17v30q25 -7 54 -12t50 -5q58 0 87.5 25.5t29.5 96.5v580h41v-583q0 -86 -37.5 -121t-115.5 -35q-26 0 -57 7zM256 923h31l117 -132h-27l-106 110l-117 -110h-27z" />
    <glyph glyph-name="K" unicode="K" horiz-adv-x="583" 
d="M85 733h41v-347h147l229 347h44l-241 -366l242 -367h-45l-230 348h-146v-348h-41v733z" />
    <glyph glyph-name="Kcommaaccent" unicode="&#x136;" horiz-adv-x="583" 
d="M85 733h41v-347h147l229 347h44l-241 -366l242 -367h-45l-230 348h-146v-348h-41v733zM196 -178l31 4q30 3 46 11.5t24.5 32.5t7.5 73h27q0 -53 -8.5 -82t-31 -42t-66.5 -13h-30v16z" />
    <glyph glyph-name="L" unicode="L" horiz-adv-x="530" 
d="M85 133v600h41v-597q0 -57 26.5 -77t70.5 -20h279v-39h-285q-132 0 -132 133z" />
    <glyph glyph-name="Lacute" unicode="&#x139;" horiz-adv-x="530" 
d="M85 133v600h41v-597q0 -57 26.5 -77t70.5 -20h279v-39h-285q-132 0 -132 133zM212 925h39l-131 -134h-24z" />
    <glyph glyph-name="Lcaron" unicode="&#x13d;" horiz-adv-x="530" 
d="M85 133v600h41v-597q0 -57 26.5 -77t70.5 -20h279v-39h-285q-132 0 -132 133zM222 725v58h39v-58l-4 -143h-30z" />
    <glyph glyph-name="Lcommaaccent" unicode="&#x13b;" horiz-adv-x="530" 
d="M85 133v600h41v-597q0 -57 26.5 -77t70.5 -20h279v-39h-285q-132 0 -132 133zM183 -178l31 4q30 3 46 11.5t24.5 32.5t7.5 73h27q0 -53 -8.5 -82t-31 -42t-66.5 -13h-30v16z" />
    <glyph glyph-name="Ldot" unicode="&#x13f;" horiz-adv-x="530" 
d="M85 133v600h41v-597q0 -57 26.5 -77t70.5 -20h279v-39h-285q-132 0 -132 133zM359 364q-4 4 -4 9v23q0 13 14 13h21q13 0 13 -13v-23q0 -13 -13 -13h-21q-6 0 -10 4z" />
    <glyph glyph-name="uni1E36" unicode="&#x1e36;" horiz-adv-x="530" 
d="M85 133v600h41v-597q0 -57 26.5 -77t70.5 -20h279v-39h-285q-132 0 -132 133zM243.5 -197q-3.5 4 -3.5 9v67q0 13 13 13h19q13 0 13 -13v-67q0 -6 -4 -9.5t-9 -3.5h-19q-6 0 -9.5 4z" />
    <glyph glyph-name="uni1E3A" unicode="&#x1e3a;" horiz-adv-x="530" 
d="M85 133v600h41v-597q0 -57 26.5 -77t70.5 -20h279v-39h-285q-132 0 -132 133zM130 -150h256v-25h-256v25z" />
    <glyph glyph-name="Lslash" unicode="&#x141;" horiz-adv-x="530" 
d="M502 39v-39h-285q-132 0 -132 133v220l-80 -33v29l80 33v351h41v-338l140 61v-28l-140 -61v-231q0 -57 26.5 -77t70.5 -20h279z" />
    <glyph glyph-name="M" unicode="M" horiz-adv-x="809" 
d="M704 0l-78 675l-203 -675h-37l-208 674l-74 -674h-39l81 733h48l210 -674l206 674h50l84 -733h-40z" />
    <glyph glyph-name="uni1E40" unicode="&#x1e40;" horiz-adv-x="809" 
d="M704 0l-78 675l-203 -675h-37l-208 674l-74 -674h-39l81 733h48l210 -674l206 674h50l84 -733h-40zM383.5 833q-3.5 4 -3.5 9v67q0 13 13 13h19q13 0 13 -13v-67q0 -6 -4 -9.5t-9 -3.5h-19q-6 0 -9.5 4z" />
    <glyph glyph-name="uni1E42" unicode="&#x1e42;" horiz-adv-x="809" 
d="M704 0l-78 675l-203 -675h-37l-208 674l-74 -674h-39l81 733h48l210 -674l206 674h50l84 -733h-40zM382.5 -197q-3.5 4 -3.5 9v67q0 13 13 13h19q13 0 13 -13v-67q0 -6 -4 -9.5t-9 -3.5h-19q-6 0 -9.5 4z" />
    <glyph glyph-name="N" unicode="N" horiz-adv-x="670" 
d="M103 733h35l425 -660v660h41v-733h-35l-425 661v-661h-41v733z" />
    <glyph glyph-name="Nacute" unicode="&#x143;" horiz-adv-x="670" 
d="M103 733h35l425 -660v660h41v-733h-35l-425 661v-661h-41v733zM445 925h39l-131 -134h-24z" />
    <glyph glyph-name="Ncaron" unicode="&#x147;" horiz-adv-x="670" 
d="M103 733h35l425 -660v660h41v-733h-35l-425 661v-661h-41v733zM205 923h27l106 -110l117 110h27l-129 -132h-31z" />
    <glyph glyph-name="Ncommaaccent" unicode="&#x145;" horiz-adv-x="670" 
d="M103 733h35l425 -660v660h41v-733h-35l-425 661v-661h-41v733zM257 -178l31 4q30 3 46 11.5t24.5 32.5t7.5 73h27q0 -53 -8.5 -82t-31 -42t-66.5 -13h-30v16z" />
    <glyph glyph-name="uni1E44" unicode="&#x1e44;" horiz-adv-x="670" 
d="M103 733h35l425 -660v660h41v-733h-35l-425 661v-661h-41v733zM317.5 -197q-3.5 4 -3.5 9v67q0 13 13 13h19q13 0 13 -13v-67q0 -6 -4 -9.5t-9 -3.5h-19q-6 0 -9.5 4z" />
    <glyph glyph-name="uni1E46" unicode="&#x1e46;" horiz-adv-x="670" 
d="M103 733h35l425 -660v660h41v-733h-35l-425 661v-661h-41v733zM317.5 -197q-3.5 4 -3.5 9v67q0 13 13 13h19q13 0 13 -13v-67q0 -6 -4 -9.5t-9 -3.5h-19q-6 0 -9.5 4z" />
    <glyph glyph-name="Eng" unicode="&#x14a;" horiz-adv-x="669" 
d="M604 733v-820q0 -86 -42 -121t-128 -35q-26 0 -56.5 7t-52.5 17v30q24 -7 54 -12t51 -5q65 0 99 25.5t34 96.5v93l-419 652v-661h-41v733h35l425 -660v660h41z" />
    <glyph glyph-name="uni1E48" unicode="&#x1e48;" horiz-adv-x="670" 
d="M103 733h35l425 -660v660h41v-733h-35l-425 661v-661h-41v733zM204 -150h256v-25h-256v25z" />
    <glyph glyph-name="Ntilde" unicode="&#xd1;" horiz-adv-x="670" 
d="M103 733h35l425 -660v660h41v-733h-35l-425 661v-661h-41v733zM202.5 888.5q26.5 22.5 62.5 22.5q22 0 41 -9.5t47 -27.5q27 -17 41.5 -24.5t31.5 -7.5q31 0 51 18.5t20 51.5h22q-1 -43 -25.5 -69t-67.5 -26q-20 0 -38 9t-45 26q-27 18 -43.5 26t-34.5 8q-29 0 -48 -17
t-20 -52h-22q1 49 27.5 71.5z" />
    <glyph glyph-name="O" unicode="O" horiz-adv-x="679" 
d="M182 20q-57 26 -86 105.5t-29 236.5t30 238.5t87.5 110t155.5 28.5q100 0 157.5 -28.5t86.5 -109.5t29 -239q0 -157 -29 -236.5t-86 -105.5t-158 -26t-158 26zM477 55q48 24 71.5 94.5t23.5 212.5q0 149 -23.5 221.5t-71 95.5t-137.5 23q-85 0 -133.5 -23.5t-73.5 -96.5
t-25 -220q0 -143 22 -213t70 -94t140 -24q89 0 137 24z" />
    <glyph glyph-name="Oacute" unicode="&#xd3;" horiz-adv-x="679" 
d="M182 20q-57 26 -86 105.5t-29 236.5t30 238.5t87.5 110t155.5 28.5q100 0 157.5 -28.5t86.5 -109.5t29 -239q0 -157 -29 -236.5t-86 -105.5t-158 -26t-158 26zM477 55q48 24 71.5 94.5t23.5 212.5q0 149 -23.5 221.5t-71 95.5t-137.5 23q-85 0 -133.5 -23.5t-73.5 -96.5
t-25 -220q0 -143 22 -213t70 -94t140 -24q89 0 137 24zM447 925h39l-131 -134h-24z" />
    <glyph glyph-name="Obreve" unicode="&#x14e;" horiz-adv-x="679" 
d="M182 20q-57 26 -86 105.5t-29 236.5t30 238.5t87.5 110t155.5 28.5q100 0 157.5 -28.5t86.5 -109.5t29 -239q0 -157 -29 -236.5t-86 -105.5t-158 -26t-158 26zM477 55q48 24 71.5 94.5t23.5 212.5q0 149 -23.5 221.5t-71 95.5t-137.5 23q-85 0 -133.5 -23.5t-73.5 -96.5
t-25 -220q0 -143 22 -213t70 -94t140 -24q89 0 137 24zM243 823.5q-36 31.5 -36 104.5h22q0 -59 28.5 -87t72.5 -28q52 0 80.5 26.5t28.5 88.5h22q0 -74 -36.5 -105t-91.5 -31q-54 0 -90 31.5z" />
    <glyph glyph-name="Ocircumflex" unicode="&#xd4;" horiz-adv-x="679" 
d="M182 20q-57 26 -86 105.5t-29 236.5t30 238.5t87.5 110t155.5 28.5q100 0 157.5 -28.5t86.5 -109.5t29 -239q0 -157 -29 -236.5t-86 -105.5t-158 -26t-158 26zM477 55q48 24 71.5 94.5t23.5 212.5q0 149 -23.5 221.5t-71 95.5t-137.5 23q-85 0 -133.5 -23.5t-73.5 -96.5
t-25 -220q0 -143 22 -213t70 -94t140 -24q89 0 137 24zM327 923h31l117 -132h-27l-106 110l-117 -110h-27z" />
    <glyph glyph-name="uni1ED0" unicode="&#x1ed0;" horiz-adv-x="679" 
d="M182 20q-57 26 -86 105.5t-29 236.5t30 238.5t87.5 110t155.5 28.5q100 0 157.5 -28.5t86.5 -109.5t29 -239q0 -157 -29 -236.5t-86 -105.5t-158 -26t-158 26zM477 55q48 24 71.5 94.5t23.5 212.5q0 149 -23.5 221.5t-71 95.5t-137.5 23q-85 0 -133.5 -23.5t-73.5 -96.5
t-25 -220q0 -143 22 -213t70 -94t140 -24q89 0 137 24zM568 995l-126 -132h-24l111 132h39zM358 884l117 -93h-28l-105 71l-117 -71h-27l129 93h31z" />
    <glyph glyph-name="uni1ED8" unicode="&#x1ed8;" horiz-adv-x="679" 
d="M182 20q-57 26 -86 105.5t-29 236.5t30 238.5t87.5 110t155.5 28.5q100 0 157.5 -28.5t86.5 -109.5t29 -239q0 -157 -29 -236.5t-86 -105.5t-158 -26t-158 26zM477 55q48 24 71.5 94.5t23.5 212.5q0 149 -23.5 221.5t-71 95.5t-137.5 23q-85 0 -133.5 -23.5t-73.5 -96.5
t-25 -220q0 -143 22 -213t70 -94t140 -24q89 0 137 24zM327 923h31l117 -132h-27l-106 110l-117 -110h-27zM319.5 -197q-3.5 4 -3.5 9v67q0 13 13 13h19q13 0 13 -13v-67q0 -6 -4 -9.5t-9 -3.5h-19q-6 0 -9.5 4z" />
    <glyph glyph-name="uni1ED2" unicode="&#x1ed2;" horiz-adv-x="679" 
d="M182 20q-57 26 -86 105.5t-29 236.5t30 238.5t87.5 110t155.5 28.5q100 0 157.5 -28.5t86.5 -109.5t29 -239q0 -157 -29 -236.5t-86 -105.5t-158 -26t-158 26zM477 55q48 24 71.5 94.5t23.5 212.5q0 149 -23.5 221.5t-71 95.5t-137.5 23q-85 0 -133.5 -23.5t-73.5 -96.5
t-25 -220q0 -143 22 -213t70 -94t140 -24q89 0 137 24zM150 995l111 -132h-24l-126 132h39zM358 884l117 -93h-28l-105 71l-117 -71h-27l129 93h31z" />
    <glyph glyph-name="uni1ED4" unicode="&#x1ed4;" horiz-adv-x="679" 
d="M182 20q-57 26 -86 105.5t-29 236.5t30 238.5t87.5 110t155.5 28.5q100 0 157.5 -28.5t86.5 -109.5t29 -239q0 -157 -29 -236.5t-86 -105.5t-158 -26t-158 26zM477 55q48 24 71.5 94.5t23.5 212.5q0 149 -23.5 221.5t-71 95.5t-137.5 23q-85 0 -133.5 -23.5t-73.5 -96.5
t-25 -220q0 -143 22 -213t70 -94t140 -24q89 0 137 24zM441 862q60 19 60 60q0 44 -51 44q-19 0 -37 -6v19q20 7 42 7q35 0 52 -17t17 -47q0 -26 -21 -48t-62 -33v21zM327 884h31l117 -93h-28l-105 71l-117 -71h-27z" />
    <glyph glyph-name="uni1ED6" unicode="&#x1ed6;" horiz-adv-x="679" 
d="M182 20q-57 26 -86 105.5t-29 236.5t30 238.5t87.5 110t155.5 28.5q100 0 157.5 -28.5t86.5 -109.5t29 -239q0 -157 -29 -236.5t-86 -105.5t-158 -26t-158 26zM477 55q48 24 71.5 94.5t23.5 212.5q0 149 -23.5 221.5t-71 95.5t-137.5 23q-85 0 -133.5 -23.5t-73.5 -96.5
t-25 -220q0 -143 22 -213t70 -94t140 -24q89 0 137 24zM298.5 999.5q18.5 -6.5 44.5 -19.5q25 -12 40.5 -18t32.5 -6q27 0 44.5 13t17.5 37h22q-1 -34 -22.5 -53.5t-59.5 -19.5q-20 0 -38 6.5t-41 18.5q-24 12 -42 18t-37 6q-25 0 -41.5 -12.5t-16.5 -37.5h-22q1 39 24 56.5
t55 17.5q21 0 39.5 -6.5zM475 791h-28l-105 71l-117 -71h-27l129 93h31z" />
    <glyph glyph-name="uni020C" unicode="&#x20c;" horiz-adv-x="679" 
d="M182 20q-57 26 -86 105.5t-29 236.5t30 238.5t87.5 110t155.5 28.5q100 0 157.5 -28.5t86.5 -109.5t29 -239q0 -157 -29 -236.5t-86 -105.5t-158 -26t-158 26zM477 55q48 24 71.5 94.5t23.5 212.5q0 149 -23.5 221.5t-71 95.5t-137.5 23q-85 0 -133.5 -23.5t-73.5 -96.5
t-25 -220q0 -143 22 -213t70 -94t140 -24q89 0 137 24zM149 925h39l116 -134h-24zM277 925h39l116 -134h-24z" />
    <glyph glyph-name="Odieresis" unicode="&#xd6;" horiz-adv-x="679" 
d="M182 20q-57 26 -86 105.5t-29 236.5t30 238.5t87.5 110t155.5 28.5q100 0 157.5 -28.5t86.5 -109.5t29 -239q0 -157 -29 -236.5t-86 -105.5t-158 -26t-158 26zM477 55q48 24 71.5 94.5t23.5 212.5q0 149 -23.5 221.5t-71 95.5t-137.5 23q-85 0 -133.5 -23.5t-73.5 -96.5
t-25 -220q0 -143 22 -213t70 -94t140 -24q89 0 137 24zM188.5 826q-3.5 4 -3.5 9v67q0 13 13 13h19q13 0 13 -13v-67q0 -13 -13 -13h-19q-6 0 -9.5 4zM437 826q-4 4 -4 9v67q0 13 13 13h19q13 0 13 -13v-67q0 -13 -13 -13h-19q-5 0 -9 4z" />
    <glyph glyph-name="uni022A" unicode="&#x22a;" horiz-adv-x="679" 
d="M182 20q-57 26 -86 105.5t-29 236.5t30 238.5t87.5 110t155.5 28.5q100 0 157.5 -28.5t86.5 -109.5t29 -239q0 -157 -29 -236.5t-86 -105.5t-158 -26t-158 26zM477 55q48 24 71.5 94.5t23.5 212.5q0 149 -23.5 221.5t-71 95.5t-137.5 23q-85 0 -133.5 -23.5t-73.5 -96.5
t-25 -220q0 -143 22 -213t70 -94t140 -24q89 0 137 24zM206.5 826q-3.5 4 -3.5 9v67q0 13 13 13h19q13 0 13 -13v-67q0 -13 -13 -13h-19q-6 0 -9.5 4zM455 826q-4 4 -4 9v67q0 13 13 13h19q13 0 13 -13v-67q0 -13 -13 -13h-19q-5 0 -9 4zM223 1025h256v-25h-256v25z" />
    <glyph glyph-name="uni0230" unicode="&#x230;" horiz-adv-x="679" 
d="M182 20q-57 26 -86 105.5t-29 236.5t30 238.5t87.5 110t155.5 28.5q100 0 157.5 -28.5t86.5 -109.5t29 -239q0 -157 -29 -236.5t-86 -105.5t-158 -26t-158 26zM477 55q48 24 71.5 94.5t23.5 212.5q0 149 -23.5 221.5t-71 95.5t-137.5 23q-85 0 -133.5 -23.5t-73.5 -96.5
t-25 -220q0 -143 22 -213t70 -94t140 -24q89 0 137 24zM320.5 833q-3.5 4 -3.5 9v67q0 13 13 13h19q13 0 13 -13v-67q0 -6 -4 -9.5t-9 -3.5h-19q-6 0 -9.5 4zM205 1016h256v-25h-256v25z" />
    <glyph glyph-name="uni1ECC" unicode="&#x1ecc;" horiz-adv-x="679" 
d="M182 20q-57 26 -86 105.5t-29 236.5t30 238.5t87.5 110t155.5 28.5q100 0 157.5 -28.5t86.5 -109.5t29 -239q0 -157 -29 -236.5t-86 -105.5t-158 -26t-158 26zM477 55q48 24 71.5 94.5t23.5 212.5q0 149 -23.5 221.5t-71 95.5t-137.5 23q-85 0 -133.5 -23.5t-73.5 -96.5
t-25 -220q0 -143 22 -213t70 -94t140 -24q89 0 137 24zM319.5 -197q-3.5 4 -3.5 9v67q0 13 13 13h19q13 0 13 -13v-67q0 -6 -4 -9.5t-9 -3.5h-19q-6 0 -9.5 4z" />
    <glyph glyph-name="Ograve" unicode="&#xd2;" horiz-adv-x="679" 
d="M182 20q-57 26 -86 105.5t-29 236.5t30 238.5t87.5 110t155.5 28.5q100 0 157.5 -28.5t86.5 -109.5t29 -239q0 -157 -29 -236.5t-86 -105.5t-158 -26t-158 26zM477 55q48 24 71.5 94.5t23.5 212.5q0 149 -23.5 221.5t-71 95.5t-137.5 23q-85 0 -133.5 -23.5t-73.5 -96.5
t-25 -220q0 -143 22 -213t70 -94t140 -24q89 0 137 24zM196 925h39l116 -134h-24z" />
    <glyph glyph-name="uni1ECE" unicode="&#x1ece;" horiz-adv-x="679" 
d="M182 20q-57 26 -86 105.5t-29 236.5t30 238.5t87.5 110t155.5 28.5q100 0 157.5 -28.5t86.5 -109.5t29 -239q0 -157 -29 -236.5t-86 -105.5t-158 -26t-158 26zM477 55q48 24 71.5 94.5t23.5 212.5q0 149 -23.5 221.5t-71 95.5t-137.5 23q-85 0 -133.5 -23.5t-73.5 -96.5
t-25 -220q0 -143 22 -213t70 -94t140 -24q89 0 137 24zM322 791q34 11 50 29t16 40q0 27 -13.5 40.5t-43.5 13.5q-19 0 -37 -6v20q17 6 42 6q38 0 57 -20t19 -54q0 -29 -22.5 -53t-67.5 -37v21z" />
    <glyph glyph-name="Ohorn" unicode="&#x1a0;" horiz-adv-x="679" 
d="M586.5 594.5q26.5 -80.5 26.5 -232.5q0 -157 -29 -236.5t-86 -105.5t-158 -26t-158 26t-86 105.5t-29 236.5t30 238.5t87.5 110t155.5 28.5q47 0 88 -6h80q82 0 82 115h33q0 -76 -32 -108t-80 -32h-9q58 -33 84.5 -113.5zM477 55q48 24 71.5 94.5t23.5 212.5
q0 149 -23.5 221.5t-71 95.5t-137.5 23q-85 0 -133.5 -23.5t-73.5 -96.5t-25 -220q0 -143 22 -213t70 -94t140 -24q89 0 137 24z" />
    <glyph glyph-name="uni1EDA" unicode="&#x1eda;" horiz-adv-x="679" 
d="M586.5 594.5q26.5 -80.5 26.5 -232.5q0 -157 -29 -236.5t-86 -105.5t-158 -26t-158 26t-86 105.5t-29 236.5t30 238.5t87.5 110t155.5 28.5q47 0 88 -6h80q82 0 82 115h33q0 -76 -32 -108t-80 -32h-9q58 -33 84.5 -113.5zM477 55q48 24 71.5 94.5t23.5 212.5
q0 149 -23.5 221.5t-71 95.5t-137.5 23q-85 0 -133.5 -23.5t-73.5 -96.5t-25 -220q0 -143 22 -213t70 -94t140 -24q89 0 137 24zM438 925h39l-131 -134h-24z" />
    <glyph glyph-name="uni1EE2" unicode="&#x1ee2;" horiz-adv-x="679" 
d="M586.5 594.5q26.5 -80.5 26.5 -232.5q0 -157 -29 -236.5t-86 -105.5t-158 -26t-158 26t-86 105.5t-29 236.5t30 238.5t87.5 110t155.5 28.5q47 0 88 -6h80q82 0 82 115h33q0 -76 -32 -108t-80 -32h-9q58 -33 84.5 -113.5zM477 55q48 24 71.5 94.5t23.5 212.5
q0 149 -23.5 221.5t-71 95.5t-137.5 23q-85 0 -133.5 -23.5t-73.5 -96.5t-25 -220q0 -143 22 -213t70 -94t140 -24q89 0 137 24zM315.5 -197q-3.5 4 -3.5 9v67q0 13 13 13h19q13 0 13 -13v-67q0 -6 -4 -9.5t-9 -3.5h-19q-6 0 -9.5 4z" />
    <glyph glyph-name="uni1EDC" unicode="&#x1edc;" horiz-adv-x="679" 
d="M586.5 594.5q26.5 -80.5 26.5 -232.5q0 -157 -29 -236.5t-86 -105.5t-158 -26t-158 26t-86 105.5t-29 236.5t30 238.5t87.5 110t155.5 28.5q47 0 88 -6h80q82 0 82 115h33q0 -76 -32 -108t-80 -32h-9q58 -33 84.5 -113.5zM477 55q48 24 71.5 94.5t23.5 212.5
q0 149 -23.5 221.5t-71 95.5t-137.5 23q-85 0 -133.5 -23.5t-73.5 -96.5t-25 -220q0 -143 22 -213t70 -94t140 -24q89 0 137 24zM186 925h39l116 -134h-24z" />
    <glyph glyph-name="uni1EDE" unicode="&#x1ede;" horiz-adv-x="679" 
d="M586.5 594.5q26.5 -80.5 26.5 -232.5q0 -157 -29 -236.5t-86 -105.5t-158 -26t-158 26t-86 105.5t-29 236.5t30 238.5t87.5 110t155.5 28.5q47 0 88 -6h80q82 0 82 115h33q0 -76 -32 -108t-80 -32h-9q58 -33 84.5 -113.5zM477 55q48 24 71.5 94.5t23.5 212.5
q0 149 -23.5 221.5t-71 95.5t-137.5 23q-85 0 -133.5 -23.5t-73.5 -96.5t-25 -220q0 -143 22 -213t70 -94t140 -24q89 0 137 24zM323 791q34 11 50 29t16 40q0 27 -13.5 40.5t-43.5 13.5q-19 0 -37 -6v20q17 6 42 6q38 0 57 -20t19 -54q0 -29 -22.5 -53t-67.5 -37v21z" />
    <glyph glyph-name="uni1EE0" unicode="&#x1ee0;" horiz-adv-x="679" 
d="M586.5 594.5q26.5 -80.5 26.5 -232.5q0 -157 -29 -236.5t-86 -105.5t-158 -26t-158 26t-86 105.5t-29 236.5t30 238.5t87.5 110t155.5 28.5q47 0 88 -6h80q82 0 82 115h33q0 -76 -32 -108t-80 -32h-9q58 -33 84.5 -113.5zM477 55q48 24 71.5 94.5t23.5 212.5
q0 149 -23.5 221.5t-71 95.5t-137.5 23q-85 0 -133.5 -23.5t-73.5 -96.5t-25 -220q0 -143 22 -213t70 -94t140 -24q89 0 137 24zM197.5 888.5q26.5 22.5 62.5 22.5q22 0 41 -9.5t47 -27.5q27 -17 41.5 -24.5t31.5 -7.5q31 0 51 18.5t20 51.5h22q-1 -43 -25.5 -69t-67.5 -26
q-20 0 -38 9t-45 26q-27 18 -43.5 26t-34.5 8q-29 0 -48 -17t-20 -52h-22q1 49 27.5 71.5z" />
    <glyph glyph-name="Ohungarumlaut" unicode="&#x150;" horiz-adv-x="679" 
d="M182 20q-57 26 -86 105.5t-29 236.5t30 238.5t87.5 110t155.5 28.5q100 0 157.5 -28.5t86.5 -109.5t29 -239q0 -157 -29 -236.5t-86 -105.5t-158 -26t-158 26zM477 55q48 24 71.5 94.5t23.5 212.5q0 149 -23.5 221.5t-71 95.5t-137.5 23q-85 0 -133.5 -23.5t-73.5 -96.5
t-25 -220q0 -143 22 -213t70 -94t140 -24q89 0 137 24zM346 925h38l-129 -134h-24zM489 925h37l-128 -134h-24z" />
    <glyph glyph-name="uni020E" unicode="&#x20e;" horiz-adv-x="679" 
d="M182 20q-57 26 -86 105.5t-29 236.5t30 238.5t87.5 110t155.5 28.5q100 0 157.5 -28.5t86.5 -109.5t29 -239q0 -157 -29 -236.5t-86 -105.5t-158 -26t-158 26zM477 55q48 24 71.5 94.5t23.5 212.5q0 149 -23.5 221.5t-71 95.5t-137.5 23q-85 0 -133.5 -23.5t-73.5 -96.5
t-25 -220q0 -143 22 -213t70 -94t140 -24q89 0 137 24zM426 896.5q36 -31.5 36 -104.5h-22q0 59 -28.5 87t-72.5 28q-52 0 -80.5 -26.5t-28.5 -88.5h-22q0 74 36.5 105t91.5 31q54 0 90 -31.5z" />
    <glyph glyph-name="Omacron" unicode="&#x14c;" horiz-adv-x="679" 
d="M182 20q-57 26 -86 105.5t-29 236.5t30 238.5t87.5 110t155.5 28.5q100 0 157.5 -28.5t86.5 -109.5t29 -239q0 -157 -29 -236.5t-86 -105.5t-158 -26t-158 26zM477 55q48 24 71.5 94.5t23.5 212.5q0 149 -23.5 221.5t-71 95.5t-137.5 23q-85 0 -133.5 -23.5t-73.5 -96.5
t-25 -220q0 -143 22 -213t70 -94t140 -24q89 0 137 24zM205 870h256v-25h-256v25z" />
    <glyph glyph-name="uni1E52" unicode="&#x1e52;" horiz-adv-x="679" 
d="M182 20q-57 26 -86 105.5t-29 236.5t30 238.5t87.5 110t155.5 28.5q100 0 157.5 -28.5t86.5 -109.5t29 -239q0 -157 -29 -236.5t-86 -105.5t-158 -26t-158 26zM477 55q48 24 71.5 94.5t23.5 212.5q0 149 -23.5 221.5t-71 95.5t-137.5 23q-85 0 -133.5 -23.5t-73.5 -96.5
t-25 -220q0 -143 22 -213t70 -94t140 -24q89 0 137 24zM205 870h256v-25h-256v25zM446 1049h39l-131 -134h-24z" />
    <glyph glyph-name="uni1E50" unicode="&#x1e50;" horiz-adv-x="679" 
d="M182 20q-57 26 -86 105.5t-29 236.5t30 238.5t87.5 110t155.5 28.5q100 0 157.5 -28.5t86.5 -109.5t29 -239q0 -157 -29 -236.5t-86 -105.5t-158 -26t-158 26zM477 55q48 24 71.5 94.5t23.5 212.5q0 149 -23.5 221.5t-71 95.5t-137.5 23q-85 0 -133.5 -23.5t-73.5 -96.5
t-25 -220q0 -143 22 -213t70 -94t140 -24q89 0 137 24zM205 870h256v-25h-256v25zM193 1049h39l116 -134h-24z" />
    <glyph glyph-name="uni01EA" unicode="&#x1ea;" horiz-adv-x="679" 
d="M356 -43q-17 -22 -17 -45q0 -35 24.5 -53.5t71.5 -18.5h6v-22q-8 -1 -23 -1q-47 0 -76 23.5t-29 63.5q0 26 17.5 49.5t52.5 41.5q-14 -1 -43 -1q-101 0 -158 26t-86 105.5t-29 236.5t30 238.5t87.5 110t155.5 28.5q100 0 157.5 -28.5t86.5 -109.5t29 -239
q0 -138 -22.5 -215t-67 -110t-118.5 -40q-32 -18 -49 -40zM130 149q22 -70 70 -94t140 -24q89 0 137 24t71.5 94.5t23.5 212.5q0 149 -23.5 221.5t-71 95.5t-137.5 23q-85 0 -133.5 -23.5t-73.5 -96.5t-25 -220q0 -143 22 -213z" />
    <glyph glyph-name="Oslash" unicode="&#xd8;" horiz-adv-x="679" 
d="M598 548.5q15 -72.5 15 -186.5q0 -157 -29 -236.5t-86 -105.5t-158 -26q-69 0 -115.5 11t-78.5 41l-30 -46h-35l45 68q-30 41 -44.5 112t-14.5 182q0 157 30 238.5t87.5 110t155.5 28.5q68 0 114 -11.5t78 -41.5l31 47h35l-46 -70q31 -42 46 -114.5zM117.5 202
q9.5 -62 31.5 -98l362 549q-27 29 -67 39t-104 10q-85 0 -133.5 -23.5t-73.5 -96.5t-25 -220q0 -98 9.5 -160zM477 55q48 24 71.5 94.5t23.5 212.5q0 100 -10.5 164t-32.5 102l-361 -549q26 -28 67 -38t105 -10q89 0 137 24z" />
    <glyph glyph-name="Oslashacute" unicode="&#x1fe;" horiz-adv-x="679" 
d="M598 548.5q15 -72.5 15 -186.5q0 -157 -29 -236.5t-86 -105.5t-158 -26q-69 0 -115.5 11t-78.5 41l-30 -46h-35l45 68q-30 41 -44.5 112t-14.5 182q0 157 30 238.5t87.5 110t155.5 28.5q68 0 114 -11.5t78 -41.5l31 47h35l-46 -70q31 -42 46 -114.5zM117.5 202
q9.5 -62 31.5 -98l362 549q-27 29 -67 39t-104 10q-85 0 -133.5 -23.5t-73.5 -96.5t-25 -220q0 -98 9.5 -160zM477 55q48 24 71.5 94.5t23.5 212.5q0 100 -10.5 164t-32.5 102l-361 -549q26 -28 67 -38t105 -10q89 0 137 24zM447 925h39l-131 -134h-24z" />
    <glyph glyph-name="Otilde" unicode="&#xd5;" horiz-adv-x="679" 
d="M182 20q-57 26 -86 105.5t-29 236.5t30 238.5t87.5 110t155.5 28.5q100 0 157.5 -28.5t86.5 -109.5t29 -239q0 -157 -29 -236.5t-86 -105.5t-158 -26t-158 26zM477 55q48 24 71.5 94.5t23.5 212.5q0 149 -23.5 221.5t-71 95.5t-137.5 23q-85 0 -133.5 -23.5t-73.5 -96.5
t-25 -220q0 -143 22 -213t70 -94t140 -24q89 0 137 24zM204.5 888.5q26.5 22.5 62.5 22.5q22 0 41 -9.5t47 -27.5q27 -17 41.5 -24.5t31.5 -7.5q31 0 51 18.5t20 51.5h22q-1 -43 -25.5 -69t-67.5 -26q-20 0 -38 9t-45 26q-27 18 -43.5 26t-34.5 8q-29 0 -48 -17t-20 -52h-22
q1 49 27.5 71.5z" />
    <glyph glyph-name="uni1E4C" unicode="&#x1e4c;" horiz-adv-x="679" 
d="M182 20q-57 26 -86 105.5t-29 236.5t30 238.5t87.5 110t155.5 28.5q100 0 157.5 -28.5t86.5 -109.5t29 -239q0 -157 -29 -236.5t-86 -105.5t-158 -26t-158 26zM477 55q48 24 71.5 94.5t23.5 212.5q0 149 -23.5 221.5t-71 95.5t-137.5 23q-85 0 -133.5 -23.5t-73.5 -96.5
t-25 -220q0 -143 22 -213t70 -94t140 -24q89 0 137 24zM204.5 888.5q26.5 22.5 62.5 22.5q22 0 41 -9.5t47 -27.5q27 -17 41.5 -24.5t31.5 -7.5q31 0 51 18.5t20 51.5h22q-1 -43 -25.5 -69t-67.5 -26q-20 0 -38 9t-45 26q-27 18 -43.5 26t-34.5 8q-29 0 -48 -17t-20 -52h-22
q1 49 27.5 71.5zM444 1077h39l-131 -134h-24z" />
    <glyph glyph-name="uni1E4E" unicode="&#x1e4e;" horiz-adv-x="679" 
d="M182 20q-57 26 -86 105.5t-29 236.5t30 238.5t87.5 110t155.5 28.5q100 0 157.5 -28.5t86.5 -109.5t29 -239q0 -157 -29 -236.5t-86 -105.5t-158 -26t-158 26zM477 55q48 24 71.5 94.5t23.5 212.5q0 149 -23.5 221.5t-71 95.5t-137.5 23q-85 0 -133.5 -23.5t-73.5 -96.5
t-25 -220q0 -143 22 -213t70 -94t140 -24q89 0 137 24zM204.5 888.5q26.5 22.5 62.5 22.5q22 0 41 -9.5t47 -27.5q27 -17 41.5 -24.5t31.5 -7.5q31 0 51 18.5t20 51.5h22q-1 -43 -25.5 -69t-67.5 -26q-20 0 -38 9t-45 26q-27 18 -43.5 26t-34.5 8q-29 0 -48 -17t-20 -52h-22
q1 49 27.5 71.5zM197.5 978q-3.5 4 -3.5 9v67q0 13 13 13h19q13 0 13 -13v-67q0 -13 -13 -13h-19q-6 0 -9.5 4zM446 978q-4 4 -4 9v67q0 13 13 13h19q13 0 13 -13v-67q0 -13 -13 -13h-19q-5 0 -9 4z" />
    <glyph glyph-name="uni022C" unicode="&#x22c;" horiz-adv-x="679" 
d="M182 20q-57 26 -86 105.5t-29 236.5t30 238.5t87.5 110t155.5 28.5q100 0 157.5 -28.5t86.5 -109.5t29 -239q0 -157 -29 -236.5t-86 -105.5t-158 -26t-158 26zM477 55q48 24 71.5 94.5t23.5 212.5q0 149 -23.5 221.5t-71 95.5t-137.5 23q-85 0 -133.5 -23.5t-73.5 -96.5
t-25 -220q0 -143 22 -213t70 -94t140 -24q89 0 137 24zM224 1022h256v-25h-256v25zM204.5 888.5q26.5 22.5 62.5 22.5q22 0 41 -9.5t47 -27.5q27 -17 41.5 -24.5t31.5 -7.5q31 0 51 18.5t20 51.5h22q-1 -43 -25.5 -69t-67.5 -26q-20 0 -38 9t-45 26q-27 18 -43.5 26t-34.5 8
q-29 0 -48 -17t-20 -52h-22q1 49 27.5 71.5z" />
    <glyph glyph-name="OE" unicode="&#x152;" horiz-adv-x="1068" 
d="M638.5 670.5q-25.5 -24.5 -25.5 -76.5v-212l350 -3v-30l-350 -4v-211q0 -60 28 -79.5t77 -19.5h286v-31l-49 -2q-30 -1 -108 -3t-138 -2q-55 0 -91.5 21.5t-43.5 82.5q-30 -63 -85 -85t-149 -22q-101 0 -158 26t-86 105.5t-29 236.5t30 238.5t87.5 110t155.5 28.5
q93 0 148.5 -24t85.5 -88q8 55 43.5 80.5t83.5 25.5q68 0 145 -2t105 -3l53 -2v-31h-294q-46 0 -71.5 -24.5zM477 55q48 24 71.5 94.5t23.5 212.5q0 149 -23.5 221.5t-71 95.5t-137.5 23q-85 0 -133.5 -23.5t-73.5 -96.5t-25 -220q0 -143 22 -213t70 -94t140 -24
q89 0 137 24z" />
    <glyph glyph-name="P" unicode="P" horiz-adv-x="594" 
d="M85 733h281q181 0 181 -224q0 -130 -56 -181t-133 -51q-47 1 -115 3t-117 4v-284h-41v733zM355 314q150 0 150 194q0 106 -39 147t-102 41h-238v-382h229z" />
    <glyph glyph-name="uni1E56" unicode="&#x1e56;" horiz-adv-x="594" 
d="M85 733h281q181 0 181 -224q0 -130 -56 -181t-133 -51q-47 1 -115 3t-117 4v-284h-41v733zM355 314q150 0 150 194q0 106 -39 147t-102 41h-238v-382h229zM262.5 833q-3.5 4 -3.5 9v67q0 13 13 13h19q13 0 13 -13v-67q0 -6 -4 -9.5t-9 -3.5h-19q-6 0 -9.5 4z" />
    <glyph glyph-name="Thorn" unicode="&#xde;" horiz-adv-x="546" 
d="M85 733h41v-143h192q181 0 181 -206q0 -120 -56 -166t-133 -46q-37 1 -91 3t-93 4v-179h-41v733zM307 209q150 0 150 175q0 95 -39 132t-102 37h-190v-344h181z" />
    <glyph glyph-name="Q" unicode="Q" horiz-adv-x="679" 
d="M182 20q-57 26 -86 105.5t-29 236.5t30 238.5t87.5 110t155.5 28.5q100 0 157.5 -28.5t86.5 -109.5t29 -239q0 -157 -29 -236.5t-86 -105.5t-158 -26t-158 26zM477 55q48 24 71.5 94.5t23.5 212.5q0 149 -23.5 221.5t-71 95.5t-137.5 23q-85 0 -133.5 -23.5t-73.5 -96.5
t-25 -220q0 -143 22 -213t70 -94t140 -24q89 0 137 24zM412.5 -123q-40.5 32 -51.5 89h28q15 -42 46.5 -63.5t68.5 -21.5q25 0 47 8v-36q-26 -8 -49 -8q-49 0 -89.5 32z" />
    <glyph glyph-name="R" unicode="R" horiz-adv-x="597" 
d="M85 733h280q80 0 130.5 -41.5t50.5 -163.5q0 -196 -154 -208l158 -320h-41l-156 316h-20q-145 3 -207 6v-322h-41v733zM361 352q68 0 106 36t38 140q0 99 -39 133.5t-105 34.5h-235v-344h235z" />
    <glyph glyph-name="Racute" unicode="&#x154;" horiz-adv-x="597" 
d="M85 733h280q80 0 130.5 -41.5t50.5 -163.5q0 -196 -154 -208l158 -320h-41l-156 316h-20q-145 3 -207 6v-322h-41v733zM361 352q68 0 106 36t38 140q0 99 -39 133.5t-105 34.5h-235v-344h235zM397 925h39l-131 -134h-24z" />
    <glyph glyph-name="Rcaron" unicode="&#x158;" horiz-adv-x="597" 
d="M85 733h280q80 0 130.5 -41.5t50.5 -163.5q0 -196 -154 -208l158 -320h-41l-156 316h-20q-145 3 -207 6v-322h-41v733zM361 352q68 0 106 36t38 140q0 99 -39 133.5t-105 34.5h-235v-344h235zM157 923h27l106 -110l117 110h27l-129 -132h-31z" />
    <glyph glyph-name="Rcommaaccent" unicode="&#x156;" horiz-adv-x="597" 
d="M85 733h280q80 0 130.5 -41.5t50.5 -163.5q0 -196 -154 -208l158 -320h-41l-156 316h-20q-145 3 -207 6v-322h-41v733zM361 352q68 0 106 36t38 140q0 99 -39 133.5t-105 34.5h-235v-344h235zM209 -178l31 4q30 3 46 11.5t24.5 32.5t7.5 73h27q0 -53 -8.5 -82t-31 -42
t-66.5 -13h-30v16z" />
    <glyph glyph-name="uni0210" unicode="&#x210;" horiz-adv-x="597" 
d="M85 733h280q80 0 130.5 -41.5t50.5 -163.5q0 -196 -154 -208l158 -320h-41l-156 316h-20q-145 3 -207 6v-322h-41v733zM361 352q68 0 106 36t38 140q0 99 -39 133.5t-105 34.5h-235v-344h235zM99 925h39l116 -134h-24zM227 925h39l116 -134h-24z" />
    <glyph glyph-name="uni1E5A" unicode="&#x1e5a;" horiz-adv-x="597" 
d="M85 733h280q80 0 130.5 -41.5t50.5 -163.5q0 -196 -154 -208l158 -320h-41l-156 316h-20q-145 3 -207 6v-322h-41v733zM361 352q68 0 106 36t38 140q0 99 -39 133.5t-105 34.5h-235v-344h235zM269.5 -197q-3.5 4 -3.5 9v67q0 13 13 13h19q13 0 13 -13v-67q0 -6 -4 -9.5
t-9 -3.5h-19q-6 0 -9.5 4z" />
    <glyph glyph-name="uni0212" unicode="&#x212;" horiz-adv-x="597" 
d="M85 733h280q80 0 130.5 -41.5t50.5 -163.5q0 -196 -154 -208l158 -320h-41l-156 316h-20q-145 3 -207 6v-322h-41v733zM361 352q68 0 106 36t38 140q0 99 -39 133.5t-105 34.5h-235v-344h235zM376 896.5q36 -31.5 36 -104.5h-22q0 59 -28.5 87t-72.5 28
q-52 0 -80.5 -26.5t-28.5 -88.5h-22q0 74 36.5 105t91.5 31q54 0 90 -31.5z" />
    <glyph glyph-name="uni1E5E" unicode="&#x1e5e;" horiz-adv-x="597" 
d="M85 733h280q80 0 130.5 -41.5t50.5 -163.5q0 -196 -154 -208l158 -320h-41l-156 316h-20q-145 3 -207 6v-322h-41v733zM361 352q68 0 106 36t38 140q0 99 -39 133.5t-105 34.5h-235v-344h235zM156 -150h256v-25h-256v25z" />
    <glyph glyph-name="S" unicode="S" horiz-adv-x="572" 
d="M172.5 -1.5q-72.5 4.5 -104.5 10.5v29q75 -7 216 -7q85 0 133 28t48 103v63q0 61 -30.5 92.5t-98.5 31.5h-88q-87 0 -133.5 38t-46.5 125v45q0 98 50 140t150 42q39 0 104 -5.5t101 -11.5v-30q-7 0 -23 2q-19 1 -76.5 4.5t-103.5 3.5q-82 0 -122 -32t-40 -114v-42
q0 -69 35 -97t104 -28h91q84 0 125.5 -43.5t41.5 -118.5v-64q0 -169 -220 -169q-40 0 -112.5 4.5z" />
    <glyph glyph-name="Sacute" unicode="&#x15a;" horiz-adv-x="572" 
d="M172.5 -1.5q-72.5 4.5 -104.5 10.5v29q75 -7 216 -7q85 0 133 28t48 103v63q0 61 -30.5 92.5t-98.5 31.5h-88q-87 0 -133.5 38t-46.5 125v45q0 98 50 140t150 42q39 0 104 -5.5t101 -11.5v-30q-7 0 -23 2q-19 1 -76.5 4.5t-103.5 3.5q-82 0 -122 -32t-40 -114v-42
q0 -69 35 -97t104 -28h91q84 0 125.5 -43.5t41.5 -118.5v-64q0 -169 -220 -169q-40 0 -112.5 4.5zM387 925h39l-131 -134h-24z" />
    <glyph glyph-name="uni1E64" unicode="&#x1e64;" horiz-adv-x="572" 
d="M172.5 -1.5q-72.5 4.5 -104.5 10.5v29q75 -7 216 -7q85 0 133 28t48 103v63q0 61 -30.5 92.5t-98.5 31.5h-88q-87 0 -133.5 38t-46.5 125v45q0 98 50 140t150 42q39 0 104 -5.5t101 -11.5v-30q-7 0 -23 2q-19 1 -76.5 4.5t-103.5 3.5q-82 0 -122 -32t-40 -114v-42
q0 -69 35 -97t104 -28h91q84 0 125.5 -43.5t41.5 -118.5v-64q0 -169 -220 -169q-40 0 -112.5 4.5zM349 925h39l-131 -134h-24zM292.5 958q-3.5 4 -3.5 9v67q0 13 13 13h19q13 0 13 -13v-67q0 -6 -4 -9.5t-9 -3.5h-19q-6 0 -9.5 4z" />
    <glyph glyph-name="Scaron" unicode="&#x160;" horiz-adv-x="572" 
d="M172.5 -1.5q-72.5 4.5 -104.5 10.5v29q75 -7 216 -7q85 0 133 28t48 103v63q0 61 -30.5 92.5t-98.5 31.5h-88q-87 0 -133.5 38t-46.5 125v45q0 98 50 140t150 42q39 0 104 -5.5t101 -11.5v-30q-7 0 -23 2q-19 1 -76.5 4.5t-103.5 3.5q-82 0 -122 -32t-40 -114v-42
q0 -69 35 -97t104 -28h91q84 0 125.5 -43.5t41.5 -118.5v-64q0 -169 -220 -169q-40 0 -112.5 4.5zM147 923h27l106 -110l117 110h27l-129 -132h-31z" />
    <glyph glyph-name="uni1E66" unicode="&#x1e66;" horiz-adv-x="572" 
d="M172.5 -1.5q-72.5 4.5 -104.5 10.5v29q75 -7 216 -7q85 0 133 28t48 103v63q0 61 -30.5 92.5t-98.5 31.5h-88q-87 0 -133.5 38t-46.5 125v45q0 98 50 140t150 42q39 0 104 -5.5t101 -11.5v-30q-7 0 -23 2q-19 1 -76.5 4.5t-103.5 3.5q-82 0 -122 -32t-40 -114v-42
q0 -69 35 -97t104 -28h91q84 0 125.5 -43.5t41.5 -118.5v-64q0 -169 -220 -169q-40 0 -112.5 4.5zM147 923h27l106 -110l117 110h27l-129 -132h-31zM260.5 959q-3.5 4 -3.5 9v67q0 13 13 13h19q13 0 13 -13v-67q0 -6 -4 -9.5t-9 -3.5h-19q-6 0 -9.5 4z" />
    <glyph glyph-name="Scedilla" unicode="&#x15e;" horiz-adv-x="572" 
d="M463.5 345.5q41.5 -43.5 41.5 -118.5v-64q0 -92 -60.5 -130.5t-157.5 -38.5l-34 -51q40 -1 57.5 -17t17.5 -45q0 -31 -23.5 -48.5t-66.5 -17.5h-24v17l25 2q31 2 47 14.5t16 36.5q0 22 -16.5 34.5t-60.5 13.5l41 61q-51 2 -111 6t-87 9v29q75 -7 216 -7q85 0 133 28
t48 103v63q0 61 -30.5 92.5t-98.5 31.5h-88q-87 0 -133.5 38t-46.5 125v45q0 98 50 140t150 42q39 0 104 -5.5t101 -11.5v-30q-7 0 -23 2q-19 1 -76.5 4.5t-103.5 3.5q-82 0 -122 -32t-40 -114v-42q0 -69 35 -97t104 -28h91q84 0 125.5 -43.5z" />
    <glyph glyph-name="Scircumflex" unicode="&#x15c;" horiz-adv-x="572" 
d="M172.5 -1.5q-72.5 4.5 -104.5 10.5v29q75 -7 216 -7q85 0 133 28t48 103v63q0 61 -30.5 92.5t-98.5 31.5h-88q-87 0 -133.5 38t-46.5 125v45q0 98 50 140t150 42q39 0 104 -5.5t101 -11.5v-30q-7 0 -23 2q-19 1 -76.5 4.5t-103.5 3.5q-82 0 -122 -32t-40 -114v-42
q0 -69 35 -97t104 -28h91q84 0 125.5 -43.5t41.5 -118.5v-64q0 -169 -220 -169q-40 0 -112.5 4.5zM267 923h31l117 -132h-27l-106 110l-117 -110h-27z" />
    <glyph glyph-name="Scommaaccent" unicode="&#x218;" horiz-adv-x="572" 
d="M172.5 -1.5q-72.5 4.5 -104.5 10.5v29q75 -7 216 -7q85 0 133 28t48 103v63q0 61 -30.5 92.5t-98.5 31.5h-88q-87 0 -133.5 38t-46.5 125v45q0 98 50 140t150 42q39 0 104 -5.5t101 -11.5v-30q-7 0 -23 2q-19 1 -76.5 4.5t-103.5 3.5q-82 0 -122 -32t-40 -114v-42
q0 -69 35 -97t104 -28h91q84 0 125.5 -43.5t41.5 -118.5v-64q0 -169 -220 -169q-40 0 -112.5 4.5zM199 -178l31 4q30 3 46 11.5t24.5 32.5t7.5 73h27q0 -53 -8.5 -82t-31 -42t-66.5 -13h-30v16z" />
    <glyph glyph-name="uni1E60" unicode="&#x1e60;" horiz-adv-x="572" 
d="M172.5 -1.5q-72.5 4.5 -104.5 10.5v29q75 -7 216 -7q85 0 133 28t48 103v63q0 61 -30.5 92.5t-98.5 31.5h-88q-87 0 -133.5 38t-46.5 125v45q0 98 50 140t150 42q39 0 104 -5.5t101 -11.5v-30q-7 0 -23 2q-19 1 -76.5 4.5t-103.5 3.5q-82 0 -122 -32t-40 -114v-42
q0 -69 35 -97t104 -28h91q84 0 125.5 -43.5t41.5 -118.5v-64q0 -169 -220 -169q-40 0 -112.5 4.5zM260.5 833q-3.5 4 -3.5 9v67q0 13 13 13h19q13 0 13 -13v-67q0 -6 -4 -9.5t-9 -3.5h-19q-6 0 -9.5 4z" />
    <glyph glyph-name="uni1E62" unicode="&#x1e62;" horiz-adv-x="572" 
d="M172.5 -1.5q-72.5 4.5 -104.5 10.5v29q75 -7 216 -7q85 0 133 28t48 103v63q0 61 -30.5 92.5t-98.5 31.5h-88q-87 0 -133.5 38t-46.5 125v45q0 98 50 140t150 42q39 0 104 -5.5t101 -11.5v-30q-7 0 -23 2q-19 1 -76.5 4.5t-103.5 3.5q-82 0 -122 -32t-40 -114v-42
q0 -69 35 -97t104 -28h91q84 0 125.5 -43.5t41.5 -118.5v-64q0 -169 -220 -169q-40 0 -112.5 4.5zM259.5 -197q-3.5 4 -3.5 9v67q0 13 13 13h19q13 0 13 -13v-67q0 -6 -4 -9.5t-9 -3.5h-19q-6 0 -9.5 4z" />
    <glyph glyph-name="uni1E68" unicode="&#x1e68;" horiz-adv-x="572" 
d="M172.5 -1.5q-72.5 4.5 -104.5 10.5v29q75 -7 216 -7q85 0 133 28t48 103v63q0 61 -30.5 92.5t-98.5 31.5h-88q-87 0 -133.5 38t-46.5 125v45q0 98 50 140t150 42q39 0 104 -5.5t101 -11.5v-30q-7 0 -23 2q-19 1 -76.5 4.5t-103.5 3.5q-82 0 -122 -32t-40 -114v-42
q0 -69 35 -97t104 -28h91q84 0 125.5 -43.5t41.5 -118.5v-64q0 -169 -220 -169q-40 0 -112.5 4.5zM259.5 -197q-3.5 4 -3.5 9v67q0 13 13 13h19q13 0 13 -13v-67q0 -6 -4 -9.5t-9 -3.5h-19q-6 0 -9.5 4zM260.5 833q-3.5 4 -3.5 9v67q0 13 13 13h19q13 0 13 -13v-67
q0 -6 -4 -9.5t-9 -3.5h-19q-6 0 -9.5 4z" />
    <glyph glyph-name="uni1E9E" unicode="&#x1e9e;" horiz-adv-x="642" 
d="M533.5 343q41.5 -42 41.5 -117v-65q0 -167 -217 -167q-23 0 -69.5 4t-68.5 8v30q45 -5 135 -5q84 0 131.5 28t47.5 103v62q0 62 -31 93t-100 31h-120v37h20l184 296l17 15h-263q-55 0 -85 -29.5t-30 -90.5v-576h-41v576q0 82 43 119.5t109 37.5q55 0 125 -1t106 -2l77 -2
l-5 -16h5l-10 -15v-1l-194 -295l-32 -16h99q84 0 125.5 -42z" />
    <glyph glyph-name="uni018F" unicode="&#x18f;" horiz-adv-x="603" 
d="M168.5 28q-49.5 34 -72.5 108.5t-23 199.5v36h421q0 139 -20.5 208t-71 95.5t-150.5 26.5q-67 0 -107 -6t-47 -7v29q90 21 172 21q101 0 157 -28.5t82.5 -107t26.5 -231.5q0 -147 -28 -229.5t-79 -115.5t-129 -33q-82 0 -131.5 34zM405.5 57q41.5 26 64 93t23.5 187h-380
q1 -115 17.5 -181t56 -95.5t110.5 -29.5q67 0 108.5 26z" />
    <glyph glyph-name="T" unicode="T" horiz-adv-x="555" 
d="M257 696h-241v37h523v-37h-241v-696h-41v696z" />
    <glyph glyph-name="Tbar" unicode="&#x166;" horiz-adv-x="555" 
d="M298 696v-291h183v-29h-183v-376h-41v376h-184v29h184v291h-241v37h523v-37h-241z" />
    <glyph glyph-name="Tcaron" unicode="&#x164;" horiz-adv-x="555" 
d="M257 696h-241v37h523v-37h-241v-696h-41v696zM145 923h27l106 -110l117 110h27l-129 -132h-31z" />
    <glyph glyph-name="uni0162" unicode="&#x162;" horiz-adv-x="555" 
d="M289 0l-38 -57q40 -1 57.5 -17t17.5 -45q0 -31 -23.5 -48.5t-66.5 -17.5h-24v17l25 2q31 2 47 14.5t16 36.5q0 22 -16.5 34.5t-60.5 13.5l45 67h-11v696h-241v37h523v-37h-241v-696h-9z" />
    <glyph glyph-name="uni021A" unicode="&#x21a;" horiz-adv-x="555" 
d="M257 696h-241v37h523v-37h-241v-696h-41v696zM160 -178l31 4q30 3 46 11.5t24.5 32.5t7.5 73h27q0 -53 -8.5 -82t-31 -42t-66.5 -13h-30v16z" />
    <glyph glyph-name="uni1E6A" unicode="&#x1e6a;" horiz-adv-x="555" 
d="M257 696h-241v37h523v-37h-241v-696h-41v696zM258.5 833q-3.5 4 -3.5 9v67q0 13 13 13h19q13 0 13 -13v-67q0 -6 -4 -9.5t-9 -3.5h-19q-6 0 -9.5 4z" />
    <glyph glyph-name="uni1E6C" unicode="&#x1e6c;" horiz-adv-x="555" 
d="M257 696h-241v37h523v-37h-241v-696h-41v696zM257.5 -197q-3.5 4 -3.5 9v67q0 13 13 13h19q13 0 13 -13v-67q0 -6 -4 -9.5t-9 -3.5h-19q-6 0 -9.5 4z" />
    <glyph glyph-name="uni1E6E" unicode="&#x1e6e;" horiz-adv-x="555" 
d="M257 696h-241v37h523v-37h-241v-696h-41v696zM144 -150h256v-25h-256v25z" />
    <glyph glyph-name="U" unicode="U" horiz-adv-x="670" 
d="M139.5 45.5q-64.5 51.5 -64.5 177.5v510h41v-510q0 -108 54 -150t165 -42t165.5 42t54.5 150v510h41v-510q0 -126 -65 -177.5t-196 -51.5t-195.5 51.5z" />
    <glyph glyph-name="Uacute" unicode="&#xda;" horiz-adv-x="670" 
d="M139.5 45.5q-64.5 51.5 -64.5 177.5v510h41v-510q0 -108 54 -150t165 -42t165.5 42t54.5 150v510h41v-510q0 -126 -65 -177.5t-196 -51.5t-195.5 51.5zM441 925h39l-131 -134h-24z" />
    <glyph glyph-name="Ubreve" unicode="&#x16c;" horiz-adv-x="670" 
d="M139.5 45.5q-64.5 51.5 -64.5 177.5v510h41v-510q0 -108 54 -150t165 -42t165.5 42t54.5 150v510h41v-510q0 -126 -65 -177.5t-196 -51.5t-195.5 51.5zM237 823.5q-36 31.5 -36 104.5h22q0 -59 28.5 -87t72.5 -28q52 0 80.5 26.5t28.5 88.5h22q0 -74 -36.5 -105
t-91.5 -31q-54 0 -90 31.5z" />
    <glyph glyph-name="Ucircumflex" unicode="&#xdb;" horiz-adv-x="670" 
d="M139.5 45.5q-64.5 51.5 -64.5 177.5v510h41v-510q0 -108 54 -150t165 -42t165.5 42t54.5 150v510h41v-510q0 -126 -65 -177.5t-196 -51.5t-195.5 51.5zM321 923h31l117 -132h-27l-106 110l-117 -110h-27z" />
    <glyph glyph-name="uni0214" unicode="&#x214;" horiz-adv-x="670" 
d="M139.5 45.5q-64.5 51.5 -64.5 177.5v510h41v-510q0 -108 54 -150t165 -42t165.5 42t54.5 150v510h41v-510q0 -126 -65 -177.5t-196 -51.5t-195.5 51.5zM143 925h39l116 -134h-24zM271 925h39l116 -134h-24z" />
    <glyph glyph-name="Udieresis" unicode="&#xdc;" horiz-adv-x="670" 
d="M139.5 45.5q-64.5 51.5 -64.5 177.5v510h41v-510q0 -108 54 -150t165 -42t165.5 42t54.5 150v510h41v-510q0 -126 -65 -177.5t-196 -51.5t-195.5 51.5zM182.5 826q-3.5 4 -3.5 9v67q0 13 13 13h19q13 0 13 -13v-67q0 -13 -13 -13h-19q-6 0 -9.5 4zM431 826q-4 4 -4 9v67
q0 13 13 13h19q13 0 13 -13v-67q0 -13 -13 -13h-19q-5 0 -9 4z" />
    <glyph glyph-name="uni1EE4" unicode="&#x1ee4;" horiz-adv-x="670" 
d="M139.5 45.5q-64.5 51.5 -64.5 177.5v510h41v-510q0 -108 54 -150t165 -42t165.5 42t54.5 150v510h41v-510q0 -126 -65 -177.5t-196 -51.5t-195.5 51.5zM313.5 -197q-3.5 4 -3.5 9v67q0 13 13 13h19q13 0 13 -13v-67q0 -6 -4 -9.5t-9 -3.5h-19q-6 0 -9.5 4z" />
    <glyph glyph-name="Ugrave" unicode="&#xd9;" horiz-adv-x="670" 
d="M139.5 45.5q-64.5 51.5 -64.5 177.5v510h41v-510q0 -108 54 -150t165 -42t165.5 42t54.5 150v510h41v-510q0 -126 -65 -177.5t-196 -51.5t-195.5 51.5zM190 925h39l116 -134h-24z" />
    <glyph glyph-name="uni1EE6" unicode="&#x1ee6;" horiz-adv-x="670" 
d="M139.5 45.5q-64.5 51.5 -64.5 177.5v510h41v-510q0 -108 54 -150t165 -42t165.5 42t54.5 150v510h41v-510q0 -126 -65 -177.5t-196 -51.5t-195.5 51.5zM316 791q34 11 50 29t16 40q0 27 -13.5 40.5t-43.5 13.5q-19 0 -37 -6v20q17 6 42 6q38 0 57 -20t19 -54
q0 -29 -22.5 -53t-67.5 -37v21z" />
    <glyph glyph-name="Uhorn" unicode="&#x1af;" horiz-adv-x="670" 
d="M668.5 744q-28.5 -33 -72.5 -36v-485q0 -126 -65 -177.5t-196 -51.5t-195.5 51.5t-64.5 177.5v510h41v-510q0 -108 54 -150t165 -42t165.5 42t54.5 150v510h27q82 0 82 115h33q0 -71 -28.5 -104z" />
    <glyph glyph-name="uni1EE8" unicode="&#x1ee8;" horiz-adv-x="670" 
d="M668.5 744q-28.5 -33 -72.5 -36v-485q0 -126 -65 -177.5t-196 -51.5t-195.5 51.5t-64.5 177.5v510h41v-510q0 -108 54 -150t165 -42t165.5 42t54.5 150v510h27q82 0 82 115h33q0 -71 -28.5 -104zM429 925h39l-131 -134h-24z" />
    <glyph glyph-name="uni1EF0" unicode="&#x1ef0;" horiz-adv-x="670" 
d="M668.5 744q-28.5 -33 -72.5 -36v-485q0 -126 -65 -177.5t-196 -51.5t-195.5 51.5t-64.5 177.5v510h41v-510q0 -108 54 -150t165 -42t165.5 42t54.5 150v510h27q82 0 82 115h33q0 -71 -28.5 -104zM303.5 -197q-3.5 4 -3.5 9v67q0 13 13 13h19q13 0 13 -13v-67
q0 -6 -4 -9.5t-9 -3.5h-19q-6 0 -9.5 4z" />
    <glyph glyph-name="uni1EEA" unicode="&#x1eea;" horiz-adv-x="670" 
d="M668.5 744q-28.5 -33 -72.5 -36v-485q0 -126 -65 -177.5t-196 -51.5t-195.5 51.5t-64.5 177.5v510h41v-510q0 -108 54 -150t165 -42t165.5 42t54.5 150v510h27q82 0 82 115h33q0 -71 -28.5 -104zM196 925h39l116 -134h-24z" />
    <glyph glyph-name="uni1EEC" unicode="&#x1eec;" horiz-adv-x="670" 
d="M668.5 744q-28.5 -33 -72.5 -36v-485q0 -126 -65 -177.5t-196 -51.5t-195.5 51.5t-64.5 177.5v510h41v-510q0 -108 54 -150t165 -42t165.5 42t54.5 150v510h27q82 0 82 115h33q0 -71 -28.5 -104zM318 791q34 11 50 29t16 40q0 27 -13.5 40.5t-43.5 13.5q-19 0 -37 -6v20
q17 6 42 6q38 0 57 -20t19 -54q0 -29 -22.5 -53t-67.5 -37v21z" />
    <glyph glyph-name="uni1EEE" unicode="&#x1eee;" horiz-adv-x="670" 
d="M668.5 744q-28.5 -33 -72.5 -36v-485q0 -126 -65 -177.5t-196 -51.5t-195.5 51.5t-64.5 177.5v510h41v-510q0 -108 54 -150t165 -42t165.5 42t54.5 150v510h27q82 0 82 115h33q0 -71 -28.5 -104zM198.5 888.5q26.5 22.5 62.5 22.5q22 0 41 -9.5t47 -27.5
q27 -17 41.5 -24.5t31.5 -7.5q31 0 51 18.5t20 51.5h22q-1 -43 -25.5 -69t-67.5 -26q-20 0 -38 9t-45 26q-27 18 -43.5 26t-34.5 8q-29 0 -48 -17t-20 -52h-22q1 49 27.5 71.5z" />
    <glyph glyph-name="Uhungarumlaut" unicode="&#x170;" horiz-adv-x="670" 
d="M139.5 45.5q-64.5 51.5 -64.5 177.5v510h41v-510q0 -108 54 -150t165 -42t165.5 42t54.5 150v510h41v-510q0 -126 -65 -177.5t-196 -51.5t-195.5 51.5zM340 925h38l-129 -134h-24zM483 925h37l-128 -134h-24z" />
    <glyph glyph-name="uni0216" unicode="&#x216;" horiz-adv-x="670" 
d="M139.5 45.5q-64.5 51.5 -64.5 177.5v510h41v-510q0 -108 54 -150t165 -42t165.5 42t54.5 150v510h41v-510q0 -126 -65 -177.5t-196 -51.5t-195.5 51.5zM420 896.5q36 -31.5 36 -104.5h-22q0 59 -28.5 87t-72.5 28q-52 0 -80.5 -26.5t-28.5 -88.5h-22q0 74 36.5 105
t91.5 31q54 0 90 -31.5z" />
    <glyph glyph-name="Umacron" unicode="&#x16a;" horiz-adv-x="670" 
d="M139.5 45.5q-64.5 51.5 -64.5 177.5v510h41v-510q0 -108 54 -150t165 -42t165.5 42t54.5 150v510h41v-510q0 -126 -65 -177.5t-196 -51.5t-195.5 51.5zM199 870h256v-25h-256v25z" />
    <glyph glyph-name="uni1E7A" unicode="&#x1e7a;" horiz-adv-x="670" 
d="M139.5 45.5q-64.5 51.5 -64.5 177.5v510h41v-510q0 -108 54 -150t165 -42t165.5 42t54.5 150v510h41v-510q0 -126 -65 -177.5t-196 -51.5t-195.5 51.5zM199 870h256v-25h-256v25zM182.5 949q-3.5 4 -3.5 9v67q0 13 13 13h19q13 0 13 -13v-67q0 -13 -13 -13h-19
q-6 0 -9.5 4zM431 949q-4 4 -4 9v67q0 13 13 13h19q13 0 13 -13v-67q0 -13 -13 -13h-19q-5 0 -9 4z" />
    <glyph glyph-name="Uogonek" unicode="&#x172;" horiz-adv-x="670" 
d="M596 733v-510q0 -104 -44.5 -156.5t-132.5 -66.5q-35 -18 -53.5 -40.5t-18.5 -47.5q0 -35 24.5 -53.5t71.5 -18.5h6v-22q-8 -1 -23 -1q-47 0 -76 23.5t-29 63.5q0 26 18 50.5t55 42.5q-28 -3 -59 -3q-131 0 -195.5 51.5t-64.5 177.5v510h41v-510q0 -108 54 -150t165 -42
t165.5 42t54.5 150v510h41z" />
    <glyph glyph-name="Uring" unicode="&#x16e;" horiz-adv-x="670" 
d="M139.5 45.5q-64.5 51.5 -64.5 177.5v510h41v-510q0 -108 54 -150t165 -42t165.5 42t54.5 150v510h41v-510q0 -126 -65 -177.5t-196 -51.5t-195.5 51.5zM255 784.5q-26 23.5 -26 80.5t26 80.5t79 23.5t78 -23.5t25 -80.5t-25 -80.5t-78 -23.5t-79 23.5zM395.5 800
q18.5 18 18.5 65t-18.5 65t-61.5 18t-62.5 -18.5t-19.5 -64.5q0 -47 19.5 -65t62.5 -18t61.5 18z" />
    <glyph glyph-name="Utilde" unicode="&#x168;" horiz-adv-x="670" 
d="M139.5 45.5q-64.5 51.5 -64.5 177.5v510h41v-510q0 -108 54 -150t165 -42t165.5 42t54.5 150v510h41v-510q0 -126 -65 -177.5t-196 -51.5t-195.5 51.5zM198.5 888.5q26.5 22.5 62.5 22.5q22 0 41 -9.5t47 -27.5q27 -17 41.5 -24.5t31.5 -7.5q31 0 51 18.5t20 51.5h22
q-1 -43 -25.5 -69t-67.5 -26q-20 0 -38 9t-45 26q-27 18 -43.5 26t-34.5 8q-29 0 -48 -17t-20 -52h-22q1 49 27.5 71.5z" />
    <glyph glyph-name="uni1E78" unicode="&#x1e78;" horiz-adv-x="670" 
d="M139.5 45.5q-64.5 51.5 -64.5 177.5v510h41v-510q0 -108 54 -150t165 -42t165.5 42t54.5 150v510h41v-510q0 -126 -65 -177.5t-196 -51.5t-195.5 51.5zM198.5 888.5q26.5 22.5 62.5 22.5q22 0 41 -9.5t47 -27.5q27 -17 41.5 -24.5t31.5 -7.5q31 0 51 18.5t20 51.5h22
q-1 -43 -25.5 -69t-67.5 -26q-20 0 -38 9t-45 26q-27 18 -43.5 26t-34.5 8q-29 0 -48 -17t-20 -52h-22q1 49 27.5 71.5zM441 1075h39l-131 -134h-24z" />
    <glyph glyph-name="V" unicode="V" horiz-adv-x="669" 
d="M44 733h42l248 -693l249 693h42l-263 -733h-55z" />
    <glyph glyph-name="W" unicode="W" horiz-adv-x="991" 
d="M44 733h42l181 -685l205 685h48l205 -685l181 685h41l-195 -733h-50l-206 683l-207 -683h-50z" />
    <glyph glyph-name="Wacute" unicode="&#x1e82;" horiz-adv-x="991" 
d="M44 733h42l181 -685l205 685h48l205 -685l181 685h41l-195 -733h-50l-206 683l-207 -683h-50zM603 925h39l-131 -134h-24z" />
    <glyph glyph-name="Wcircumflex" unicode="&#x174;" horiz-adv-x="991" 
d="M44 733h42l181 -685l205 685h48l205 -685l181 685h41l-195 -733h-50l-206 683l-207 -683h-50zM483 923h31l117 -132h-27l-106 110l-117 -110h-27z" />
    <glyph glyph-name="Wdieresis" unicode="&#x1e84;" horiz-adv-x="991" 
d="M44 733h42l181 -685l205 685h48l205 -685l181 685h41l-195 -733h-50l-206 683l-207 -683h-50zM344.5 826q-3.5 4 -3.5 9v67q0 13 13 13h19q13 0 13 -13v-67q0 -13 -13 -13h-19q-6 0 -9.5 4zM593 826q-4 4 -4 9v67q0 13 13 13h19q13 0 13 -13v-67q0 -13 -13 -13h-19
q-5 0 -9 4z" />
    <glyph glyph-name="Wgrave" unicode="&#x1e80;" horiz-adv-x="991" 
d="M44 733h42l181 -685l205 685h48l205 -685l181 685h41l-195 -733h-50l-206 683l-207 -683h-50zM352 925h39l116 -134h-24z" />
    <glyph glyph-name="X" unicode="X" horiz-adv-x="601" 
d="M326 361l229 -361h-45l-210 332l-207 -332h-44l229 366l-232 367h44l214 -337l207 337h44z" />
    <glyph glyph-name="Y" unicode="Y" horiz-adv-x="612" 
d="M286 255l-240 478h43l218 -437l217 437h43l-240 -478v-255h-41v255z" />
    <glyph glyph-name="Yacute" unicode="&#xdd;" horiz-adv-x="612" 
d="M286 255l-240 478h43l218 -437l217 437h43l-240 -478v-255h-41v255zM414 925h39l-131 -134h-24z" />
    <glyph glyph-name="Ycircumflex" unicode="&#x176;" horiz-adv-x="612" 
d="M286 255l-240 478h43l218 -437l217 437h43l-240 -478v-255h-41v255zM294 923h31l117 -132h-27l-106 110l-117 -110h-27z" />
    <glyph glyph-name="Ydieresis" unicode="&#x178;" horiz-adv-x="612" 
d="M286 255l-240 478h43l218 -437l217 437h43l-240 -478v-255h-41v255zM155.5 826q-3.5 4 -3.5 9v67q0 13 13 13h19q13 0 13 -13v-67q0 -13 -13 -13h-19q-6 0 -9.5 4zM404 826q-4 4 -4 9v67q0 13 13 13h19q13 0 13 -13v-67q0 -13 -13 -13h-19q-5 0 -9 4z" />
    <glyph glyph-name="uni1E8E" unicode="&#x1e8e;" horiz-adv-x="612" 
d="M286 255l-240 478h43l218 -437l217 437h43l-240 -478v-255h-41v255zM286.5 -197q-3.5 4 -3.5 9v67q0 13 13 13h19q13 0 13 -13v-67q0 -6 -4 -9.5t-9 -3.5h-19q-6 0 -9.5 4z" />
    <glyph glyph-name="uni1EF4" unicode="&#x1ef4;" horiz-adv-x="612" 
d="M286 255l-240 478h43l218 -437l217 437h43l-240 -478v-255h-41v255zM286.5 -197q-3.5 4 -3.5 9v67q0 13 13 13h19q13 0 13 -13v-67q0 -6 -4 -9.5t-9 -3.5h-19q-6 0 -9.5 4z" />
    <glyph glyph-name="Ygrave" unicode="&#x1ef2;" horiz-adv-x="612" 
d="M286 255l-240 478h43l218 -437l217 437h43l-240 -478v-255h-41v255zM163 925h39l116 -134h-24z" />
    <glyph glyph-name="uni1EF6" unicode="&#x1ef6;" horiz-adv-x="612" 
d="M286 255l-240 478h43l218 -437l217 437h43l-240 -478v-255h-41v255zM289 791q34 11 50 29t16 40q0 27 -13.5 40.5t-43.5 13.5q-19 0 -37 -6v20q17 6 42 6q38 0 57 -20t19 -54q0 -29 -22.5 -53t-67.5 -37v21z" />
    <glyph glyph-name="uni0232" unicode="&#x232;" horiz-adv-x="612" 
d="M286 255l-240 478h43l218 -437l217 437h43l-240 -478v-255h-41v255zM172 870h256v-25h-256v25z" />
    <glyph glyph-name="uni1EF8" unicode="&#x1ef8;" horiz-adv-x="612" 
d="M286 255l-240 478h43l218 -437l217 437h43l-240 -478v-255h-41v255zM171.5 888.5q26.5 22.5 62.5 22.5q22 0 41 -9.5t47 -27.5q27 -17 41.5 -24.5t31.5 -7.5q31 0 51 18.5t20 51.5h22q-1 -43 -25.5 -69t-67.5 -26q-20 0 -38 9t-45 26q-27 18 -43.5 26t-34.5 8
q-29 0 -48 -17t-20 -52h-22q1 49 27.5 71.5z" />
    <glyph glyph-name="Z" unicode="Z" horiz-adv-x="552" 
d="M46 35l418 661h-418v37h468v-35l-418 -661h418v-37h-468v35z" />
    <glyph glyph-name="Zacute" unicode="&#x179;" horiz-adv-x="552" 
d="M46 35l418 661h-418v37h468v-35l-418 -661h418v-37h-468v35zM383 925h39l-131 -134h-24z" />
    <glyph glyph-name="Zcaron" unicode="&#x17d;" horiz-adv-x="552" 
d="M46 35l418 661h-418v37h468v-35l-418 -661h418v-37h-468v35zM143 923h27l106 -110l117 110h27l-129 -132h-31z" />
    <glyph glyph-name="Zdotaccent" unicode="&#x17b;" horiz-adv-x="552" 
d="M46 35l418 661h-418v37h468v-35l-418 -661h418v-37h-468v35zM256.5 833q-3.5 4 -3.5 9v67q0 13 13 13h19q13 0 13 -13v-67q0 -6 -4 -9.5t-9 -3.5h-19q-6 0 -9.5 4z" />
    <glyph glyph-name="uni1E92" unicode="&#x1e92;" horiz-adv-x="552" 
d="M46 35l418 661h-418v37h468v-35l-418 -661h418v-37h-468v35zM255.5 -197q-3.5 4 -3.5 9v67q0 13 13 13h19q13 0 13 -13v-67q0 -6 -4 -9.5t-9 -3.5h-19q-6 0 -9.5 4z" />
    <glyph glyph-name="M.salt" horiz-adv-x="819" 
d="M140.5 716.5q22.5 24.5 56.5 24.5q58 0 75 -70l113 -392q9 -30 32 -30q12 0 20 7.5t11 22.5l101 393q15 69 71 69q30 0 48.5 -23.5t22.5 -69.5l53 -648h-40l-53 650q-2 24 -11.5 38t-21.5 14q-11 0 -20 -11t-14 -31l-103 -398q-7 -27 -24 -41.5t-40 -14.5t-40 14t-25 42
l-113 398q-6 20 -17.5 31t-24.5 11q-16 0 -29 -14.5t-15 -37.5l-49 -650h-39l50 646q3 46 25.5 70.5z" />
    <glyph glyph-name="uni1E40.salt" horiz-adv-x="819" 
d="M140.5 716.5q22.5 24.5 56.5 24.5q58 0 75 -70l113 -392q9 -30 32 -30q12 0 20 7.5t11 22.5l101 393q15 69 71 69q30 0 48.5 -23.5t22.5 -69.5l53 -648h-40l-53 650q-2 24 -11.5 38t-21.5 14q-11 0 -20 -11t-14 -31l-103 -398q-7 -27 -24 -41.5t-40 -14.5t-40 14t-25 42
l-113 398q-6 20 -17.5 31t-24.5 11q-16 0 -29 -14.5t-15 -37.5l-49 -650h-39l50 646q3 46 25.5 70.5zM383.5 833q-3.5 4 -3.5 9v67q0 13 13 13h19q13 0 13 -13v-67q0 -6 -4 -9.5t-9 -3.5h-19q-6 0 -9.5 4z" />
    <glyph glyph-name="uni1E42.salt" horiz-adv-x="819" 
d="M140.5 716.5q22.5 24.5 56.5 24.5q58 0 75 -70l113 -392q9 -30 32 -30q12 0 20 7.5t11 22.5l101 393q15 69 71 69q30 0 48.5 -23.5t22.5 -69.5l53 -648h-40l-53 650q-2 24 -11.5 38t-21.5 14q-11 0 -20 -11t-14 -31l-103 -398q-7 -27 -24 -41.5t-40 -14.5t-40 14t-25 42
l-113 398q-6 20 -17.5 31t-24.5 11q-16 0 -29 -14.5t-15 -37.5l-49 -650h-39l50 646q3 46 25.5 70.5zM382.5 -197q-3.5 4 -3.5 9v67q0 13 13 13h19q13 0 13 -13v-67q0 -6 -4 -9.5t-9 -3.5h-19q-6 0 -9.5 4z" />
    <glyph glyph-name="N.salt" horiz-adv-x="705" 
d="M127.5 717.5q24.5 22.5 65.5 22.5q35 0 55.5 -17t32.5 -53l211 -597q8 -21 20.5 -30.5t33.5 -9.5q51 0 51 57v643h41v-644q0 -95 -91 -95q-35 0 -56.5 16t-33.5 51l-211 598q-16 42 -50 42q-25 0 -38.5 -14t-13.5 -48v-639h-41v643q0 52 24.5 74.5z" />
    <glyph glyph-name="Nacute.salt" horiz-adv-x="705" 
d="M127.5 717.5q24.5 22.5 65.5 22.5q35 0 55.5 -17t32.5 -53l211 -597q8 -21 20.5 -30.5t33.5 -9.5q51 0 51 57v643h41v-644q0 -95 -91 -95q-35 0 -56.5 16t-33.5 51l-211 598q-16 42 -50 42q-25 0 -38.5 -14t-13.5 -48v-639h-41v643q0 52 24.5 74.5zM473 925h39l-131 -134
h-24z" />
    <glyph glyph-name="Ncaron.salt" horiz-adv-x="705" 
d="M127.5 717.5q24.5 22.5 65.5 22.5q35 0 55.5 -17t32.5 -53l211 -597q8 -21 20.5 -30.5t33.5 -9.5q51 0 51 57v643h41v-644q0 -95 -91 -95q-35 0 -56.5 16t-33.5 51l-211 598q-16 42 -50 42q-25 0 -38.5 -14t-13.5 -48v-639h-41v643q0 52 24.5 74.5zM233 923h27l106 -110
l117 110h27l-129 -132h-31z" />
    <glyph glyph-name="Ncommaaccent.salt" horiz-adv-x="705" 
d="M127.5 717.5q24.5 22.5 65.5 22.5q35 0 55.5 -17t32.5 -53l211 -597q8 -21 20.5 -30.5t33.5 -9.5q51 0 51 57v643h41v-644q0 -95 -91 -95q-35 0 -56.5 16t-33.5 51l-211 598q-16 42 -50 42q-25 0 -38.5 -14t-13.5 -48v-639h-41v643q0 52 24.5 74.5zM283 -178l31 4
q30 3 46 11.5t24.5 32.5t7.5 73h27q0 -53 -8.5 -82t-31 -42t-66.5 -13h-30v16z" />
    <glyph glyph-name="uni1E44.salt" horiz-adv-x="705" 
d="M127.5 717.5q24.5 22.5 65.5 22.5q35 0 55.5 -17t32.5 -53l211 -597q8 -21 20.5 -30.5t33.5 -9.5q51 0 51 57v643h41v-644q0 -95 -91 -95q-35 0 -56.5 16t-33.5 51l-211 598q-16 42 -50 42q-25 0 -38.5 -14t-13.5 -48v-639h-41v643q0 52 24.5 74.5zM343.5 -197
q-3.5 4 -3.5 9v67q0 13 13 13h19q13 0 13 -13v-67q0 -6 -4 -9.5t-9 -3.5h-19q-6 0 -9.5 4z" />
    <glyph glyph-name="uni1E46.salt" horiz-adv-x="705" 
d="M127.5 717.5q24.5 22.5 65.5 22.5q35 0 55.5 -17t32.5 -53l211 -597q8 -21 20.5 -30.5t33.5 -9.5q51 0 51 57v643h41v-644q0 -95 -91 -95q-35 0 -56.5 16t-33.5 51l-211 598q-16 42 -50 42q-25 0 -38.5 -14t-13.5 -48v-639h-41v643q0 52 24.5 74.5zM343.5 -197
q-3.5 4 -3.5 9v67q0 13 13 13h19q13 0 13 -13v-67q0 -6 -4 -9.5t-9 -3.5h-19q-6 0 -9.5 4z" />
    <glyph glyph-name="uni1E48.salt" horiz-adv-x="705" 
d="M127.5 717.5q24.5 22.5 65.5 22.5q35 0 55.5 -17t32.5 -53l211 -597q8 -21 20.5 -30.5t33.5 -9.5q51 0 51 57v643h41v-644q0 -95 -91 -95q-35 0 -56.5 16t-33.5 51l-211 598q-16 42 -50 42q-25 0 -38.5 -14t-13.5 -48v-639h-41v643q0 52 24.5 74.5zM230 -150h256v-25
h-256v25z" />
    <glyph glyph-name="Ntilde.salt" horiz-adv-x="705" 
d="M127.5 717.5q24.5 22.5 65.5 22.5q35 0 55.5 -17t32.5 -53l211 -597q8 -21 20.5 -30.5t33.5 -9.5q51 0 51 57v643h41v-644q0 -95 -91 -95q-35 0 -56.5 16t-33.5 51l-211 598q-16 42 -50 42q-25 0 -38.5 -14t-13.5 -48v-639h-41v643q0 52 24.5 74.5zM230.5 888.5
q26.5 22.5 62.5 22.5q22 0 41 -9.5t47 -27.5q27 -17 41.5 -24.5t31.5 -7.5q31 0 51 18.5t20 51.5h22q-1 -43 -25.5 -69t-67.5 -26q-20 0 -38 9t-45 26q-27 18 -43.5 26t-34.5 8q-29 0 -48 -17t-20 -52h-22q1 49 27.5 71.5z" />
    <glyph glyph-name="W.salt" horiz-adv-x="997" 
d="M325 44l230 689h44l-83 -256l158 -433l238 689h41l-250 -733h-56l-151 417l-145 -417h-56l-251 733h43z" />
    <glyph glyph-name="Wacute.salt" horiz-adv-x="997" 
d="M325 44l230 689h44l-83 -256l158 -433l238 689h41l-250 -733h-56l-151 417l-145 -417h-56l-251 733h43zM630 925h39l-131 -134h-24z" />
    <glyph glyph-name="Wcircumflex.salt" horiz-adv-x="997" 
d="M325 44l230 689h44l-83 -256l158 -433l238 689h41l-250 -733h-56l-151 417l-145 -417h-56l-251 733h43zM510 923h31l117 -132h-27l-106 110l-117 -110h-27z" />
    <glyph glyph-name="Wdieresis.salt" horiz-adv-x="997" 
d="M325 44l230 689h44l-83 -256l158 -433l238 689h41l-250 -733h-56l-151 417l-145 -417h-56l-251 733h43zM371.5 826q-3.5 4 -3.5 9v67q0 13 13 13h19q13 0 13 -13v-67q0 -13 -13 -13h-19q-6 0 -9.5 4zM620 826q-4 4 -4 9v67q0 13 13 13h19q13 0 13 -13v-67q0 -13 -13 -13
h-19q-5 0 -9 4z" />
    <glyph glyph-name="Wgrave.salt" horiz-adv-x="997" 
d="M325 44l230 689h44l-83 -256l158 -433l238 689h41l-250 -733h-56l-151 417l-145 -417h-56l-251 733h43zM379 925h39l116 -134h-24z" />
    <glyph glyph-name="X.salt" horiz-adv-x="604" 
d="M243 367q0 26 -10.5 53.5t-30.5 58.5l-156 254h43l148 -238q46 -73 46 -128t-35 -114l-155 -253h-45l162 267q33 52 33 100zM326 367q0 31 12.5 62t33.5 66l144 238h43l-152 -254q-19 -31 -30 -58.5t-11 -53.5q0 -52 29 -100l164 -267h-44l-155 252q-34 54 -34 115z" />
    <glyph glyph-name="a" unicode="a" horiz-adv-x="541" 
d="M88.5 29.5q-37.5 35.5 -37.5 97.5v33q0 65 42 103t120 38h205v82q0 61 -33 92.5t-117 31.5h-169v25q101 9 182 9q93 0 135.5 -39t42.5 -118v-384h-30l-10 63q-5 -4 -46.5 -21.5t-93 -32.5t-94.5 -15q-59 0 -96.5 35.5zM281 41.5q49 12.5 87.5 26t49.5 18.5v191l-204 -6
q-64 -3 -93 -32.5t-29 -78.5v-26q0 -55 32 -80t75 -25q33 0 82 12.5z" />
    <glyph glyph-name="aacute" unicode="&#xe1;" horiz-adv-x="541" 
d="M88.5 29.5q-37.5 35.5 -37.5 97.5v33q0 65 42 103t120 38h205v82q0 61 -33 92.5t-117 31.5h-169v25q101 9 182 9q93 0 135.5 -39t42.5 -118v-384h-30l-10 63q-5 -4 -46.5 -21.5t-93 -32.5t-94.5 -15q-59 0 -96.5 35.5zM281 41.5q49 12.5 87.5 26t49.5 18.5v191l-204 -6
q-64 -3 -93 -32.5t-29 -78.5v-26q0 -55 32 -80t75 -25q33 0 82 12.5zM359 765h39l-131 -134h-24z" />
    <glyph glyph-name="abreve" unicode="&#x103;" horiz-adv-x="541" 
d="M88.5 29.5q-37.5 35.5 -37.5 97.5v33q0 65 42 103t120 38h205v82q0 61 -33 92.5t-117 31.5h-169v25q101 9 182 9q93 0 135.5 -39t42.5 -118v-384h-30l-10 63q-5 -4 -46.5 -21.5t-93 -32.5t-94.5 -15q-59 0 -96.5 35.5zM281 41.5q49 12.5 87.5 26t49.5 18.5v191l-204 -6
q-64 -3 -93 -32.5t-29 -78.5v-26q0 -55 32 -80t75 -25q33 0 82 12.5zM173 663.5q-36 31.5 -36 104.5h22q0 -59 28.5 -87t72.5 -28q52 0 80.5 26.5t28.5 88.5h22q0 -74 -36.5 -105t-91.5 -31q-54 0 -90 31.5z" />
    <glyph glyph-name="uni1EAF" unicode="&#x1eaf;" horiz-adv-x="541" 
d="M88.5 29.5q-37.5 35.5 -37.5 97.5v33q0 65 42 103t120 38h205v82q0 61 -33 92.5t-117 31.5h-169v25q101 9 182 9q93 0 135.5 -39t42.5 -118v-384h-30l-10 63q-5 -4 -46.5 -21.5t-93 -32.5t-94.5 -15q-59 0 -96.5 35.5zM281 41.5q49 12.5 87.5 26t49.5 18.5v191l-204 -6
q-64 -3 -93 -32.5t-29 -78.5v-26q0 -55 32 -80t75 -25q33 0 82 12.5zM358 868h39l-131 -134h-24zM186.5 671q28.5 -21 73.5 -21q109 0 109 86h22q0 -58 -36 -82t-92 -24q-55 0 -90.5 25t-35.5 81h21q0 -44 28.5 -65z" />
    <glyph glyph-name="uni1EB7" unicode="&#x1eb7;" horiz-adv-x="541" 
d="M88.5 29.5q-37.5 35.5 -37.5 97.5v33q0 65 42 103t120 38h205v82q0 61 -33 92.5t-117 31.5h-169v25q101 9 182 9q93 0 135.5 -39t42.5 -118v-384h-30l-10 63q-5 -4 -46.5 -21.5t-93 -32.5t-94.5 -15q-59 0 -96.5 35.5zM281 41.5q49 12.5 87.5 26t49.5 18.5v191l-204 -6
q-64 -3 -93 -32.5t-29 -78.5v-26q0 -55 32 -80t75 -25q33 0 82 12.5zM173 663.5q-36 31.5 -36 104.5h22q0 -59 28.5 -87t72.5 -28q52 0 80.5 26.5t28.5 88.5h22q0 -74 -36.5 -105t-91.5 -31q-54 0 -90 31.5zM245 -188v67q0 13 13 13h19q13 0 13 -13v-67q0 -13 -13 -13h-19
q-13 0 -13 13z" />
    <glyph glyph-name="uni1EB1" unicode="&#x1eb1;" horiz-adv-x="541" 
d="M88.5 29.5q-37.5 35.5 -37.5 97.5v33q0 65 42 103t120 38h205v82q0 61 -33 92.5t-117 31.5h-169v25q101 9 182 9q93 0 135.5 -39t42.5 -118v-384h-30l-10 63q-5 -4 -46.5 -21.5t-93 -32.5t-94.5 -15q-59 0 -96.5 35.5zM281 41.5q49 12.5 87.5 26t49.5 18.5v191l-204 -6
q-64 -3 -93 -32.5t-29 -78.5v-26q0 -55 32 -80t75 -25q33 0 82 12.5zM141 868h39l116 -134h-24zM186.5 671q28.5 -21 73.5 -21q109 0 109 86h22q0 -58 -36 -82t-92 -24q-55 0 -90.5 25t-35.5 81h21q0 -44 28.5 -65z" />
    <glyph glyph-name="uni1EB3" unicode="&#x1eb3;" horiz-adv-x="541" 
d="M88.5 29.5q-37.5 35.5 -37.5 97.5v33q0 65 42 103t120 38h205v82q0 61 -33 92.5t-117 31.5h-169v25q101 9 182 9q93 0 135.5 -39t42.5 -118v-384h-30l-10 63q-5 -4 -46.5 -21.5t-93 -32.5t-94.5 -15q-59 0 -96.5 35.5zM281 41.5q49 12.5 87.5 26t49.5 18.5v191l-204 -6
q-64 -3 -93 -32.5t-29 -78.5v-26q0 -55 32 -80t75 -25q33 0 82 12.5zM249 714q34 11 50 29t16 40q0 27 -13.5 40.5t-43.5 13.5q-19 0 -37 -6v20q17 6 42 6q38 0 57 -20t19 -54q0 -29 -22.5 -53t-67.5 -37v21zM172.5 655q-35.5 25 -35.5 81h21q0 -44 28.5 -65t73.5 -21
q109 0 109 86h22q0 -58 -36 -82t-92 -24q-55 0 -90.5 25z" />
    <glyph glyph-name="uni1EB5" unicode="&#x1eb5;" horiz-adv-x="541" 
d="M88.5 29.5q-37.5 35.5 -37.5 97.5v33q0 65 42 103t120 38h205v82q0 61 -33 92.5t-117 31.5h-169v25q101 9 182 9q93 0 135.5 -39t42.5 -118v-384h-30l-10 63q-5 -4 -46.5 -21.5t-93 -32.5t-94.5 -15q-59 0 -96.5 35.5zM281 41.5q49 12.5 87.5 26t49.5 18.5v191l-204 -6
q-64 -3 -93 -32.5t-29 -78.5v-26q0 -55 32 -80t75 -25q33 0 82 12.5zM228.5 837.5q18.5 -6.5 44.5 -19.5q25 -12 40.5 -18t32.5 -6q27 0 44.5 13t17.5 37h22q-1 -34 -22.5 -53.5t-59.5 -19.5q-19 0 -36 6t-42 18q-23 12 -41 18.5t-38 6.5q-25 0 -42 -12.5t-17 -37.5h-22
q1 39 24 56.5t55 17.5q21 0 39.5 -6.5zM186.5 671q28.5 -21 73.5 -21q109 0 109 86h22q0 -58 -36 -82t-92 -24q-55 0 -90.5 25t-35.5 81h21q0 -44 28.5 -65z" />
    <glyph glyph-name="acircumflex" unicode="&#xe2;" horiz-adv-x="541" 
d="M88.5 29.5q-37.5 35.5 -37.5 97.5v33q0 65 42 103t120 38h205v82q0 61 -33 92.5t-117 31.5h-169v25q101 9 182 9q93 0 135.5 -39t42.5 -118v-384h-30l-10 63q-5 -4 -46.5 -21.5t-93 -32.5t-94.5 -15q-59 0 -96.5 35.5zM281 41.5q49 12.5 87.5 26t49.5 18.5v191l-204 -6
q-64 -3 -93 -32.5t-29 -78.5v-26q0 -55 32 -80t75 -25q33 0 82 12.5zM257 763h31l117 -132h-27l-106 110l-117 -110h-27z" />
    <glyph glyph-name="uni1EA5" unicode="&#x1ea5;" horiz-adv-x="541" 
d="M88.5 29.5q-37.5 35.5 -37.5 97.5v33q0 65 42 103t120 38h205v82q0 61 -33 92.5t-117 31.5h-169v25q101 9 182 9q93 0 135.5 -39t42.5 -118v-384h-30l-10 63q-5 -4 -46.5 -21.5t-93 -32.5t-94.5 -15q-59 0 -96.5 35.5zM281 41.5q49 12.5 87.5 26t49.5 18.5v191l-204 -6
q-64 -3 -93 -32.5t-29 -78.5v-26q0 -55 32 -80t75 -25q33 0 82 12.5zM498 835l-126 -132h-24l111 132h39zM288 724l117 -93h-28l-105 71l-117 -71h-27l129 93h31z" />
    <glyph glyph-name="uni1EAD" unicode="&#x1ead;" horiz-adv-x="541" 
d="M88.5 29.5q-37.5 35.5 -37.5 97.5v33q0 65 42 103t120 38h205v82q0 61 -33 92.5t-117 31.5h-169v25q101 9 182 9q93 0 135.5 -39t42.5 -118v-384h-30l-10 63q-5 -4 -46.5 -21.5t-93 -32.5t-94.5 -15q-59 0 -96.5 35.5zM281 41.5q49 12.5 87.5 26t49.5 18.5v191l-204 -6
q-64 -3 -93 -32.5t-29 -78.5v-26q0 -55 32 -80t75 -25q33 0 82 12.5zM257 763h31l117 -132h-27l-106 110l-117 -110h-27zM245 -188v67q0 13 13 13h19q13 0 13 -13v-67q0 -13 -13 -13h-19q-13 0 -13 13z" />
    <glyph glyph-name="uni1EA7" unicode="&#x1ea7;" horiz-adv-x="541" 
d="M88.5 29.5q-37.5 35.5 -37.5 97.5v33q0 65 42 103t120 38h205v82q0 61 -33 92.5t-117 31.5h-169v25q101 9 182 9q93 0 135.5 -39t42.5 -118v-384h-30l-10 63q-5 -4 -46.5 -21.5t-93 -32.5t-94.5 -15q-59 0 -96.5 35.5zM281 41.5q49 12.5 87.5 26t49.5 18.5v191l-204 -6
q-64 -3 -93 -32.5t-29 -78.5v-26q0 -55 32 -80t75 -25q33 0 82 12.5zM80 835l111 -132h-24l-126 132h39zM288 724l117 -93h-28l-105 71l-117 -71h-27l129 93h31z" />
    <glyph glyph-name="uni1EA9" unicode="&#x1ea9;" horiz-adv-x="541" 
d="M88.5 29.5q-37.5 35.5 -37.5 97.5v33q0 65 42 103t120 38h205v82q0 61 -33 92.5t-117 31.5h-169v25q101 9 182 9q93 0 135.5 -39t42.5 -118v-384h-30l-10 63q-5 -4 -46.5 -21.5t-93 -32.5t-94.5 -15q-59 0 -96.5 35.5zM281 41.5q49 12.5 87.5 26t49.5 18.5v191l-204 -6
q-64 -3 -93 -32.5t-29 -78.5v-26q0 -55 32 -80t75 -25q33 0 82 12.5zM371 702q60 19 60 60q0 44 -51 44q-19 0 -37 -6v19q20 7 42 7q35 0 52 -17t17 -47q0 -26 -21 -48t-62 -33v21zM257 724h31l117 -93h-28l-105 71l-117 -71h-27z" />
    <glyph glyph-name="uni1EAB" unicode="&#x1eab;" horiz-adv-x="541" 
d="M88.5 29.5q-37.5 35.5 -37.5 97.5v33q0 65 42 103t120 38h205v82q0 61 -33 92.5t-117 31.5h-169v25q101 9 182 9q93 0 135.5 -39t42.5 -118v-384h-30l-10 63q-5 -4 -46.5 -21.5t-93 -32.5t-94.5 -15q-59 0 -96.5 35.5zM281 41.5q49 12.5 87.5 26t49.5 18.5v191l-204 -6
q-64 -3 -93 -32.5t-29 -78.5v-26q0 -55 32 -80t75 -25q33 0 82 12.5zM228.5 839.5q18.5 -6.5 44.5 -19.5q25 -12 40.5 -18t32.5 -6q27 0 44.5 13t17.5 37h22q-1 -34 -22.5 -53.5t-59.5 -19.5q-20 0 -38 6.5t-41 18.5q-24 12 -42 18t-37 6q-25 0 -41.5 -12.5t-16.5 -37.5h-22
q1 39 24 56.5t55 17.5q21 0 39.5 -6.5zM405 631h-28l-105 71l-117 -71h-27l129 93h31z" />
    <glyph glyph-name="uni0201" unicode="&#x201;" horiz-adv-x="541" 
d="M88.5 29.5q-37.5 35.5 -37.5 97.5v33q0 65 42 103t120 38h205v82q0 61 -33 92.5t-117 31.5h-169v25q101 9 182 9q93 0 135.5 -39t42.5 -118v-384h-30l-10 63q-5 -4 -46.5 -21.5t-93 -32.5t-94.5 -15q-59 0 -96.5 35.5zM281 41.5q49 12.5 87.5 26t49.5 18.5v191l-204 -6
q-64 -3 -93 -32.5t-29 -78.5v-26q0 -55 32 -80t75 -25q33 0 82 12.5zM85 765h39l115 -134h-24zM213 765h39l115 -134h-24z" />
    <glyph glyph-name="adieresis" unicode="&#xe4;" horiz-adv-x="541" 
d="M88.5 29.5q-37.5 35.5 -37.5 97.5v33q0 65 42 103t120 38h205v82q0 61 -33 92.5t-117 31.5h-169v25q101 9 182 9q93 0 135.5 -39t42.5 -118v-384h-30l-10 63q-5 -4 -46.5 -21.5t-93 -32.5t-94.5 -15q-59 0 -96.5 35.5zM281 41.5q49 12.5 87.5 26t49.5 18.5v191l-204 -6
q-64 -3 -93 -32.5t-29 -78.5v-26q0 -55 32 -80t75 -25q33 0 82 12.5zM154 666q-4 4 -4 9v67q0 13 13 13h19q13 0 13 -13v-67q0 -13 -13 -13h-19q-5 0 -9 4zM348 666q-4 4 -4 9v67q0 13 14 13h18q14 0 14 -13v-67q0 -6 -4 -9.5t-10 -3.5h-18q-6 0 -10 4z" />
    <glyph glyph-name="uni1EA1" unicode="&#x1ea1;" horiz-adv-x="541" 
d="M88.5 29.5q-37.5 35.5 -37.5 97.5v33q0 65 42 103t120 38h205v82q0 61 -33 92.5t-117 31.5h-169v25q101 9 182 9q93 0 135.5 -39t42.5 -118v-384h-30l-10 63q-5 -4 -46.5 -21.5t-93 -32.5t-94.5 -15q-59 0 -96.5 35.5zM281 41.5q49 12.5 87.5 26t49.5 18.5v191l-204 -6
q-64 -3 -93 -32.5t-29 -78.5v-26q0 -55 32 -80t75 -25q33 0 82 12.5zM245 -188v67q0 13 13 13h19q13 0 13 -13v-67q0 -13 -13 -13h-19q-13 0 -13 13z" />
    <glyph glyph-name="agrave" unicode="&#xe0;" horiz-adv-x="541" 
d="M88.5 29.5q-37.5 35.5 -37.5 97.5v33q0 65 42 103t120 38h205v82q0 61 -33 92.5t-117 31.5h-169v25q101 9 182 9q93 0 135.5 -39t42.5 -118v-384h-30l-10 63q-5 -4 -46.5 -21.5t-93 -32.5t-94.5 -15q-59 0 -96.5 35.5zM281 41.5q49 12.5 87.5 26t49.5 18.5v191l-204 -6
q-64 -3 -93 -32.5t-29 -78.5v-26q0 -55 32 -80t75 -25q33 0 82 12.5zM144 765h39l116 -134h-24z" />
    <glyph glyph-name="uni1EA3" unicode="&#x1ea3;" horiz-adv-x="541" 
d="M88.5 29.5q-37.5 35.5 -37.5 97.5v33q0 65 42 103t120 38h205v82q0 61 -33 92.5t-117 31.5h-169v25q101 9 182 9q93 0 135.5 -39t42.5 -118v-384h-30l-10 63q-5 -4 -46.5 -21.5t-93 -32.5t-94.5 -15q-59 0 -96.5 35.5zM281 41.5q49 12.5 87.5 26t49.5 18.5v191l-204 -6
q-64 -3 -93 -32.5t-29 -78.5v-26q0 -55 32 -80t75 -25q33 0 82 12.5zM257 629q34 11 50 29t16 40q0 27 -13.5 40.5t-43.5 13.5q-19 0 -37 -6v20q17 6 42 6q38 0 57 -20t19 -54q0 -29 -22.5 -53t-67.5 -37v21z" />
    <glyph glyph-name="uni0203" unicode="&#x203;" horiz-adv-x="541" 
d="M88.5 29.5q-37.5 35.5 -37.5 97.5v33q0 65 42 103t120 38h205v82q0 61 -33 92.5t-117 31.5h-169v25q101 9 182 9q93 0 135.5 -39t42.5 -118v-384h-30l-10 63q-5 -4 -46.5 -21.5t-93 -32.5t-94.5 -15q-59 0 -96.5 35.5zM281 41.5q49 12.5 87.5 26t49.5 18.5v191l-204 -6
q-64 -3 -93 -32.5t-29 -78.5v-26q0 -55 32 -80t75 -25q33 0 82 12.5zM356 736.5q36 -31.5 36 -104.5h-22q0 59 -28.5 87t-72.5 28q-52 0 -80.5 -26.5t-28.5 -88.5h-22q0 74 36.5 105t91.5 31q54 0 90 -31.5z" />
    <glyph glyph-name="amacron" unicode="&#x101;" horiz-adv-x="541" 
d="M88.5 29.5q-37.5 35.5 -37.5 97.5v33q0 65 42 103t120 38h205v82q0 61 -33 92.5t-117 31.5h-169v25q101 9 182 9q93 0 135.5 -39t42.5 -118v-384h-30l-10 63q-5 -4 -46.5 -21.5t-93 -32.5t-94.5 -15q-59 0 -96.5 35.5zM281 41.5q49 12.5 87.5 26t49.5 18.5v191l-204 -6
q-64 -3 -93 -32.5t-29 -78.5v-26q0 -55 32 -80t75 -25q33 0 82 12.5zM141 710h256v-25h-256v25z" />
    <glyph glyph-name="aogonek" unicode="&#x105;" horiz-adv-x="541" 
d="M489 -160v-22q-8 -1 -23 -1q-47 0 -76 23.5t-29 63.5q0 28 20 53t60 43h-12l-10 63q-5 -4 -46.5 -21.5t-93 -32.5t-94.5 -15q-59 0 -96.5 35.5t-37.5 97.5v33q0 65 42 103t120 38h205v82q0 61 -33 92.5t-117 31.5h-169v25q101 9 182 9q93 0 135.5 -39t42.5 -118v-384
q-35 -18 -53.5 -40.5t-18.5 -47.5q0 -35 24.5 -53.5t71.5 -18.5h6zM418 277l-204 -6q-64 -3 -93 -32.5t-29 -78.5v-26q0 -55 32 -80t75 -25q33 0 82 12.5t87.5 26t49.5 18.5v191z" />
    <glyph glyph-name="aring" unicode="&#xe5;" horiz-adv-x="541" 
d="M88.5 29.5q-37.5 35.5 -37.5 97.5v33q0 65 42 103t120 38h205v82q0 61 -33 92.5t-117 31.5h-169v25q101 9 182 9q93 0 135.5 -39t42.5 -118v-384h-30l-10 63q-5 -4 -46.5 -21.5t-93 -32.5t-94.5 -15q-59 0 -96.5 35.5zM281 41.5q49 12.5 87.5 26t49.5 18.5v191l-204 -6
q-64 -3 -93 -32.5t-29 -78.5v-26q0 -55 32 -80t75 -25q33 0 82 12.5zM191 621.5q-26 23.5 -26 80.5t26 80.5t79 23.5t78 -23.5t25 -80.5t-25 -80.5t-78 -23.5t-79 23.5zM331.5 637q18.5 18 18.5 65t-18.5 65t-61.5 18t-62.5 -18.5t-19.5 -64.5q0 -47 19.5 -65t62.5 -18
t61.5 18z" />
    <glyph glyph-name="aringacute" unicode="&#x1fb;" horiz-adv-x="541" 
d="M191 621.5q-26 23.5 -26 80.5q0 55 25 79t76 25l103 119h39l-117 -120q42 -4 62 -28t20 -75q0 -57 -25 -80.5t-78 -23.5t-79 23.5zM207.5 766.5q-19.5 -18.5 -19.5 -64.5q0 -47 19.5 -65t62.5 -18t61.5 18t18.5 65t-18.5 65t-61.5 18t-62.5 -18.5zM416.5 502
q42.5 -39 42.5 -118v-384h-30l-10 63q-5 -4 -46.5 -21.5t-93 -32.5t-94.5 -15q-59 0 -96.5 35.5t-37.5 97.5v33q0 65 42 103t120 38h205v82q0 61 -33 92.5t-117 31.5h-169v25q101 9 182 9q93 0 135.5 -39zM418 277l-204 -6q-64 -3 -93 -32.5t-29 -78.5v-26q0 -55 32 -80
t75 -25q33 0 82 12.5t87.5 26t49.5 18.5v191z" />
    <glyph glyph-name="atilde" unicode="&#xe3;" horiz-adv-x="541" 
d="M88.5 29.5q-37.5 35.5 -37.5 97.5v33q0 65 42 103t120 38h205v82q0 61 -33 92.5t-117 31.5h-169v25q101 9 182 9q93 0 135.5 -39t42.5 -118v-384h-30l-10 63q-5 -4 -46.5 -21.5t-93 -32.5t-94.5 -15q-59 0 -96.5 35.5zM281 41.5q49 12.5 87.5 26t49.5 18.5v191l-204 -6
q-64 -3 -93 -32.5t-29 -78.5v-26q0 -55 32 -80t75 -25q33 0 82 12.5zM140.5 728.5q26.5 22.5 62.5 22.5q22 0 41 -9.5t47 -27.5q27 -17 42 -24.5t31 -7.5q31 0 51 18.5t20 51.5h22q-1 -43 -25.5 -69t-67.5 -26q-20 0 -38 9t-45 26q-27 18 -43.5 26t-34.5 8q-29 0 -48 -17
t-20 -52h-22q1 49 27.5 71.5z" />
    <glyph glyph-name="ae" unicode="&#xe6;" horiz-adv-x="898" 
d="M87 29.5q-35 35.5 -35 100.5v28q0 64 41 100t115 36h210v89q0 56 -33 90t-111 34h-174v25q85 9 181 9q61 0 105.5 -26.5t58.5 -80.5q17 58 63 81t119 23q106 0 155 -38t49 -133q0 -60 -35 -82.5t-108 -22.5h-229q-1 -133 48.5 -183.5t138.5 -50.5h172v-25q-88 -9 -182 -9
q-82 0 -125 33t-69 86q-47 -51 -114.5 -85t-141.5 -34q-64 0 -99 35.5zM687 293q53 0 79 14t26 61q0 50 -15.5 79.5t-51 43t-99.5 13.5q-67 0 -101.5 -17t-49.5 -61.5t-16 -132.5h228zM321 58.5q63 29.5 112 81.5q-14 53 -15 125l-206 -1q-62 -1 -90.5 -29.5t-28.5 -76.5
v-23q0 -56 28.5 -81t73.5 -25q63 0 126 29.5z" />
    <glyph glyph-name="aeacute" unicode="&#x1fd;" horiz-adv-x="898" 
d="M87 29.5q-35 35.5 -35 100.5v28q0 64 41 100t115 36h210v89q0 56 -33 90t-111 34h-174v25q85 9 181 9q61 0 105.5 -26.5t58.5 -80.5q17 58 63 81t119 23q106 0 155 -38t49 -133q0 -60 -35 -82.5t-108 -22.5h-229q-1 -133 48.5 -183.5t138.5 -50.5h172v-25q-88 -9 -182 -9
q-82 0 -125 33t-69 86q-47 -51 -114.5 -85t-141.5 -34q-64 0 -99 35.5zM687 293q53 0 79 14t26 61q0 50 -15.5 79.5t-51 43t-99.5 13.5q-67 0 -101.5 -17t-49.5 -61.5t-16 -132.5h228zM321 58.5q63 29.5 112 81.5q-14 53 -15 125l-206 -1q-62 -1 -90.5 -29.5t-28.5 -76.5
v-23q0 -56 28.5 -81t73.5 -25q63 0 126 29.5zM534 765h39l-131 -134h-24z" />
    <glyph glyph-name="b" unicode="b" horiz-adv-x="574" 
d="M215.5 12.5q-49.5 18.5 -88.5 43.5l-10 -56h-31v763h41v-285q45 26 97 43t92 17q96 0 144 -63.5t48 -211.5q0 -126 -45.5 -197.5t-145.5 -71.5q-52 0 -101.5 18.5zM427.5 90q39.5 60 39.5 174q0 94 -19 146.5t-53.5 72.5t-85.5 20q-49 0 -88 -12.5t-94 -40.5v-368
q47 -24 89.5 -38t92.5 -14q79 0 118.5 60z" />
    <glyph glyph-name="uni1E03" unicode="&#x1e03;" horiz-adv-x="574" 
d="M215.5 12.5q-49.5 18.5 -88.5 43.5l-10 -56h-31v763h41v-285q45 26 97 43t92 17q96 0 144 -63.5t48 -211.5q0 -126 -45.5 -197.5t-145.5 -71.5q-52 0 -101.5 18.5zM427.5 90q39.5 60 39.5 174q0 94 -19 146.5t-53.5 72.5t-85.5 20q-49 0 -88 -12.5t-94 -40.5v-368
q47 -24 89.5 -38t92.5 -14q79 0 118.5 60zM87.5 873q-3.5 4 -3.5 9v67q0 13 13 13h19q13 0 13 -13v-67q0 -6 -4 -9.5t-9 -3.5h-19q-6 0 -9.5 4z" />
    <glyph glyph-name="c" unicode="c" horiz-adv-x="490" 
d="M163 17q-45 23 -71 83t-26 166q0 107 25 166.5t70.5 82t112.5 22.5q85 0 170 -8v-26h-164q-58 0 -95 -19.5t-57.5 -72t-20.5 -148.5q0 -134 44.5 -184.5t128.5 -50.5h172v-25q-103 -9 -179 -9q-65 0 -110 23z" />
    <glyph glyph-name="cacute" unicode="&#x107;" horiz-adv-x="490" 
d="M163 17q-45 23 -71 83t-26 166q0 107 25 166.5t70.5 82t112.5 22.5q85 0 170 -8v-26h-164q-58 0 -95 -19.5t-57.5 -72t-20.5 -148.5q0 -134 44.5 -184.5t128.5 -50.5h172v-25q-103 -9 -179 -9q-65 0 -110 23zM359 765h39l-131 -134h-24z" />
    <glyph glyph-name="ccaron" unicode="&#x10d;" horiz-adv-x="490" 
d="M163 17q-45 23 -71 83t-26 166q0 107 25 166.5t70.5 82t112.5 22.5q85 0 170 -8v-26h-164q-58 0 -95 -19.5t-57.5 -72t-20.5 -148.5q0 -134 44.5 -184.5t128.5 -50.5h172v-25q-103 -9 -179 -9q-65 0 -110 23zM137 763h27l106 -110l117 110h27l-129 -132h-31z" />
    <glyph glyph-name="ccedilla" unicode="&#xe7;" horiz-adv-x="490" 
d="M277 -6l-34 -51q40 -1 57.5 -17t17.5 -45q0 -31 -23.5 -48.5t-66.5 -17.5h-24v17l25 2q31 2 47 14.5t16 36.5q0 22 -16.5 34.5t-60.5 13.5l41 61q-91 4 -140.5 64t-49.5 208q0 107 25 166.5t70.5 82t112.5 22.5q85 0 170 -8v-26h-164q-58 0 -95 -19.5t-57.5 -72
t-20.5 -148.5q0 -134 44.5 -184.5t128.5 -50.5h172v-25q-101 -9 -175 -9z" />
    <glyph glyph-name="uni1E09" unicode="&#x1e09;" horiz-adv-x="490" 
d="M267 631h-24l116 134h39zM277 -6l-34 -51q40 -1 57.5 -17t17.5 -45q0 -31 -23.5 -48.5t-66.5 -17.5h-24v17l25 2q31 2 47 14.5t16 36.5q0 22 -16.5 34.5t-60.5 13.5l41 61q-91 4 -140.5 64t-49.5 208q0 107 25 166.5t70.5 82t112.5 22.5q85 0 170 -8v-26h-164
q-58 0 -95 -19.5t-57.5 -72t-20.5 -148.5q0 -134 44.5 -184.5t128.5 -50.5h172v-25q-101 -9 -175 -9z" />
    <glyph glyph-name="ccircumflex" unicode="&#x109;" horiz-adv-x="490" 
d="M163 17q-45 23 -71 83t-26 166q0 107 25 166.5t70.5 82t112.5 22.5q85 0 170 -8v-26h-164q-58 0 -95 -19.5t-57.5 -72t-20.5 -148.5q0 -134 44.5 -184.5t128.5 -50.5h172v-25q-103 -9 -179 -9q-65 0 -110 23zM257 763h31l117 -132h-27l-106 110l-117 -110h-27z" />
    <glyph glyph-name="cdotaccent" unicode="&#x10b;" horiz-adv-x="490" 
d="M163 17q-45 23 -71 83t-26 166q0 107 25 166.5t70.5 82t112.5 22.5q85 0 170 -8v-26h-164q-58 0 -95 -19.5t-57.5 -72t-20.5 -148.5q0 -134 44.5 -184.5t128.5 -50.5h172v-25q-103 -9 -179 -9q-65 0 -110 23zM250.5 673q-3.5 4 -3.5 9v67q0 13 13 13h19q13 0 13 -13v-67
q0 -6 -4 -9.5t-9 -3.5h-19q-6 0 -9.5 4z" />
    <glyph glyph-name="d" unicode="d" horiz-adv-x="570" 
d="M112 60q-46 66 -46 203q0 100 20.5 160t64.5 87.5t117 27.5q79 0 179 -34v259h41v-763h-31l-10 56q-23 -20 -83 -41t-106 -21q-100 0 -146 66zM357 43.5q43 14.5 90 39.5v392q-62 16 -94.5 22.5t-77.5 6.5q-61 0 -97.5 -22.5t-53.5 -74.5t-17 -143q0 -123 37 -179
t121 -56q49 0 92 14.5z" />
    <glyph glyph-name="eth" unicode="&#xf0;" horiz-adv-x="578" 
d="M512 267v-1v-1v0q0 -110 -25.5 -169t-73.5 -80.5t-125 -21.5t-124.5 21.5t-72.5 81t-25 169.5t25 168.5t72 80t122 21.5q66 0 108 -17.5t66 -63.5q-27 138 -102 205l-159 -62l-6 20l146 58q-66 50 -179 63v29q135 -13 213 -79l134 53l8 -20l-124 -49q59 -57 90 -156
t32 -248v-2zM391 46q38 17 59 68t21 152q0 100 -21 151t-59 67.5t-103 16.5t-102.5 -16.5t-58 -67.5t-20.5 -151q0 -101 20.5 -152t58 -68t102.5 -17t103 17z" />
    <glyph glyph-name="dcaron" unicode="&#x10f;" horiz-adv-x="570" 
d="M112 60q-46 66 -46 203q0 100 20.5 160t64.5 87.5t117 27.5q79 0 179 -34v259h41v-763h-31l-10 56q-23 -20 -83 -41t-106 -21q-100 0 -146 66zM357 43.5q43 14.5 90 39.5v392q-62 16 -94.5 22.5t-77.5 6.5q-61 0 -97.5 -22.5t-53.5 -74.5t-17 -143q0 -123 37 -179
t121 -56q49 0 92 14.5zM564 725v58h39v-58l-4 -143h-30z" />
    <glyph glyph-name="dcroat" unicode="&#x111;" horiz-adv-x="570" 
d="M562 637h-74v-637h-31l-10 56q-23 -20 -83 -41t-106 -21q-100 0 -146 66t-46 203q0 100 20.5 160t64.5 87.5t117 27.5q79 0 179 -34v133h-152v21h152v105h41v-105h74v-21zM447 475q-62 16 -94.5 22.5t-77.5 6.5q-61 0 -97.5 -22.5t-53.5 -74.5t-17 -143q0 -123 37 -179
t121 -56q49 0 92 14.5t90 39.5v392z" />
    <glyph glyph-name="uni1E0B" unicode="&#x1e0b;" horiz-adv-x="570" 
d="M112 60q-46 66 -46 203q0 100 20.5 160t64.5 87.5t117 27.5q79 0 179 -34v259h41v-763h-31l-10 56q-23 -20 -83 -41t-106 -21q-100 0 -146 66zM357 43.5q43 14.5 90 39.5v392q-62 16 -94.5 22.5t-77.5 6.5q-61 0 -97.5 -22.5t-53.5 -74.5t-17 -143q0 -123 37 -179
t121 -56q49 0 92 14.5zM447.5 873q-3.5 4 -3.5 9v67q0 13 13 13h19q13 0 13 -13v-67q0 -6 -4 -9.5t-9 -3.5h-19q-6 0 -9.5 4z" />
    <glyph glyph-name="uni1E0D" unicode="&#x1e0d;" horiz-adv-x="570" 
d="M112 60q-46 66 -46 203q0 100 20.5 160t64.5 87.5t117 27.5q79 0 179 -34v259h41v-763h-31l-10 56q-23 -20 -83 -41t-106 -21q-100 0 -146 66zM357 43.5q43 14.5 90 39.5v392q-62 16 -94.5 22.5t-77.5 6.5q-61 0 -97.5 -22.5t-53.5 -74.5t-17 -143q0 -123 37 -179
t121 -56q49 0 92 14.5zM264 -188v67q0 13 13 13h19q13 0 13 -13v-67q0 -13 -13 -13h-19q-13 0 -13 13z" />
    <glyph glyph-name="uni1E0F" unicode="&#x1e0f;" horiz-adv-x="570" 
d="M112 60q-46 66 -46 203q0 100 20.5 160t64.5 87.5t117 27.5q79 0 179 -34v259h41v-763h-31l-10 56q-23 -20 -83 -41t-106 -21q-100 0 -146 66zM357 43.5q43 14.5 90 39.5v392q-62 16 -94.5 22.5t-77.5 6.5q-61 0 -97.5 -22.5t-53.5 -74.5t-17 -143q0 -123 37 -179
t121 -56q49 0 92 14.5zM155 -150h256v-25h-256v25z" />
    <glyph glyph-name="e" unicode="e" horiz-adv-x="543" 
d="M150.5 19.5q-45.5 25.5 -65 84.5t-19.5 164t21 163t67 82.5t128 24.5q102 0 148.5 -38.5t46.5 -133.5q0 -120 -141 -120h-229q0 -83 14.5 -129.5t53 -67.5t111.5 -21h180v-25q-97 -9 -187 -9q-83 0 -128.5 25.5zM334 277q55 0 80 19.5t25 69.5q0 54 -15.5 84t-49 42.5
t-92.5 12.5q-70 0 -107 -19.5t-52.5 -68t-15.5 -140.5h227z" />
    <glyph glyph-name="eacute" unicode="&#xe9;" horiz-adv-x="543" 
d="M150.5 19.5q-45.5 25.5 -65 84.5t-19.5 164t21 163t67 82.5t128 24.5q102 0 148.5 -38.5t46.5 -133.5q0 -120 -141 -120h-229q0 -83 14.5 -129.5t53 -67.5t111.5 -21h180v-25q-97 -9 -187 -9q-83 0 -128.5 25.5zM334 277q55 0 80 19.5t25 69.5q0 54 -15.5 84t-49 42.5
t-92.5 12.5q-70 0 -107 -19.5t-52.5 -68t-15.5 -140.5h227zM359 765h39l-131 -134h-24z" />
    <glyph glyph-name="ebreve" unicode="&#x115;" horiz-adv-x="543" 
d="M150.5 19.5q-45.5 25.5 -65 84.5t-19.5 164t21 163t67 82.5t128 24.5q102 0 148.5 -38.5t46.5 -133.5q0 -120 -141 -120h-229q0 -83 14.5 -129.5t53 -67.5t111.5 -21h180v-25q-97 -9 -187 -9q-83 0 -128.5 25.5zM334 277q55 0 80 19.5t25 69.5q0 54 -15.5 84t-49 42.5
t-92.5 12.5q-70 0 -107 -19.5t-52.5 -68t-15.5 -140.5h227zM173 663.5q-36 31.5 -36 104.5h22q0 -59 28.5 -87t72.5 -28q52 0 80.5 26.5t28.5 88.5h22q0 -74 -36.5 -105t-91.5 -31q-54 0 -90 31.5z" />
    <glyph glyph-name="ecaron" unicode="&#x11b;" horiz-adv-x="543" 
d="M150.5 19.5q-45.5 25.5 -65 84.5t-19.5 164t21 163t67 82.5t128 24.5q102 0 148.5 -38.5t46.5 -133.5q0 -120 -141 -120h-229q0 -83 14.5 -129.5t53 -67.5t111.5 -21h180v-25q-97 -9 -187 -9q-83 0 -128.5 25.5zM334 277q55 0 80 19.5t25 69.5q0 54 -15.5 84t-49 42.5
t-92.5 12.5q-70 0 -107 -19.5t-52.5 -68t-15.5 -140.5h227zM137 763h27l106 -110l117 110h27l-129 -132h-31z" />
    <glyph glyph-name="uni1E1D" unicode="&#x1e1d;" horiz-adv-x="543" 
d="M173 663.5q-36 31.5 -36 104.5h22q0 -59 28.5 -87t72.5 -28q52 0 80.5 26.5t28.5 88.5h22q0 -74 -36.5 -105t-91.5 -31q-54 0 -90 31.5zM121.5 116.5q14.5 -46.5 53 -67.5t111.5 -21h180v-25q-97 -9 -187 -9h-2l-34 -51q40 -1 57.5 -17t17.5 -45q0 -31 -23.5 -48.5
t-66.5 -17.5h-24v17l25 2q31 2 47 14.5t16 36.5q0 22 -16.5 34.5t-60.5 13.5l41 61q-73 4 -114 31t-58.5 85t-17.5 158q0 105 21 163t67 82.5t128 24.5q102 0 148.5 -38.5t46.5 -133.5q0 -120 -141 -120h-229q0 -83 14.5 -129.5zM175 485.5q-37 -19.5 -52.5 -68
t-15.5 -140.5h227q55 0 80 19.5t25 69.5q0 54 -15.5 84t-49 42.5t-92.5 12.5q-70 0 -107 -19.5z" />
    <glyph glyph-name="ecircumflex" unicode="&#xea;" horiz-adv-x="543" 
d="M150.5 19.5q-45.5 25.5 -65 84.5t-19.5 164t21 163t67 82.5t128 24.5q102 0 148.5 -38.5t46.5 -133.5q0 -120 -141 -120h-229q0 -83 14.5 -129.5t53 -67.5t111.5 -21h180v-25q-97 -9 -187 -9q-83 0 -128.5 25.5zM334 277q55 0 80 19.5t25 69.5q0 54 -15.5 84t-49 42.5
t-92.5 12.5q-70 0 -107 -19.5t-52.5 -68t-15.5 -140.5h227zM257 763h31l117 -132h-27l-106 110l-117 -110h-27z" />
    <glyph glyph-name="uni1EBF" unicode="&#x1ebf;" horiz-adv-x="543" 
d="M150.5 19.5q-45.5 25.5 -65 84.5t-19.5 164t21 163t67 82.5t128 24.5q102 0 148.5 -38.5t46.5 -133.5q0 -120 -141 -120h-229q0 -83 14.5 -129.5t53 -67.5t111.5 -21h180v-25q-97 -9 -187 -9q-83 0 -128.5 25.5zM334 277q55 0 80 19.5t25 69.5q0 54 -15.5 84t-49 42.5
t-92.5 12.5q-70 0 -107 -19.5t-52.5 -68t-15.5 -140.5h227zM498 835l-126 -132h-24l111 132h39zM288 724l117 -93h-28l-105 71l-117 -71h-27l129 93h31z" />
    <glyph glyph-name="uni1EC7" unicode="&#x1ec7;" horiz-adv-x="543" 
d="M150.5 19.5q-45.5 25.5 -65 84.5t-19.5 164t21 163t67 82.5t128 24.5q102 0 148.5 -38.5t46.5 -133.5q0 -120 -141 -120h-229q0 -83 14.5 -129.5t53 -67.5t111.5 -21h180v-25q-97 -9 -187 -9q-83 0 -128.5 25.5zM334 277q55 0 80 19.5t25 69.5q0 54 -15.5 84t-49 42.5
t-92.5 12.5q-70 0 -107 -19.5t-52.5 -68t-15.5 -140.5h227zM257 763h31l117 -132h-27l-106 110l-117 -110h-27zM245 -188v67q0 13 13 13h19q13 0 13 -13v-67q0 -13 -13 -13h-19q-13 0 -13 13z" />
    <glyph glyph-name="uni1EC1" unicode="&#x1ec1;" horiz-adv-x="543" 
d="M150.5 19.5q-45.5 25.5 -65 84.5t-19.5 164t21 163t67 82.5t128 24.5q102 0 148.5 -38.5t46.5 -133.5q0 -120 -141 -120h-229q0 -83 14.5 -129.5t53 -67.5t111.5 -21h180v-25q-97 -9 -187 -9q-83 0 -128.5 25.5zM334 277q55 0 80 19.5t25 69.5q0 54 -15.5 84t-49 42.5
t-92.5 12.5q-70 0 -107 -19.5t-52.5 -68t-15.5 -140.5h227zM80 835l111 -132h-24l-126 132h39zM288 724l117 -93h-28l-105 71l-117 -71h-27l129 93h31z" />
    <glyph glyph-name="uni1EC3" unicode="&#x1ec3;" horiz-adv-x="543" 
d="M150.5 19.5q-45.5 25.5 -65 84.5t-19.5 164t21 163t67 82.5t128 24.5q102 0 148.5 -38.5t46.5 -133.5q0 -120 -141 -120h-229q0 -83 14.5 -129.5t53 -67.5t111.5 -21h180v-25q-97 -9 -187 -9q-83 0 -128.5 25.5zM334 277q55 0 80 19.5t25 69.5q0 54 -15.5 84t-49 42.5
t-92.5 12.5q-70 0 -107 -19.5t-52.5 -68t-15.5 -140.5h227zM371 702q60 19 60 60q0 44 -51 44q-19 0 -37 -6v19q20 7 42 7q35 0 52 -17t17 -47q0 -26 -21 -48t-62 -33v21zM257 724h31l117 -93h-28l-105 71l-117 -71h-27z" />
    <glyph glyph-name="uni1EC5" unicode="&#x1ec5;" horiz-adv-x="543" 
d="M150.5 19.5q-45.5 25.5 -65 84.5t-19.5 164t21 163t67 82.5t128 24.5q102 0 148.5 -38.5t46.5 -133.5q0 -120 -141 -120h-229q0 -83 14.5 -129.5t53 -67.5t111.5 -21h180v-25q-97 -9 -187 -9q-83 0 -128.5 25.5zM334 277q55 0 80 19.5t25 69.5q0 54 -15.5 84t-49 42.5
t-92.5 12.5q-70 0 -107 -19.5t-52.5 -68t-15.5 -140.5h227zM228.5 839.5q18.5 -6.5 44.5 -19.5q25 -12 40.5 -18t32.5 -6q27 0 44.5 13t17.5 37h22q-1 -34 -22.5 -53.5t-59.5 -19.5q-20 0 -38 6.5t-41 18.5q-24 12 -42 18t-37 6q-25 0 -41.5 -12.5t-16.5 -37.5h-22
q1 39 24 56.5t55 17.5q21 0 39.5 -6.5zM405 631h-28l-105 71l-117 -71h-27l129 93h31z" />
    <glyph glyph-name="uni0205" unicode="&#x205;" horiz-adv-x="543" 
d="M150.5 19.5q-45.5 25.5 -65 84.5t-19.5 164t21 163t67 82.5t128 24.5q102 0 148.5 -38.5t46.5 -133.5q0 -120 -141 -120h-229q0 -83 14.5 -129.5t53 -67.5t111.5 -21h180v-25q-97 -9 -187 -9q-83 0 -128.5 25.5zM334 277q55 0 80 19.5t25 69.5q0 54 -15.5 84t-49 42.5
t-92.5 12.5q-70 0 -107 -19.5t-52.5 -68t-15.5 -140.5h227zM85 765h39l115 -134h-24zM213 765h39l115 -134h-24z" />
    <glyph glyph-name="edieresis" unicode="&#xeb;" horiz-adv-x="543" 
d="M150.5 19.5q-45.5 25.5 -65 84.5t-19.5 164t21 163t67 82.5t128 24.5q102 0 148.5 -38.5t46.5 -133.5q0 -120 -141 -120h-229q0 -83 14.5 -129.5t53 -67.5t111.5 -21h180v-25q-97 -9 -187 -9q-83 0 -128.5 25.5zM334 277q55 0 80 19.5t25 69.5q0 54 -15.5 84t-49 42.5
t-92.5 12.5q-70 0 -107 -19.5t-52.5 -68t-15.5 -140.5h227zM154 666q-4 4 -4 9v67q0 13 13 13h19q13 0 13 -13v-67q0 -13 -13 -13h-19q-5 0 -9 4zM348 666q-4 4 -4 9v67q0 13 14 13h18q14 0 14 -13v-67q0 -6 -4 -9.5t-10 -3.5h-18q-6 0 -10 4z" />
    <glyph glyph-name="edotaccent" unicode="&#x117;" horiz-adv-x="543" 
d="M150.5 19.5q-45.5 25.5 -65 84.5t-19.5 164t21 163t67 82.5t128 24.5q102 0 148.5 -38.5t46.5 -133.5q0 -120 -141 -120h-229q0 -83 14.5 -129.5t53 -67.5t111.5 -21h180v-25q-97 -9 -187 -9q-83 0 -128.5 25.5zM334 277q55 0 80 19.5t25 69.5q0 54 -15.5 84t-49 42.5
t-92.5 12.5q-70 0 -107 -19.5t-52.5 -68t-15.5 -140.5h227zM250.5 673q-3.5 4 -3.5 9v67q0 13 13 13h19q13 0 13 -13v-67q0 -6 -4 -9.5t-9 -3.5h-19q-6 0 -9.5 4z" />
    <glyph glyph-name="uni1EB9" unicode="&#x1eb9;" horiz-adv-x="543" 
d="M150.5 19.5q-45.5 25.5 -65 84.5t-19.5 164t21 163t67 82.5t128 24.5q102 0 148.5 -38.5t46.5 -133.5q0 -120 -141 -120h-229q0 -83 14.5 -129.5t53 -67.5t111.5 -21h180v-25q-97 -9 -187 -9q-83 0 -128.5 25.5zM334 277q55 0 80 19.5t25 69.5q0 54 -15.5 84t-49 42.5
t-92.5 12.5q-70 0 -107 -19.5t-52.5 -68t-15.5 -140.5h227zM245 -188v67q0 13 13 13h19q13 0 13 -13v-67q0 -13 -13 -13h-19q-13 0 -13 13z" />
    <glyph glyph-name="egrave" unicode="&#xe8;" horiz-adv-x="543" 
d="M150.5 19.5q-45.5 25.5 -65 84.5t-19.5 164t21 163t67 82.5t128 24.5q102 0 148.5 -38.5t46.5 -133.5q0 -120 -141 -120h-229q0 -83 14.5 -129.5t53 -67.5t111.5 -21h180v-25q-97 -9 -187 -9q-83 0 -128.5 25.5zM334 277q55 0 80 19.5t25 69.5q0 54 -15.5 84t-49 42.5
t-92.5 12.5q-70 0 -107 -19.5t-52.5 -68t-15.5 -140.5h227zM144 765h39l116 -134h-24z" />
    <glyph glyph-name="uni1EBB" unicode="&#x1ebb;" horiz-adv-x="543" 
d="M150.5 19.5q-45.5 25.5 -65 84.5t-19.5 164t21 163t67 82.5t128 24.5q102 0 148.5 -38.5t46.5 -133.5q0 -120 -141 -120h-229q0 -83 14.5 -129.5t53 -67.5t111.5 -21h180v-25q-97 -9 -187 -9q-83 0 -128.5 25.5zM334 277q55 0 80 19.5t25 69.5q0 54 -15.5 84t-49 42.5
t-92.5 12.5q-70 0 -107 -19.5t-52.5 -68t-15.5 -140.5h227zM257 629q34 11 50 29t16 40q0 27 -13.5 40.5t-43.5 13.5q-19 0 -37 -6v20q17 6 42 6q38 0 57 -20t19 -54q0 -29 -22.5 -53t-67.5 -37v21z" />
    <glyph glyph-name="uni0207" unicode="&#x207;" horiz-adv-x="543" 
d="M150.5 19.5q-45.5 25.5 -65 84.5t-19.5 164t21 163t67 82.5t128 24.5q102 0 148.5 -38.5t46.5 -133.5q0 -120 -141 -120h-229q0 -83 14.5 -129.5t53 -67.5t111.5 -21h180v-25q-97 -9 -187 -9q-83 0 -128.5 25.5zM334 277q55 0 80 19.5t25 69.5q0 54 -15.5 84t-49 42.5
t-92.5 12.5q-70 0 -107 -19.5t-52.5 -68t-15.5 -140.5h227zM356 736.5q36 -31.5 36 -104.5h-22q0 59 -28.5 87t-72.5 28q-52 0 -80.5 -26.5t-28.5 -88.5h-22q0 74 36.5 105t91.5 31q54 0 90 -31.5z" />
    <glyph glyph-name="emacron" unicode="&#x113;" horiz-adv-x="543" 
d="M150.5 19.5q-45.5 25.5 -65 84.5t-19.5 164t21 163t67 82.5t128 24.5q102 0 148.5 -38.5t46.5 -133.5q0 -120 -141 -120h-229q0 -83 14.5 -129.5t53 -67.5t111.5 -21h180v-25q-97 -9 -187 -9q-83 0 -128.5 25.5zM334 277q55 0 80 19.5t25 69.5q0 54 -15.5 84t-49 42.5
t-92.5 12.5q-70 0 -107 -19.5t-52.5 -68t-15.5 -140.5h227zM141 710h256v-25h-256v25z" />
    <glyph glyph-name="uni1E17" unicode="&#x1e17;" horiz-adv-x="543" 
d="M150.5 19.5q-45.5 25.5 -65 84.5t-19.5 164t21 163t67 82.5t128 24.5q102 0 148.5 -38.5t46.5 -133.5q0 -120 -141 -120h-229q0 -83 14.5 -129.5t53 -67.5t111.5 -21h180v-25q-97 -9 -187 -9q-83 0 -128.5 25.5zM334 277q55 0 80 19.5t25 69.5q0 54 -15.5 84t-49 42.5
t-92.5 12.5q-70 0 -107 -19.5t-52.5 -68t-15.5 -140.5h227zM141 710h256v-25h-256v25zM358 887h39l-131 -134h-24z" />
    <glyph glyph-name="uni1E15" unicode="&#x1e15;" horiz-adv-x="543" 
d="M150.5 19.5q-45.5 25.5 -65 84.5t-19.5 164t21 163t67 82.5t128 24.5q102 0 148.5 -38.5t46.5 -133.5q0 -120 -141 -120h-229q0 -83 14.5 -129.5t53 -67.5t111.5 -21h180v-25q-97 -9 -187 -9q-83 0 -128.5 25.5zM334 277q55 0 80 19.5t25 69.5q0 54 -15.5 84t-49 42.5
t-92.5 12.5q-70 0 -107 -19.5t-52.5 -68t-15.5 -140.5h227zM141 710h256v-25h-256v25zM141 887h39l116 -134h-24z" />
    <glyph glyph-name="eogonek" unicode="&#x119;" horiz-adv-x="543" 
d="M496 -137v-22q-8 -1 -23 -1q-47 0 -76 23.5t-29 63.5t38 71q-53 -4 -127 -4q-83 0 -128.5 25.5t-65 84.5t-19.5 164t21 163t67 82.5t128 24.5q102 0 148.5 -38.5t46.5 -133.5q0 -120 -141 -120h-229q0 -83 14.5 -129.5t53 -67.5t111.5 -21h180v-25l-35 -3
q-37 -31 -37 -65q0 -35 24.5 -53.5t71.5 -18.5h6zM175 485.5q-37 -19.5 -52.5 -68t-15.5 -140.5h227q55 0 80 19.5t25 69.5q0 54 -15.5 84t-49 42.5t-92.5 12.5q-70 0 -107 -19.5z" />
    <glyph glyph-name="uni1EBD" unicode="&#x1ebd;" horiz-adv-x="543" 
d="M150.5 19.5q-45.5 25.5 -65 84.5t-19.5 164t21 163t67 82.5t128 24.5q102 0 148.5 -38.5t46.5 -133.5q0 -120 -141 -120h-229q0 -83 14.5 -129.5t53 -67.5t111.5 -21h180v-25q-97 -9 -187 -9q-83 0 -128.5 25.5zM334 277q55 0 80 19.5t25 69.5q0 54 -15.5 84t-49 42.5
t-92.5 12.5q-70 0 -107 -19.5t-52.5 -68t-15.5 -140.5h227zM140.5 728.5q26.5 22.5 62.5 22.5q22 0 41 -9.5t47 -27.5q27 -17 42 -24.5t31 -7.5q31 0 51 18.5t20 51.5h22q-1 -43 -25.5 -69t-67.5 -26q-20 0 -38 9t-45 26q-27 18 -43.5 26t-34.5 8q-29 0 -48 -17t-20 -52h-22
q1 49 27.5 71.5z" />
    <glyph glyph-name="uni0259" unicode="&#x259;" horiz-adv-x="543" 
d="M392.5 512.5q45.5 -25.5 65 -84.5t19.5 -164t-21 -163t-67 -82.5t-128 -24.5q-102 0 -148.5 38.5t-46.5 133.5q0 120 141 120h229q0 83 -14.5 129.5t-53 67.5t-111.5 21h-180v25q98 9 187 9q83 0 128.5 -25.5zM209 255q-55 0 -80 -19.5t-25 -69.5q0 -54 15.5 -84
t49 -42.5t92.5 -12.5q70 0 107 19.5t52.5 68t15.5 140.5h-227z" />
    <glyph glyph-name="f" unicode="f" horiz-adv-x="354" 
d="M111 497h-85v26l85 9v76q0 81 30 121t110 40q39 0 65.5 -3t32.5 -4v-28h-94q-61 0 -82 -29.5t-21 -95.5v-77h181v-35h-181v-497h-41v497z" />
    <glyph glyph-name="uni1E1F" unicode="&#x1e1f;" horiz-adv-x="354" 
d="M111 497h-85v26l85 9v76q0 81 30 121t110 40q39 0 65.5 -3t32.5 -4v-28h-94q-61 0 -82 -29.5t-21 -95.5v-77h181v-35h-181v-497h-41v497zM233.5 876q-3.5 4 -3.5 9v67q0 13 13 13h19q13 0 13 -13v-67q0 -6 -4 -9.5t-9 -3.5h-19q-6 0 -9.5 4z" />
    <glyph glyph-name="g" unicode="g" horiz-adv-x="573" 
d="M548 509l-142 -8q23 -12 40 -26t30.5 -44.5t13.5 -79.5q0 -67 -44 -114.5t-142 -47.5h-80q-54 0 -81 -15t-27 -52q0 -26 18.5 -39t43.5 -13h193q91 0 134 -35t43 -104v-26q0 -70 -50 -109.5t-142 -39.5h-143q-81 0 -128.5 34t-47.5 100v29q0 46 25.5 78t66.5 48
q-24 10 -37.5 29t-13.5 45q0 38 23.5 59t68.5 30q-102 37 -102 156q0 89 53 129.5t143 40.5h284v-25zM413.5 464.5q-37.5 34.5 -101.5 34.5h-58q-71 0 -109 -32t-38 -105q0 -71 34.5 -105t97.5 -34h61q151 0 151 130q0 77 -37.5 111.5zM213 35q-57 0 -97.5 -28t-40.5 -84
v-28q0 -56 37.5 -81t106.5 -25h135q74 0 115 29t41 86v23q0 53 -32 80.5t-111 27.5h-154z" />
    <glyph glyph-name="gbreve" unicode="&#x11f;" horiz-adv-x="573" 
d="M548 509l-142 -8q23 -12 40 -26t30.5 -44.5t13.5 -79.5q0 -67 -44 -114.5t-142 -47.5h-80q-54 0 -81 -15t-27 -52q0 -26 18.5 -39t43.5 -13h193q91 0 134 -35t43 -104v-26q0 -70 -50 -109.5t-142 -39.5h-143q-81 0 -128.5 34t-47.5 100v29q0 46 25.5 78t66.5 48
q-24 10 -37.5 29t-13.5 45q0 38 23.5 59t68.5 30q-102 37 -102 156q0 89 53 129.5t143 40.5h284v-25zM413.5 464.5q-37.5 34.5 -101.5 34.5h-58q-71 0 -109 -32t-38 -105q0 -71 34.5 -105t97.5 -34h61q151 0 151 130q0 77 -37.5 111.5zM213 35q-57 0 -97.5 -28t-40.5 -84
v-28q0 -56 37.5 -81t106.5 -25h135q74 0 115 29t41 86v23q0 53 -32 80.5t-111 27.5h-154zM191 663.5q-36 31.5 -36 104.5h22q0 -59 28.5 -87t72.5 -28q52 0 80.5 26.5t28.5 88.5h22q0 -74 -36.5 -105t-91.5 -31q-54 0 -90 31.5z" />
    <glyph glyph-name="gcaron" unicode="&#x1e7;" horiz-adv-x="573" 
d="M548 509l-142 -8q23 -12 40 -26t30.5 -44.5t13.5 -79.5q0 -67 -44 -114.5t-142 -47.5h-80q-54 0 -81 -15t-27 -52q0 -26 18.5 -39t43.5 -13h193q91 0 134 -35t43 -104v-26q0 -70 -50 -109.5t-142 -39.5h-143q-81 0 -128.5 34t-47.5 100v29q0 46 25.5 78t66.5 48
q-24 10 -37.5 29t-13.5 45q0 38 23.5 59t68.5 30q-102 37 -102 156q0 89 53 129.5t143 40.5h284v-25zM413.5 464.5q-37.5 34.5 -101.5 34.5h-58q-71 0 -109 -32t-38 -105q0 -71 34.5 -105t97.5 -34h61q151 0 151 130q0 77 -37.5 111.5zM213 35q-57 0 -97.5 -28t-40.5 -84
v-28q0 -56 37.5 -81t106.5 -25h135q74 0 115 29t41 86v23q0 53 -32 80.5t-111 27.5h-154zM155 763h27l106 -110l117 110h27l-129 -132h-31z" />
    <glyph glyph-name="gcircumflex" unicode="&#x11d;" horiz-adv-x="573" 
d="M548 509l-142 -8q23 -12 40 -26t30.5 -44.5t13.5 -79.5q0 -67 -44 -114.5t-142 -47.5h-80q-54 0 -81 -15t-27 -52q0 -26 18.5 -39t43.5 -13h193q91 0 134 -35t43 -104v-26q0 -70 -50 -109.5t-142 -39.5h-143q-81 0 -128.5 34t-47.5 100v29q0 46 25.5 78t66.5 48
q-24 10 -37.5 29t-13.5 45q0 38 23.5 59t68.5 30q-102 37 -102 156q0 89 53 129.5t143 40.5h284v-25zM413.5 464.5q-37.5 34.5 -101.5 34.5h-58q-71 0 -109 -32t-38 -105q0 -71 34.5 -105t97.5 -34h61q151 0 151 130q0 77 -37.5 111.5zM213 35q-57 0 -97.5 -28t-40.5 -84
v-28q0 -56 37.5 -81t106.5 -25h135q74 0 115 29t41 86v23q0 53 -32 80.5t-111 27.5h-154zM275 763h31l117 -132h-27l-106 110l-117 -110h-27z" />
    <glyph glyph-name="gcommaaccent" unicode="&#x123;" horiz-adv-x="573" 
d="M548 509l-142 -8q23 -12 40 -26t30.5 -44.5t13.5 -79.5q0 -67 -44 -114.5t-142 -47.5h-80q-54 0 -81 -15t-27 -52q0 -26 18.5 -39t43.5 -13h193q91 0 134 -35t43 -104v-26q0 -70 -50 -109.5t-142 -39.5h-143q-81 0 -128.5 34t-47.5 100v29q0 46 25.5 78t66.5 48
q-24 10 -37.5 29t-13.5 45q0 38 23.5 59t68.5 30q-102 37 -102 156q0 89 53 129.5t143 40.5h284v-25zM413.5 464.5q-37.5 34.5 -101.5 34.5h-58q-71 0 -109 -32t-38 -105q0 -71 34.5 -105t97.5 -34h61q151 0 151 130q0 77 -37.5 111.5zM213 35q-57 0 -97.5 -28t-40.5 -84
v-28q0 -56 37.5 -81t106.5 -25h135q74 0 115 29t41 86v23q0 53 -32 80.5t-111 27.5h-154zM251.5 692.5q8.5 28.5 31.5 42t66 13.5h30v-17l-31 -4q-30 -3 -46 -11t-24.5 -32t-7.5 -73h-27q0 53 8.5 81.5z" />
    <glyph glyph-name="gdotaccent" unicode="&#x121;" horiz-adv-x="573" 
d="M548 509l-142 -8q23 -12 40 -26t30.5 -44.5t13.5 -79.5q0 -67 -44 -114.5t-142 -47.5h-80q-54 0 -81 -15t-27 -52q0 -26 18.5 -39t43.5 -13h193q91 0 134 -35t43 -104v-26q0 -70 -50 -109.5t-142 -39.5h-143q-81 0 -128.5 34t-47.5 100v29q0 46 25.5 78t66.5 48
q-24 10 -37.5 29t-13.5 45q0 38 23.5 59t68.5 30q-102 37 -102 156q0 89 53 129.5t143 40.5h284v-25zM413.5 464.5q-37.5 34.5 -101.5 34.5h-58q-71 0 -109 -32t-38 -105q0 -71 34.5 -105t97.5 -34h61q151 0 151 130q0 77 -37.5 111.5zM213 35q-57 0 -97.5 -28t-40.5 -84
v-28q0 -56 37.5 -81t106.5 -25h135q74 0 115 29t41 86v23q0 53 -32 80.5t-111 27.5h-154zM268.5 673q-3.5 4 -3.5 9v67q0 13 13 13h19q13 0 13 -13v-67q0 -6 -4 -9.5t-9 -3.5h-19q-6 0 -9.5 4z" />
    <glyph glyph-name="uni1E21" unicode="&#x1e21;" horiz-adv-x="573" 
d="M548 509l-142 -8q23 -12 40 -26t30.5 -44.5t13.5 -79.5q0 -67 -44 -114.5t-142 -47.5h-80q-54 0 -81 -15t-27 -52q0 -26 18.5 -39t43.5 -13h193q91 0 134 -35t43 -104v-26q0 -70 -50 -109.5t-142 -39.5h-143q-81 0 -128.5 34t-47.5 100v29q0 46 25.5 78t66.5 48
q-24 10 -37.5 29t-13.5 45q0 38 23.5 59t68.5 30q-102 37 -102 156q0 89 53 129.5t143 40.5h284v-25zM413.5 464.5q-37.5 34.5 -101.5 34.5h-58q-71 0 -109 -32t-38 -105q0 -71 34.5 -105t97.5 -34h61q151 0 151 130q0 77 -37.5 111.5zM213 35q-57 0 -97.5 -28t-40.5 -84
v-28q0 -56 37.5 -81t106.5 -25h135q74 0 115 29t41 86v23q0 53 -32 80.5t-111 27.5h-154zM159 710h256v-25h-256v25z" />
    <glyph glyph-name="h" unicode="h" horiz-adv-x="584" 
d="M86 763h41v-292q47 31 101 50.5t109 19.5q52 0 89 -23.5t56 -63t19 -86.5v-368h-41v365q0 59 -35.5 99t-95.5 40q-57 0 -100 -14t-102 -46v-444h-41v763z" />
    <glyph glyph-name="hbar" unicode="&#x127;" horiz-adv-x="584" 
d="M426 517.5q37 -23.5 56 -63t19 -86.5v-368h-41v365q0 59 -35.5 99t-95.5 40q-57 0 -100 -14t-102 -46v-444h-41v637h-78v21h78v105h41v-105h148v-21h-148v-166q47 31 101 50.5t109 19.5q52 0 89 -23.5z" />
    <glyph glyph-name="uni1E2B" unicode="&#x1e2b;" horiz-adv-x="584" 
d="M86 763h41v-292q47 31 101 50.5t109 19.5q52 0 89 -23.5t56 -63t19 -86.5v-368h-41v365q0 59 -35.5 99t-95.5 40q-57 0 -100 -14t-102 -46v-444h-41v763zM198 -186.5q-36 31.5 -36 104.5h22q0 -59 28.5 -87t72.5 -28q52 0 80.5 26.5t28.5 88.5h22q0 -74 -36.5 -105
t-91.5 -31q-54 0 -90 31.5z" />
    <glyph glyph-name="hcircumflex" unicode="&#x125;" horiz-adv-x="584" 
d="M86 763h41v-292q47 31 101 50.5t109 19.5q52 0 89 -23.5t56 -63t19 -86.5v-368h-41v365q0 59 -35.5 99t-95.5 40q-57 0 -100 -14t-102 -46v-444h-41v763zM157 936h31l117 -132h-27l-106 110l-117 -110h-27z" />
    <glyph glyph-name="uni1E25" unicode="&#x1e25;" horiz-adv-x="584" 
d="M86 763h41v-292q47 31 101 50.5t109 19.5q52 0 89 -23.5t56 -63t19 -86.5v-368h-41v365q0 59 -35.5 99t-95.5 40q-57 0 -100 -14t-102 -46v-444h-41v763zM269 -188v67q0 13 13 13h19q13 0 13 -13v-67q0 -13 -13 -13h-19q-13 0 -13 13z" />
    <glyph glyph-name="i" unicode="i" horiz-adv-x="214" 
d="M82 650v67q0 13 13 13h25q12 0 12 -13v-67q0 -13 -12 -13h-25q-13 0 -13 13zM86 532h41v-532h-41v532z" />
    <glyph glyph-name="dotlessi" unicode="&#x131;" horiz-adv-x="210" 
d="M86 532h41v-532h-41v532z" />
    <glyph glyph-name="iacute" unicode="&#xed;" horiz-adv-x="210" 
d="M86 532h41v-532h-41v532zM196 765h39l-131 -134h-24z" />
    <glyph glyph-name="ibreve" unicode="&#x12d;" horiz-adv-x="210" 
d="M86 532h41v-532h-41v532zM10 663.5q-36 31.5 -36 104.5h22q0 -59 28.5 -87t72.5 -28q52 0 80.5 26.5t28.5 88.5h22q0 -74 -36.5 -105t-91.5 -31q-54 0 -90 31.5z" />
    <glyph glyph-name="icircumflex" unicode="&#xee;" horiz-adv-x="210" 
d="M86 532h41v-532h-41v532zM94 763h31l117 -132h-27l-106 110l-117 -110h-27z" />
    <glyph glyph-name="uni0209" unicode="&#x209;" horiz-adv-x="210" 
d="M86 532h41v-532h-41v532zM-78 765h39l115 -134h-24zM50 765h39l115 -134h-24z" />
    <glyph glyph-name="idieresis" unicode="&#xef;" horiz-adv-x="210" 
d="M86 532h41v-532h-41v532zM-9 666q-4 4 -4 9v67q0 13 13 13h19q13 0 13 -13v-67q0 -13 -13 -13h-19q-5 0 -9 4zM185 666q-4 4 -4 9v67q0 13 14 13h18q14 0 14 -13v-67q0 -6 -4 -9.5t-10 -3.5h-18q-6 0 -10 4z" />
    <glyph glyph-name="uni1E2F" unicode="&#x1e2f;" horiz-adv-x="210" 
d="M86 532h41v-532h-41v532zM-9 666q-4 4 -4 9v67q0 13 13 13h19q13 0 13 -13v-67q0 -13 -13 -13h-19q-5 0 -9 4zM185 666q-4 4 -4 9v67q0 13 14 13h18q14 0 14 -13v-67q0 -6 -4 -9.5t-10 -3.5h-18q-6 0 -10 4zM195 920h39l-131 -134h-24z" />
    <glyph glyph-name="i.loclTRK" horiz-adv-x="210" 
d="M86 532h41v-532h-41v532zM87.5 673q-3.5 4 -3.5 9v67q0 13 13 13h19q13 0 13 -13v-67q0 -6 -4 -9.5t-9 -3.5h-19q-6 0 -9.5 4z" />
    <glyph glyph-name="uni1ECB" unicode="&#x1ecb;" horiz-adv-x="214" 
d="M82 650v67q0 13 13 13h25q12 0 12 -13v-67q0 -13 -12 -13h-25q-13 0 -13 13zM86 532h41v-532h-41v532zM82 -188v67q0 13 13 13h19q13 0 13 -13v-67q0 -13 -13 -13h-19q-13 0 -13 13z" />
    <glyph glyph-name="igrave" unicode="&#xec;" horiz-adv-x="210" 
d="M86 532h41v-532h-41v532zM-19 765h39l116 -134h-24z" />
    <glyph glyph-name="uni1EC9" unicode="&#x1ec9;" horiz-adv-x="210" 
d="M86 532h41v-532h-41v532zM94 629q34 11 50 29t16 40q0 27 -13.5 40.5t-43.5 13.5q-19 0 -37 -6v20q17 6 42 6q38 0 57 -20t19 -54q0 -29 -22.5 -53t-67.5 -37v21z" />
    <glyph glyph-name="uni020B" unicode="&#x20b;" horiz-adv-x="210" 
d="M86 532h41v-532h-41v532zM193 736.5q36 -31.5 36 -104.5h-22q0 59 -28.5 87t-72.5 28q-52 0 -80.5 -26.5t-28.5 -88.5h-22q0 74 36.5 105t91.5 31q54 0 90 -31.5z" />
    <glyph glyph-name="imacron" unicode="&#x12b;" horiz-adv-x="210" 
d="M86 532h41v-532h-41v532zM-22 710h256v-25h-256v25z" />
    <glyph glyph-name="iogonek" unicode="&#x12f;" horiz-adv-x="214" 
d="M82 650v67q0 13 13 13h25q12 0 12 -13v-67q0 -13 -12 -13h-25q-13 0 -13 13zM86 532h41v-532h-41v532zM59 -159.5q-29 23.5 -29 63.5q0 28 20 53t60 43h18q-35 -18 -53.5 -40.5t-18.5 -47.5q0 -35 24.5 -53.5t71.5 -18.5h6v-22q-8 -1 -23 -1q-47 0 -76 23.5z" />
    <glyph glyph-name="itilde" unicode="&#x129;" horiz-adv-x="210" 
d="M86 532h41v-532h-41v532zM-22.5 728.5q26.5 22.5 62.5 22.5q22 0 41 -9.5t47 -27.5q27 -17 42 -24.5t31 -7.5q31 0 51 18.5t20 51.5h22q-1 -43 -25.5 -69t-67.5 -26q-20 0 -38 9t-45 26q-27 18 -43.5 26t-34.5 8q-29 0 -48 -17t-20 -52h-22q1 49 27.5 71.5z" />
    <glyph glyph-name="j" unicode="j" horiz-adv-x="214" 
d="M82 650v67q0 13 13 13h25q12 0 12 -13v-67q0 -13 -12 -13h-25q-13 0 -13 13zM86 532h41v-508q0 -125 -11 -261h-30v769z" />
    <glyph glyph-name="uni0237" unicode="&#x237;" horiz-adv-x="214" 
d="M86 532h41v-508q0 -125 -11 -261h-30v769z" />
    <glyph glyph-name="jcircumflex" unicode="&#x135;" horiz-adv-x="214" 
d="M86 532h41v-508q0 -125 -11 -261h-30v769zM94 763h31l117 -132h-27l-106 110l-117 -110h-27z" />
    <glyph glyph-name="k" unicode="k" horiz-adv-x="480" 
d="M86 763h41v-458h84l188 227h46l-204 -246l214 -286h-47l-201 268h-80v-268h-41v763z" />
    <glyph glyph-name="kcommaaccent" unicode="&#x137;" horiz-adv-x="480" 
d="M86 763h41v-458h84l188 227h46l-204 -246l214 -286h-47l-201 268h-80v-268h-41v763zM164 -178l31 4q30 3 46 11.5t24.5 32.5t7.5 73h27q0 -53 -8.5 -82t-31 -42t-66.5 -13h-30v16z" />
    <glyph glyph-name="kgreenlandic" unicode="&#x138;" horiz-adv-x="480" 
d="M86 541h41v-237h83l188 228h47l-204 -248l214 -284h-47l-201 267h-80v-267h-41v541z" />
    <glyph glyph-name="l" unicode="l" horiz-adv-x="283" 
d="M117 37.5q-31 37.5 -31 132.5v593h41v-590q0 -54 10 -83t28 -40.5t48 -14.5l61 -7v-28h-63q-63 0 -94 37.5z" />
    <glyph glyph-name="lacute" unicode="&#x13a;" horiz-adv-x="283" 
d="M117 37.5q-31 37.5 -31 132.5v593h41v-590q0 -54 10 -83t28 -40.5t48 -14.5l61 -7v-28h-63q-63 0 -94 37.5zM196 1010h39l-131 -134h-24z" />
    <glyph glyph-name="lcaron" unicode="&#x13e;" horiz-adv-x="283" 
d="M117 37.5q-31 37.5 -31 132.5v593h41v-590q0 -54 10 -83t28 -40.5t48 -14.5l61 -7v-28h-63q-63 0 -94 37.5zM203 725v58h39v-58l-4 -143h-30z" />
    <glyph glyph-name="lcommaaccent" unicode="&#x13c;" horiz-adv-x="283" 
d="M117 37.5q-31 37.5 -31 132.5v593h41v-590q0 -54 10 -83t28 -40.5t48 -14.5l61 -7v-28h-63q-63 0 -94 37.5zM74 -178l31 4q30 3 46 11.5t24.5 32.5t7.5 73h27q0 -53 -8.5 -82t-31 -42t-66.5 -13h-30v16z" />
    <glyph glyph-name="ldot" unicode="&#x140;" horiz-adv-x="291" 
d="M117 37.5q-31 37.5 -31 132.5v593h41v-590q0 -54 10 -83t28 -40.5t48 -14.5l61 -7v-28h-63q-63 0 -94 37.5zM233 360q-4 4 -4 9v23q0 13 14 13h21q13 0 13 -13v-23q0 -13 -13 -13h-21q-6 0 -10 4z" />
    <glyph glyph-name="uni1E37" unicode="&#x1e37;" horiz-adv-x="283" 
d="M117 37.5q-31 37.5 -31 132.5v593h41v-590q0 -54 10 -83t28 -40.5t48 -14.5l61 -7v-28h-63q-63 0 -94 37.5zM130 -188v67q0 13 13 13h19q13 0 13 -13v-67q0 -13 -13 -13h-19q-13 0 -13 13z" />
    <glyph glyph-name="uni1E3B" unicode="&#x1e3b;" horiz-adv-x="283" 
d="M117 37.5q-31 37.5 -31 132.5v593h41v-590q0 -54 10 -83t28 -40.5t48 -14.5l61 -7v-28h-63q-63 0 -94 37.5zM21 -150h256v-25h-256v25z" />
    <glyph glyph-name="lslash" unicode="&#x142;" horiz-adv-x="283" 
d="M274 28v-28h-63q-63 0 -94 37.5t-31 132.5v224l-79 -27v29l79 27v340h41v-326l111 36v-29l-111 -36v-235q0 -54 10 -83t28 -40.5t48 -14.5z" />
    <glyph glyph-name="m" unicode="m" horiz-adv-x="958" 
d="M86 532h29l12 -61q108 70 211 70q49 0 85.5 -22t56.5 -59q42 31 108 56t122 25q52 0 89.5 -23.5t56.5 -63.5t19 -87v-367h-41v365q0 59 -36 99t-96 40q-50 0 -105.5 -18.5t-109.5 -49.5q14 -36 14 -71v-365h-41v365q0 59 -35.5 99t-95.5 40q-57 0 -100.5 -14t-101.5 -46
v-444h-41v532z" />
    <glyph glyph-name="uni1E41" unicode="&#x1e41;" horiz-adv-x="958" 
d="M86 532h29l12 -61q108 70 211 70q49 0 85.5 -22t56.5 -59q42 31 108 56t122 25q52 0 89.5 -23.5t56.5 -63.5t19 -87v-367h-41v365q0 59 -36 99t-96 40q-50 0 -105.5 -18.5t-109.5 -49.5q14 -36 14 -71v-365h-41v365q0 59 -35.5 99t-95.5 40q-57 0 -100.5 -14t-101.5 -46
v-444h-41v532zM460.5 673q-3.5 4 -3.5 9v67q0 13 13 13h19q13 0 13 -13v-67q0 -6 -4 -9.5t-9 -3.5h-19q-6 0 -9.5 4z" />
    <glyph glyph-name="uni1E43" unicode="&#x1e43;" horiz-adv-x="958" 
d="M86 532h29l12 -61q108 70 211 70q49 0 85.5 -22t56.5 -59q42 31 108 56t122 25q52 0 89.5 -23.5t56.5 -63.5t19 -87v-367h-41v365q0 59 -36 99t-96 40q-50 0 -105.5 -18.5t-109.5 -49.5q14 -36 14 -71v-365h-41v365q0 59 -35.5 99t-95.5 40q-57 0 -100.5 -14t-101.5 -46
v-444h-41v532zM453 -188v67q0 13 13 13h19q13 0 13 -13v-67q0 -13 -13 -13h-19q-13 0 -13 13z" />
    <glyph glyph-name="n" unicode="n" horiz-adv-x="584" 
d="M86 532h29l12 -61q47 31 101 50.5t109 19.5q52 0 89 -24t56 -63.5t19 -85.5v-368h-41v365q0 59 -35.5 99t-95.5 40q-57 0 -100.5 -14t-101.5 -46v-444h-41v532z" />
    <glyph glyph-name="nacute" unicode="&#x144;" horiz-adv-x="584" 
d="M86 532h29l12 -61q47 31 101 50.5t109 19.5q52 0 89 -24t56 -63.5t19 -85.5v-368h-41v365q0 59 -35.5 99t-95.5 40q-57 0 -100.5 -14t-101.5 -46v-444h-41v532zM380 765h39l-131 -134h-24z" />
    <glyph glyph-name="ncaron" unicode="&#x148;" horiz-adv-x="584" 
d="M86 532h29l12 -61q47 31 101 50.5t109 19.5q52 0 89 -24t56 -63.5t19 -85.5v-368h-41v365q0 59 -35.5 99t-95.5 40q-57 0 -100.5 -14t-101.5 -46v-444h-41v532zM158 763h27l106 -110l117 110h27l-129 -132h-31z" />
    <glyph glyph-name="ncommaaccent" unicode="&#x146;" horiz-adv-x="584" 
d="M86 532h29l12 -61q47 31 101 50.5t109 19.5q52 0 89 -24t56 -63.5t19 -85.5v-368h-41v365q0 59 -35.5 99t-95.5 40q-57 0 -100.5 -14t-101.5 -46v-444h-41v532zM210 -178l31 4q30 3 46 11.5t24.5 32.5t7.5 73h27q0 -53 -8.5 -82t-31 -42t-66.5 -13h-30v16z" />
    <glyph glyph-name="uni1E45" unicode="&#x1e45;" horiz-adv-x="584" 
d="M86 532h29l12 -61q47 31 101 50.5t109 19.5q52 0 89 -24t56 -63.5t19 -85.5v-368h-41v365q0 59 -35.5 99t-95.5 40q-57 0 -100.5 -14t-101.5 -46v-444h-41v532zM266 -188v67q0 13 13 13h19q13 0 13 -13v-67q0 -13 -13 -13h-19q-13 0 -13 13z" />
    <glyph glyph-name="uni1E47" unicode="&#x1e47;" horiz-adv-x="584" 
d="M86 532h29l12 -61q47 31 101 50.5t109 19.5q52 0 89 -24t56 -63.5t19 -85.5v-368h-41v365q0 59 -35.5 99t-95.5 40q-57 0 -100.5 -14t-101.5 -46v-444h-41v532zM266 -188v67q0 13 13 13h19q13 0 13 -13v-67q0 -13 -13 -13h-19q-13 0 -13 13z" />
    <glyph glyph-name="eng" unicode="&#x14b;" horiz-adv-x="584" 
d="M426 517q37 -24 56 -63.5t19 -85.5v-368q-3 -90 -39.5 -146.5t-98.5 -90.5h-35q65 45 98.5 104t33.5 146v352q0 59 -35.5 99t-95.5 40q-57 0 -100.5 -14t-101.5 -46v-444h-41v532h29l12 -61q47 31 101 50.5t109 19.5q52 0 89 -24z" />
    <glyph glyph-name="uni1E49" unicode="&#x1e49;" horiz-adv-x="584" 
d="M86 532h29l12 -61q47 31 101 50.5t109 19.5q52 0 89 -24t56 -63.5t19 -85.5v-368h-41v365q0 59 -35.5 99t-95.5 40q-57 0 -100.5 -14t-101.5 -46v-444h-41v532zM157 -150h256v-25h-256v25z" />
    <glyph glyph-name="ntilde" unicode="&#xf1;" horiz-adv-x="584" 
d="M86 532h29l12 -61q47 31 101 50.5t109 19.5q52 0 89 -24t56 -63.5t19 -85.5v-368h-41v365q0 59 -35.5 99t-95.5 40q-57 0 -100.5 -14t-101.5 -46v-444h-41v532zM161.5 728.5q26.5 22.5 62.5 22.5q22 0 41 -9.5t47 -27.5q27 -17 42 -24.5t31 -7.5q31 0 51 18.5t20 51.5h22
q-1 -43 -25.5 -69t-67.5 -26q-20 0 -38 9t-45 26q-27 18 -43.5 26t-34.5 8q-29 0 -48 -17t-20 -52h-22q1 49 27.5 71.5z" />
    <glyph glyph-name="o" unicode="o" horiz-adv-x="578" 
d="M163.5 16q-47.5 22 -72.5 81.5t-25 169.5q0 111 25 169.5t72.5 80t124.5 21.5t125 -21.5t73.5 -80.5t25.5 -169q0 -111 -25.5 -170t-73.5 -81t-125 -22t-124.5 22zM391 46q38 17 59 68.5t21 152.5t-21 152t-59 67.5t-103 16.5t-102.5 -16.5t-58 -67.5t-20.5 -152
t20.5 -152.5t58 -68.5t102.5 -17t103 17z" />
    <glyph glyph-name="oacute" unicode="&#xf3;" horiz-adv-x="578" 
d="M163.5 16q-47.5 22 -72.5 81.5t-25 169.5q0 111 25 169.5t72.5 80t124.5 21.5t125 -21.5t73.5 -80.5t25.5 -169q0 -111 -25.5 -170t-73.5 -81t-125 -22t-124.5 22zM391 46q38 17 59 68.5t21 152.5t-21 152t-59 67.5t-103 16.5t-102.5 -16.5t-58 -67.5t-20.5 -152
t20.5 -152.5t58 -68.5t102.5 -17t103 17zM377 765h39l-131 -134h-24z" />
    <glyph glyph-name="obreve" unicode="&#x14f;" horiz-adv-x="578" 
d="M163.5 16q-47.5 22 -72.5 81.5t-25 169.5q0 111 25 169.5t72.5 80t124.5 21.5t125 -21.5t73.5 -80.5t25.5 -169q0 -111 -25.5 -170t-73.5 -81t-125 -22t-124.5 22zM391 46q38 17 59 68.5t21 152.5t-21 152t-59 67.5t-103 16.5t-102.5 -16.5t-58 -67.5t-20.5 -152
t20.5 -152.5t58 -68.5t102.5 -17t103 17zM191 663.5q-36 31.5 -36 104.5h22q0 -59 28.5 -87t72.5 -28q52 0 80.5 26.5t28.5 88.5h22q0 -74 -36.5 -105t-91.5 -31q-54 0 -90 31.5z" />
    <glyph glyph-name="ocircumflex" unicode="&#xf4;" horiz-adv-x="578" 
d="M163.5 16q-47.5 22 -72.5 81.5t-25 169.5q0 111 25 169.5t72.5 80t124.5 21.5t125 -21.5t73.5 -80.5t25.5 -169q0 -111 -25.5 -170t-73.5 -81t-125 -22t-124.5 22zM391 46q38 17 59 68.5t21 152.5t-21 152t-59 67.5t-103 16.5t-102.5 -16.5t-58 -67.5t-20.5 -152
t20.5 -152.5t58 -68.5t102.5 -17t103 17zM275 763h31l117 -132h-27l-106 110l-117 -110h-27z" />
    <glyph glyph-name="uni1ED1" unicode="&#x1ed1;" horiz-adv-x="578" 
d="M163.5 16q-47.5 22 -72.5 81.5t-25 169.5q0 111 25 169.5t72.5 80t124.5 21.5t125 -21.5t73.5 -80.5t25.5 -169q0 -111 -25.5 -170t-73.5 -81t-125 -22t-124.5 22zM391 46q38 17 59 68.5t21 152.5t-21 152t-59 67.5t-103 16.5t-102.5 -16.5t-58 -67.5t-20.5 -152
t20.5 -152.5t58 -68.5t102.5 -17t103 17zM516 835l-126 -132h-24l111 132h39zM306 724l117 -93h-28l-105 71l-117 -71h-27l129 93h31z" />
    <glyph glyph-name="uni1ED9" unicode="&#x1ed9;" horiz-adv-x="578" 
d="M163.5 16q-47.5 22 -72.5 81.5t-25 169.5q0 111 25 169.5t72.5 80t124.5 21.5t125 -21.5t73.5 -80.5t25.5 -169q0 -111 -25.5 -170t-73.5 -81t-125 -22t-124.5 22zM391 46q38 17 59 68.5t21 152.5t-21 152t-59 67.5t-103 16.5t-102.5 -16.5t-58 -67.5t-20.5 -152
t20.5 -152.5t58 -68.5t102.5 -17t103 17zM275 763h31l117 -132h-27l-106 110l-117 -110h-27zM263 -188v67q0 13 13 13h19q13 0 13 -13v-67q0 -13 -13 -13h-19q-13 0 -13 13z" />
    <glyph glyph-name="uni1ED3" unicode="&#x1ed3;" horiz-adv-x="578" 
d="M163.5 16q-47.5 22 -72.5 81.5t-25 169.5q0 111 25 169.5t72.5 80t124.5 21.5t125 -21.5t73.5 -80.5t25.5 -169q0 -111 -25.5 -170t-73.5 -81t-125 -22t-124.5 22zM391 46q38 17 59 68.5t21 152.5t-21 152t-59 67.5t-103 16.5t-102.5 -16.5t-58 -67.5t-20.5 -152
t20.5 -152.5t58 -68.5t102.5 -17t103 17zM98 835l111 -132h-24l-126 132h39zM306 724l117 -93h-28l-105 71l-117 -71h-27l129 93h31z" />
    <glyph glyph-name="uni1ED5" unicode="&#x1ed5;" horiz-adv-x="578" 
d="M163.5 16q-47.5 22 -72.5 81.5t-25 169.5q0 111 25 169.5t72.5 80t124.5 21.5t125 -21.5t73.5 -80.5t25.5 -169q0 -111 -25.5 -170t-73.5 -81t-125 -22t-124.5 22zM391 46q38 17 59 68.5t21 152.5t-21 152t-59 67.5t-103 16.5t-102.5 -16.5t-58 -67.5t-20.5 -152
t20.5 -152.5t58 -68.5t102.5 -17t103 17zM389 702q60 19 60 60q0 44 -51 44q-19 0 -37 -6v19q20 7 42 7q35 0 52 -17t17 -47q0 -26 -21 -48t-62 -33v21zM275 724h31l117 -93h-28l-105 71l-117 -71h-27z" />
    <glyph glyph-name="uni1ED7" unicode="&#x1ed7;" horiz-adv-x="578" 
d="M163.5 16q-47.5 22 -72.5 81.5t-25 169.5q0 111 25 169.5t72.5 80t124.5 21.5t125 -21.5t73.5 -80.5t25.5 -169q0 -111 -25.5 -170t-73.5 -81t-125 -22t-124.5 22zM391 46q38 17 59 68.5t21 152.5t-21 152t-59 67.5t-103 16.5t-102.5 -16.5t-58 -67.5t-20.5 -152
t20.5 -152.5t58 -68.5t102.5 -17t103 17zM246.5 839.5q18.5 -6.5 44.5 -19.5q25 -12 40.5 -18t32.5 -6q27 0 44.5 13t17.5 37h22q-1 -34 -22.5 -53.5t-59.5 -19.5q-20 0 -38 6.5t-41 18.5q-24 12 -42 18t-37 6q-25 0 -41.5 -12.5t-16.5 -37.5h-22q1 39 24 56.5t55 17.5
q21 0 39.5 -6.5zM423 631h-28l-105 71l-117 -71h-27l129 93h31z" />
    <glyph glyph-name="uni020D" unicode="&#x20d;" horiz-adv-x="578" 
d="M163.5 16q-47.5 22 -72.5 81.5t-25 169.5q0 111 25 169.5t72.5 80t124.5 21.5t125 -21.5t73.5 -80.5t25.5 -169q0 -111 -25.5 -170t-73.5 -81t-125 -22t-124.5 22zM391 46q38 17 59 68.5t21 152.5t-21 152t-59 67.5t-103 16.5t-102.5 -16.5t-58 -67.5t-20.5 -152
t20.5 -152.5t58 -68.5t102.5 -17t103 17zM103 765h39l115 -134h-24zM231 765h39l115 -134h-24z" />
    <glyph glyph-name="odieresis" unicode="&#xf6;" horiz-adv-x="578" 
d="M163.5 16q-47.5 22 -72.5 81.5t-25 169.5q0 111 25 169.5t72.5 80t124.5 21.5t125 -21.5t73.5 -80.5t25.5 -169q0 -111 -25.5 -170t-73.5 -81t-125 -22t-124.5 22zM391 46q38 17 59 68.5t21 152.5t-21 152t-59 67.5t-103 16.5t-102.5 -16.5t-58 -67.5t-20.5 -152
t20.5 -152.5t58 -68.5t102.5 -17t103 17zM172 666q-4 4 -4 9v67q0 13 13 13h19q13 0 13 -13v-67q0 -13 -13 -13h-19q-5 0 -9 4zM366 666q-4 4 -4 9v67q0 13 14 13h18q14 0 14 -13v-67q0 -6 -4 -9.5t-10 -3.5h-18q-6 0 -10 4z" />
    <glyph glyph-name="uni022B" unicode="&#x22b;" horiz-adv-x="578" 
d="M163.5 16q-47.5 22 -72.5 81.5t-25 169.5q0 111 25 169.5t72.5 80t124.5 21.5t125 -21.5t73.5 -80.5t25.5 -169q0 -111 -25.5 -170t-73.5 -81t-125 -22t-124.5 22zM391 46q38 17 59 68.5t21 152.5t-21 152t-59 67.5t-103 16.5t-102.5 -16.5t-58 -67.5t-20.5 -152
t20.5 -152.5t58 -68.5t102.5 -17t103 17zM172 666q-4 4 -4 9v67q0 13 13 13h19q13 0 13 -13v-67q0 -13 -13 -13h-19q-5 0 -9 4zM366 666q-4 4 -4 9v67q0 13 14 13h18q14 0 14 -13v-67q0 -6 -4 -9.5t-10 -3.5h-18q-6 0 -10 4zM159 865h256v-25h-256v25z" />
    <glyph glyph-name="uni0231" unicode="&#x231;" horiz-adv-x="578" 
d="M163.5 16q-47.5 22 -72.5 81.5t-25 169.5q0 111 25 169.5t72.5 80t124.5 21.5t125 -21.5t73.5 -80.5t25.5 -169q0 -111 -25.5 -170t-73.5 -81t-125 -22t-124.5 22zM391 46q38 17 59 68.5t21 152.5t-21 152t-59 67.5t-103 16.5t-102.5 -16.5t-58 -67.5t-20.5 -152
t20.5 -152.5t58 -68.5t102.5 -17t103 17zM268.5 673q-3.5 4 -3.5 9v67q0 13 13 13h19q13 0 13 -13v-67q0 -6 -4 -9.5t-9 -3.5h-19q-6 0 -9.5 4zM159 856h256v-25h-256v25z" />
    <glyph glyph-name="uni1ECD" unicode="&#x1ecd;" horiz-adv-x="578" 
d="M163.5 16q-47.5 22 -72.5 81.5t-25 169.5q0 111 25 169.5t72.5 80t124.5 21.5t125 -21.5t73.5 -80.5t25.5 -169q0 -111 -25.5 -170t-73.5 -81t-125 -22t-124.5 22zM391 46q38 17 59 68.5t21 152.5t-21 152t-59 67.5t-103 16.5t-102.5 -16.5t-58 -67.5t-20.5 -152
t20.5 -152.5t58 -68.5t102.5 -17t103 17zM263 -188v67q0 13 13 13h19q13 0 13 -13v-67q0 -13 -13 -13h-19q-13 0 -13 13z" />
    <glyph glyph-name="ograve" unicode="&#xf2;" horiz-adv-x="578" 
d="M163.5 16q-47.5 22 -72.5 81.5t-25 169.5q0 111 25 169.5t72.5 80t124.5 21.5t125 -21.5t73.5 -80.5t25.5 -169q0 -111 -25.5 -170t-73.5 -81t-125 -22t-124.5 22zM391 46q38 17 59 68.5t21 152.5t-21 152t-59 67.5t-103 16.5t-102.5 -16.5t-58 -67.5t-20.5 -152
t20.5 -152.5t58 -68.5t102.5 -17t103 17zM162 765h39l116 -134h-24z" />
    <glyph glyph-name="uni1ECF" unicode="&#x1ecf;" horiz-adv-x="578" 
d="M163.5 16q-47.5 22 -72.5 81.5t-25 169.5q0 111 25 169.5t72.5 80t124.5 21.5t125 -21.5t73.5 -80.5t25.5 -169q0 -111 -25.5 -170t-73.5 -81t-125 -22t-124.5 22zM391 46q38 17 59 68.5t21 152.5t-21 152t-59 67.5t-103 16.5t-102.5 -16.5t-58 -67.5t-20.5 -152
t20.5 -152.5t58 -68.5t102.5 -17t103 17zM275 629q34 11 50 29t16 40q0 27 -13.5 40.5t-43.5 13.5q-19 0 -37 -6v20q17 6 42 6q38 0 57 -20t19 -54q0 -29 -22.5 -53t-67.5 -37v21z" />
    <glyph glyph-name="ohorn" unicode="&#x1a1;" horiz-adv-x="578" 
d="M491.5 423q20.5 -57 20.5 -156q0 -111 -25.5 -170t-73.5 -81t-125 -22t-124.5 22t-72.5 81.5t-25 169.5q0 111 25 169.5t72.5 80t124.5 21.5q42 0 76 -6h65q82 0 82 115h33q0 -76 -32 -108t-80 -32h-2q41 -27 61.5 -84zM391 46q38 17 59 68.5t21 152.5t-21 152t-59 67.5
t-103 16.5t-102.5 -16.5t-58 -67.5t-20.5 -152t20.5 -152.5t58 -68.5t102.5 -17t103 17z" />
    <glyph glyph-name="uni1EDB" unicode="&#x1edb;" horiz-adv-x="578" 
d="M491.5 423q20.5 -57 20.5 -156q0 -111 -25.5 -170t-73.5 -81t-125 -22t-124.5 22t-72.5 81.5t-25 169.5q0 111 25 169.5t72.5 80t124.5 21.5q42 0 76 -6h65q82 0 82 115h33q0 -76 -32 -108t-80 -32h-2q41 -27 61.5 -84zM391 46q38 17 59 68.5t21 152.5t-21 152t-59 67.5
t-103 16.5t-102.5 -16.5t-58 -67.5t-20.5 -152t20.5 -152.5t58 -68.5t102.5 -17t103 17zM395 765h39l-131 -134h-24z" />
    <glyph glyph-name="uni1EE3" unicode="&#x1ee3;" horiz-adv-x="578" 
d="M491.5 423q20.5 -57 20.5 -156q0 -111 -25.5 -170t-73.5 -81t-125 -22t-124.5 22t-72.5 81.5t-25 169.5q0 111 25 169.5t72.5 80t124.5 21.5q42 0 76 -6h65q82 0 82 115h33q0 -76 -32 -108t-80 -32h-2q41 -27 61.5 -84zM391 46q38 17 59 68.5t21 152.5t-21 152t-59 67.5
t-103 16.5t-102.5 -16.5t-58 -67.5t-20.5 -152t20.5 -152.5t58 -68.5t102.5 -17t103 17zM275 -188v67q0 13 13 13h19q13 0 13 -13v-67q0 -13 -13 -13h-19q-13 0 -13 13z" />
    <glyph glyph-name="uni1EDD" unicode="&#x1edd;" horiz-adv-x="578" 
d="M491.5 423q20.5 -57 20.5 -156q0 -111 -25.5 -170t-73.5 -81t-125 -22t-124.5 22t-72.5 81.5t-25 169.5q0 111 25 169.5t72.5 80t124.5 21.5q42 0 76 -6h65q82 0 82 115h33q0 -76 -32 -108t-80 -32h-2q41 -27 61.5 -84zM391 46q38 17 59 68.5t21 152.5t-21 152t-59 67.5
t-103 16.5t-102.5 -16.5t-58 -67.5t-20.5 -152t20.5 -152.5t58 -68.5t102.5 -17t103 17zM162 765h39l116 -134h-24z" />
    <glyph glyph-name="uni1EDF" unicode="&#x1edf;" horiz-adv-x="578" 
d="M491.5 423q20.5 -57 20.5 -156q0 -111 -25.5 -170t-73.5 -81t-125 -22t-124.5 22t-72.5 81.5t-25 169.5q0 111 25 169.5t72.5 80t124.5 21.5q42 0 76 -6h65q82 0 82 115h33q0 -76 -32 -108t-80 -32h-2q41 -27 61.5 -84zM391 46q38 17 59 68.5t21 152.5t-21 152t-59 67.5
t-103 16.5t-102.5 -16.5t-58 -67.5t-20.5 -152t20.5 -152.5t58 -68.5t102.5 -17t103 17zM277 629q34 11 50 29t16 40q0 27 -13.5 40.5t-43.5 13.5q-19 0 -37 -6v20q17 6 42 6q38 0 57 -20t19 -54q0 -29 -22.5 -53t-67.5 -37v21z" />
    <glyph glyph-name="uni1EE1" unicode="&#x1ee1;" horiz-adv-x="578" 
d="M491.5 423q20.5 -57 20.5 -156q0 -111 -25.5 -170t-73.5 -81t-125 -22t-124.5 22t-72.5 81.5t-25 169.5q0 111 25 169.5t72.5 80t124.5 21.5q42 0 76 -6h65q82 0 82 115h33q0 -76 -32 -108t-80 -32h-2q41 -27 61.5 -84zM391 46q38 17 59 68.5t21 152.5t-21 152t-59 67.5
t-103 16.5t-102.5 -16.5t-58 -67.5t-20.5 -152t20.5 -152.5t58 -68.5t102.5 -17t103 17zM144.5 728.5q26.5 22.5 62.5 22.5q22 0 41 -9.5t47 -27.5q27 -17 42 -24.5t31 -7.5q31 0 51 18.5t20 51.5h22q-1 -43 -25.5 -69t-67.5 -26q-20 0 -38 9t-45 26q-27 18 -43.5 26
t-34.5 8q-29 0 -48 -17t-20 -52h-22q1 49 27.5 71.5z" />
    <glyph glyph-name="ohungarumlaut" unicode="&#x151;" horiz-adv-x="578" 
d="M163.5 16q-47.5 22 -72.5 81.5t-25 169.5q0 111 25 169.5t72.5 80t124.5 21.5t125 -21.5t73.5 -80.5t25.5 -169q0 -111 -25.5 -170t-73.5 -81t-125 -22t-124.5 22zM391 46q38 17 59 68.5t21 152.5t-21 152t-59 67.5t-103 16.5t-102.5 -16.5t-58 -67.5t-20.5 -152
t20.5 -152.5t58 -68.5t102.5 -17t103 17zM294 765h38l-129 -134h-24zM437 765h37l-128 -134h-24z" />
    <glyph glyph-name="uni020F" unicode="&#x20f;" horiz-adv-x="578" 
d="M163.5 16q-47.5 22 -72.5 81.5t-25 169.5q0 111 25 169.5t72.5 80t124.5 21.5t125 -21.5t73.5 -80.5t25.5 -169q0 -111 -25.5 -170t-73.5 -81t-125 -22t-124.5 22zM391 46q38 17 59 68.5t21 152.5t-21 152t-59 67.5t-103 16.5t-102.5 -16.5t-58 -67.5t-20.5 -152
t20.5 -152.5t58 -68.5t102.5 -17t103 17zM374 736.5q36 -31.5 36 -104.5h-22q0 59 -28.5 87t-72.5 28q-52 0 -80.5 -26.5t-28.5 -88.5h-22q0 74 36.5 105t91.5 31q54 0 90 -31.5z" />
    <glyph glyph-name="omacron" unicode="&#x14d;" horiz-adv-x="578" 
d="M163.5 16q-47.5 22 -72.5 81.5t-25 169.5q0 111 25 169.5t72.5 80t124.5 21.5t125 -21.5t73.5 -80.5t25.5 -169q0 -111 -25.5 -170t-73.5 -81t-125 -22t-124.5 22zM391 46q38 17 59 68.5t21 152.5t-21 152t-59 67.5t-103 16.5t-102.5 -16.5t-58 -67.5t-20.5 -152
t20.5 -152.5t58 -68.5t102.5 -17t103 17zM159 710h256v-25h-256v25z" />
    <glyph glyph-name="uni1E53" unicode="&#x1e53;" horiz-adv-x="578" 
d="M163.5 16q-47.5 22 -72.5 81.5t-25 169.5q0 111 25 169.5t72.5 80t124.5 21.5t125 -21.5t73.5 -80.5t25.5 -169q0 -111 -25.5 -170t-73.5 -81t-125 -22t-124.5 22zM391 46q38 17 59 68.5t21 152.5t-21 152t-59 67.5t-103 16.5t-102.5 -16.5t-58 -67.5t-20.5 -152
t20.5 -152.5t58 -68.5t102.5 -17t103 17zM159 710h256v-25h-256v25zM376 887h39l-131 -134h-24z" />
    <glyph glyph-name="uni1E51" unicode="&#x1e51;" horiz-adv-x="578" 
d="M163.5 16q-47.5 22 -72.5 81.5t-25 169.5q0 111 25 169.5t72.5 80t124.5 21.5t125 -21.5t73.5 -80.5t25.5 -169q0 -111 -25.5 -170t-73.5 -81t-125 -22t-124.5 22zM391 46q38 17 59 68.5t21 152.5t-21 152t-59 67.5t-103 16.5t-102.5 -16.5t-58 -67.5t-20.5 -152
t20.5 -152.5t58 -68.5t102.5 -17t103 17zM159 710h256v-25h-256v25zM160 887h39l116 -134h-24z" />
    <glyph glyph-name="uni01EB" unicode="&#x1eb;" horiz-adv-x="578" 
d="M279.5 -43.5q-16.5 -21.5 -16.5 -44.5q0 -35 24.5 -53.5t71.5 -18.5h6v-22q-8 -1 -23 -1q-47 0 -76 23.5t-29 63.5q0 25 17 49t51 41h-17q-77 0 -124.5 22t-72.5 81.5t-25 169.5q0 111 25 169.5t72.5 80t124.5 21.5t125 -21.5t73.5 -80.5t25.5 -169q0 -101 -21 -159
t-61.5 -83t-103.5 -30q-30 -17 -46.5 -38.5zM127.5 114.5q20.5 -51.5 58 -68.5t102.5 -17t103 17t59 68.5t21 152.5t-21 152t-59 67.5t-103 16.5t-102.5 -16.5t-58 -67.5t-20.5 -152t20.5 -152.5z" />
    <glyph glyph-name="oslash" unicode="&#xf8;" horiz-adv-x="578" 
d="M466 473q46 -63 46 -206q0 -111 -25.5 -170t-73.5 -81t-125 -22q-56 0 -95.5 11t-66.5 37l-33 -42h-29l47 60q-45 64 -45 207q0 111 25 169.5t72.5 80t124.5 21.5q57 0 96.5 -10.5t67.5 -37.5l33 42h28zM137 93l290 366q-22 26 -55 35t-84 9q-65 0 -102.5 -16.5
t-58 -67.5t-20.5 -152q0 -121 30 -174zM440 440l-289 -367q21 -25 54 -34.5t83 -9.5q65 0 103 17t59 68.5t21 152.5q0 119 -31 173z" />
    <glyph glyph-name="oslashacute" unicode="&#x1ff;" horiz-adv-x="578" 
d="M466 473q46 -63 46 -206q0 -111 -25.5 -170t-73.5 -81t-125 -22q-56 0 -95.5 11t-66.5 37l-33 -42h-29l47 60q-45 64 -45 207q0 111 25 169.5t72.5 80t124.5 21.5q57 0 96.5 -10.5t67.5 -37.5l33 42h28zM137 93l290 366q-22 26 -55 35t-84 9q-65 0 -102.5 -16.5
t-58 -67.5t-20.5 -152q0 -121 30 -174zM440 440l-289 -367q21 -25 54 -34.5t83 -9.5q65 0 103 17t59 68.5t21 152.5q0 119 -31 173zM377 765h39l-131 -134h-24z" />
    <glyph glyph-name="otilde" unicode="&#xf5;" horiz-adv-x="578" 
d="M163.5 16q-47.5 22 -72.5 81.5t-25 169.5q0 111 25 169.5t72.5 80t124.5 21.5t125 -21.5t73.5 -80.5t25.5 -169q0 -111 -25.5 -170t-73.5 -81t-125 -22t-124.5 22zM391 46q38 17 59 68.5t21 152.5t-21 152t-59 67.5t-103 16.5t-102.5 -16.5t-58 -67.5t-20.5 -152
t20.5 -152.5t58 -68.5t102.5 -17t103 17zM158.5 728.5q26.5 22.5 62.5 22.5q22 0 41 -9.5t47 -27.5q27 -17 42 -24.5t31 -7.5q31 0 51 18.5t20 51.5h22q-1 -43 -25.5 -69t-67.5 -26q-20 0 -38 9t-45 26q-27 18 -43.5 26t-34.5 8q-29 0 -48 -17t-20 -52h-22q1 49 27.5 71.5z
" />
    <glyph glyph-name="uni1E4D" unicode="&#x1e4d;" horiz-adv-x="578" 
d="M163.5 16q-47.5 22 -72.5 81.5t-25 169.5q0 111 25 169.5t72.5 80t124.5 21.5t125 -21.5t73.5 -80.5t25.5 -169q0 -111 -25.5 -170t-73.5 -81t-125 -22t-124.5 22zM391 46q38 17 59 68.5t21 152.5t-21 152t-59 67.5t-103 16.5t-102.5 -16.5t-58 -67.5t-20.5 -152
t20.5 -152.5t58 -68.5t102.5 -17t103 17zM158.5 728.5q26.5 22.5 62.5 22.5q22 0 41 -9.5t47 -27.5q27 -17 42 -24.5t31 -7.5q31 0 51 18.5t20 51.5h22q-1 -43 -25.5 -69t-67.5 -26q-20 0 -38 9t-45 26q-27 18 -43.5 26t-34.5 8q-29 0 -48 -17t-20 -52h-22q1 49 27.5 71.5z
M376 916h39l-131 -134h-24z" />
    <glyph glyph-name="uni1E4F" unicode="&#x1e4f;" horiz-adv-x="578" 
d="M163.5 16q-47.5 22 -72.5 81.5t-25 169.5q0 111 25 169.5t72.5 80t124.5 21.5t125 -21.5t73.5 -80.5t25.5 -169q0 -111 -25.5 -170t-73.5 -81t-125 -22t-124.5 22zM391 46q38 17 59 68.5t21 152.5t-21 152t-59 67.5t-103 16.5t-102.5 -16.5t-58 -67.5t-20.5 -152
t20.5 -152.5t58 -68.5t102.5 -17t103 17zM158.5 728.5q26.5 22.5 62.5 22.5q22 0 41 -9.5t47 -27.5q27 -17 42 -24.5t31 -7.5q31 0 51 18.5t20 51.5h22q-1 -43 -25.5 -69t-67.5 -26q-20 0 -38 9t-45 26q-27 18 -43.5 26t-34.5 8q-29 0 -48 -17t-20 -52h-22q1 49 27.5 71.5z
M182 818q-4 4 -4 9v67q0 13 13 13h19q13 0 13 -13v-67q0 -13 -13 -13h-19q-5 0 -9 4zM376 818q-4 4 -4 9v67q0 13 14 13h18q14 0 14 -13v-67q0 -6 -4 -9.5t-10 -3.5h-18q-6 0 -10 4z" />
    <glyph glyph-name="uni022D" unicode="&#x22d;" horiz-adv-x="578" 
d="M163.5 16q-47.5 22 -72.5 81.5t-25 169.5q0 111 25 169.5t72.5 80t124.5 21.5t125 -21.5t73.5 -80.5t25.5 -169q0 -111 -25.5 -170t-73.5 -81t-125 -22t-124.5 22zM391 46q38 17 59 68.5t21 152.5t-21 152t-59 67.5t-103 16.5t-102.5 -16.5t-58 -67.5t-20.5 -152
t20.5 -152.5t58 -68.5t102.5 -17t103 17zM159 865h256v-25h-256v25zM151.5 728.5q26.5 22.5 62.5 22.5q22 0 41 -9.5t47 -27.5q27 -17 42 -24.5t31 -7.5q31 0 51 18.5t20 51.5h22q-1 -43 -25.5 -69t-67.5 -26q-20 0 -38 9t-45 26q-27 18 -43.5 26t-34.5 8q-29 0 -48 -17
t-20 -52h-22q1 49 27.5 71.5z" />
    <glyph glyph-name="oe" unicode="&#x153;" horiz-adv-x="945" 
d="M551 79.5q42 -51.5 136 -51.5h181v-25q-93 -9 -189 -9q-76 0 -122.5 31.5t-66.5 103.5q-20 -78 -69.5 -106.5t-135.5 -28.5q-76 0 -123 22t-71.5 81.5t-24.5 169.5q0 111 25 169.5t72.5 80t124.5 21.5q84 0 133 -27.5t69 -102.5q18 68 62 99t122 31q69 0 113 -14t68 -52
t24 -108q0 -118 -136 -118h-234q0 -115 42 -166.5zM575 481q-36 -24 -51 -73t-15 -131h227q51 0 78 18.5t27 70.5q0 59 -18 89t-53 40t-95 10q-64 0 -100 -24zM391 45q38 17 59 68.5t21 153.5q0 101 -21 152.5t-59 68t-103 16.5t-102.5 -16.5t-58 -68t-20.5 -152.5
q0 -102 20.5 -153.5t58 -68.5t102.5 -17t103 17z" />
    <glyph glyph-name="p" unicode="p" horiz-adv-x="574" 
d="M86 532h31l10 -56q32 21 88 41.5t101 20.5q68 0 111 -39t62 -100t19 -131q0 -274 -192 -274q-45 0 -94.5 16t-94.5 43v-290h-41v769zM467 268q0 80 -22 132.5t-57.5 77.5t-77.5 25q-50 0 -92.5 -14t-90.5 -39v-368q96 -52 182 -52q158 0 158 238z" />
    <glyph glyph-name="uni1E57" unicode="&#x1e57;" horiz-adv-x="574" 
d="M86 532h31l10 -56q32 21 88 41.5t101 20.5q68 0 111 -39t62 -100t19 -131q0 -274 -192 -274q-45 0 -94.5 16t-94.5 43v-290h-41v769zM467 268q0 80 -22 132.5t-57.5 77.5t-77.5 25q-50 0 -92.5 -14t-90.5 -39v-368q96 -52 182 -52q158 0 158 238zM252.5 673
q-3.5 4 -3.5 9v67q0 13 13 13h19q13 0 13 -13v-67q0 -6 -4 -9.5t-9 -3.5h-19q-6 0 -9.5 4z" />
    <glyph glyph-name="thorn" unicode="&#xfe;" horiz-adv-x="574" 
d="M86 763h41v-287q32 21 88 41.5t101 20.5q67 0 110 -39t62.5 -100t19.5 -131q0 -137 -49 -205.5t-143 -68.5q-45 0 -94.5 16t-94.5 43v-290h-41v1000zM467 267q0 80 -22 133t-57.5 78t-77.5 25q-50 0 -92.5 -14t-90.5 -39v-368q96 -52 182 -52q158 0 158 237z" />
    <glyph glyph-name="q" unicode="q" horiz-adv-x="570" 
d="M447 56q-45 -29 -96.5 -45.5t-98.5 -16.5q-99 0 -142.5 68t-43.5 206q0 270 196 270q122 0 226 -10v-765h-41v293zM352.5 42.5q45.5 13.5 94.5 40.5v421h-181q-159 0 -159 -235q0 -125 35.5 -182.5t115.5 -57.5q49 0 94.5 13.5z" />
    <glyph glyph-name="r" unicode="r" horiz-adv-x="407" 
d="M86 532h30l11 -99q44 50 93 77.5t108 27.5q31 0 52 -6v-41q-25 5 -55 5q-57 0 -99.5 -21.5t-98.5 -71.5v-403h-41v532z" />
    <glyph glyph-name="racute" unicode="&#x155;" horiz-adv-x="407" 
d="M86 532h30l11 -99q44 50 93 77.5t108 27.5q31 0 52 -6v-41q-25 5 -55 5q-57 0 -99.5 -21.5t-98.5 -71.5v-403h-41v532zM292 765h39l-131 -134h-24z" />
    <glyph glyph-name="rcaron" unicode="&#x159;" horiz-adv-x="407" 
d="M86 532h30l11 -99q44 50 93 77.5t108 27.5q31 0 52 -6v-41q-25 5 -55 5q-57 0 -99.5 -21.5t-98.5 -71.5v-403h-41v532zM70 763h27l106 -110l117 110h27l-129 -132h-31z" />
    <glyph glyph-name="rcommaaccent" unicode="&#x157;" horiz-adv-x="407" 
d="M86 532h30l11 -99q44 50 93 77.5t108 27.5q31 0 52 -6v-41q-25 5 -55 5q-57 0 -99.5 -21.5t-98.5 -71.5v-403h-41v532zM26 -178l31 4q30 3 46 11.5t24.5 32.5t7.5 73h27q0 -53 -8.5 -82t-31 -42t-66.5 -13h-30v16z" />
    <glyph glyph-name="uni0211" unicode="&#x211;" horiz-adv-x="407" 
d="M86 532h30l11 -99q44 50 93 77.5t108 27.5q31 0 52 -6v-41q-25 5 -55 5q-57 0 -99.5 -21.5t-98.5 -71.5v-403h-41v532zM18 765h39l115 -134h-24zM146 765h39l115 -134h-24z" />
    <glyph glyph-name="uni1E5B" unicode="&#x1e5b;" horiz-adv-x="407" 
d="M86 532h30l11 -99q44 50 93 77.5t108 27.5q31 0 52 -6v-41q-25 5 -55 5q-57 0 -99.5 -21.5t-98.5 -71.5v-403h-41v532zM82 -188v67q0 13 13 13h19q13 0 13 -13v-67q0 -13 -13 -13h-19q-13 0 -13 13z" />
    <glyph glyph-name="uni0213" unicode="&#x213;" horiz-adv-x="407" 
d="M86 532h30l11 -99q44 50 93 77.5t108 27.5q31 0 52 -6v-41q-25 5 -55 5q-57 0 -99.5 -21.5t-98.5 -71.5v-403h-41v532zM289 736.5q36 -31.5 36 -104.5h-22q0 59 -28.5 87t-72.5 28q-52 0 -80.5 -26.5t-28.5 -88.5h-22q0 74 36.5 105t91.5 31q54 0 90 -31.5z" />
    <glyph glyph-name="uni1E5F" unicode="&#x1e5f;" horiz-adv-x="407" 
d="M86 532h30l11 -99q44 50 93 77.5t108 27.5q31 0 52 -6v-41q-25 5 -55 5q-57 0 -99.5 -21.5t-98.5 -71.5v-403h-41v532zM-27 -150h256v-25h-256v25z" />
    <glyph glyph-name="s" unicode="s" horiz-adv-x="497" 
d="M152 -3q-72 3 -92 6v25h208q45 0 73.5 7t45 28.5t16.5 63.5v27q0 44 -29.5 68t-87.5 24h-71q-78 0 -118 28t-40 96v27q0 73 42 106.5t130 33.5q41 0 100.5 -3t91.5 -7v-25h-196q-67 0 -98.5 -23t-31.5 -82v-25q0 -53 30.5 -71t93.5 -18h71q70 0 110.5 -33t40.5 -93v-32
q0 -74 -46.5 -102.5t-130.5 -28.5q-40 0 -112 3z" />
    <glyph glyph-name="sacute" unicode="&#x15b;" horiz-adv-x="497" 
d="M152 -3q-72 3 -92 6v25h208q45 0 73.5 7t45 28.5t16.5 63.5v27q0 44 -29.5 68t-87.5 24h-71q-78 0 -118 28t-40 96v27q0 73 42 106.5t130 33.5q41 0 100.5 -3t91.5 -7v-25h-196q-67 0 -98.5 -23t-31.5 -82v-25q0 -53 30.5 -71t93.5 -18h71q70 0 110.5 -33t40.5 -93v-32
q0 -74 -46.5 -102.5t-130.5 -28.5q-40 0 -112 3zM326 765h39l-131 -134h-24z" />
    <glyph glyph-name="uni1E65" unicode="&#x1e65;" horiz-adv-x="497" 
d="M152 -3q-72 3 -92 6v25h208q45 0 73.5 7t45 28.5t16.5 63.5v27q0 44 -29.5 68t-87.5 24h-71q-78 0 -118 28t-40 96v27q0 73 42 106.5t130 33.5q41 0 100.5 -3t91.5 -7v-25h-196q-67 0 -98.5 -23t-31.5 -82v-25q0 -53 30.5 -71t93.5 -18h71q70 0 110.5 -33t40.5 -93v-32
q0 -74 -46.5 -102.5t-130.5 -28.5q-40 0 -112 3zM287 765h39l-131 -134h-24zM229.5 798q-3.5 4 -3.5 9v67q0 13 13 13h19q13 0 13 -13v-67q0 -6 -4 -9.5t-9 -3.5h-19q-6 0 -9.5 4z" />
    <glyph glyph-name="scaron" unicode="&#x161;" horiz-adv-x="497" 
d="M152 -3q-72 3 -92 6v25h208q45 0 73.5 7t45 28.5t16.5 63.5v27q0 44 -29.5 68t-87.5 24h-71q-78 0 -118 28t-40 96v27q0 73 42 106.5t130 33.5q41 0 100.5 -3t91.5 -7v-25h-196q-67 0 -98.5 -23t-31.5 -82v-25q0 -53 30.5 -71t93.5 -18h71q70 0 110.5 -33t40.5 -93v-32
q0 -74 -46.5 -102.5t-130.5 -28.5q-40 0 -112 3zM104 763h27l106 -110l117 110h27l-129 -132h-31z" />
    <glyph glyph-name="uni1E67" unicode="&#x1e67;" horiz-adv-x="497" 
d="M152 -3q-72 3 -92 6v25h208q45 0 73.5 7t45 28.5t16.5 63.5v27q0 44 -29.5 68t-87.5 24h-71q-78 0 -118 28t-40 96v27q0 73 42 106.5t130 33.5q41 0 100.5 -3t91.5 -7v-25h-196q-67 0 -98.5 -23t-31.5 -82v-25q0 -53 30.5 -71t93.5 -18h71q70 0 110.5 -33t40.5 -93v-32
q0 -74 -46.5 -102.5t-130.5 -28.5q-40 0 -112 3zM104 763h27l106 -110l117 110h27l-129 -132h-31zM217.5 799q-3.5 4 -3.5 9v67q0 13 13 13h19q13 0 13 -13v-67q0 -6 -4 -9.5t-9 -3.5h-19q-6 0 -9.5 4z" />
    <glyph glyph-name="scedilla" unicode="&#x15f;" horiz-adv-x="497" 
d="M400.5 250q40.5 -33 40.5 -93v-32q0 -74 -46.5 -102.5t-130.5 -28.5h-20l-34 -51q40 -1 57.5 -17t17.5 -45q0 -31 -23.5 -48.5t-66.5 -17.5h-24v17l25 2q31 2 47 14.5t16 36.5q0 22 -16.5 34.5t-60.5 13.5l41 62q-130 2 -163 8v25h208q45 0 73.5 7t45 28.5t16.5 63.5v27
q0 44 -29.5 68t-87.5 24h-71q-78 0 -118 28t-40 96v27q0 73 42 106.5t130 33.5q41 0 100.5 -3t91.5 -7v-25h-196q-67 0 -98.5 -23t-31.5 -82v-25q0 -53 30.5 -71t93.5 -18h71q70 0 110.5 -33z" />
    <glyph glyph-name="scircumflex" unicode="&#x15d;" horiz-adv-x="497" 
d="M152 -3q-72 3 -92 6v25h208q45 0 73.5 7t45 28.5t16.5 63.5v27q0 44 -29.5 68t-87.5 24h-71q-78 0 -118 28t-40 96v27q0 73 42 106.5t130 33.5q41 0 100.5 -3t91.5 -7v-25h-196q-67 0 -98.5 -23t-31.5 -82v-25q0 -53 30.5 -71t93.5 -18h71q70 0 110.5 -33t40.5 -93v-32
q0 -74 -46.5 -102.5t-130.5 -28.5q-40 0 -112 3zM224 763h31l117 -132h-27l-106 110l-117 -110h-27z" />
    <glyph glyph-name="scommaaccent" unicode="&#x219;" horiz-adv-x="497" 
d="M152 -3q-72 3 -92 6v25h208q45 0 73.5 7t45 28.5t16.5 63.5v27q0 44 -29.5 68t-87.5 24h-71q-78 0 -118 28t-40 96v27q0 73 42 106.5t130 33.5q41 0 100.5 -3t91.5 -7v-25h-196q-67 0 -98.5 -23t-31.5 -82v-25q0 -53 30.5 -71t93.5 -18h71q70 0 110.5 -33t40.5 -93v-32
q0 -74 -46.5 -102.5t-130.5 -28.5q-40 0 -112 3zM156 -178l31 4q30 3 46 11.5t24.5 32.5t7.5 73h27q0 -53 -8.5 -82t-31 -42t-66.5 -13h-30v16z" />
    <glyph glyph-name="uni1E61" unicode="&#x1e61;" horiz-adv-x="497" 
d="M152 -3q-72 3 -92 6v25h208q45 0 73.5 7t45 28.5t16.5 63.5v27q0 44 -29.5 68t-87.5 24h-71q-78 0 -118 28t-40 96v27q0 73 42 106.5t130 33.5q41 0 100.5 -3t91.5 -7v-25h-196q-67 0 -98.5 -23t-31.5 -82v-25q0 -53 30.5 -71t93.5 -18h71q70 0 110.5 -33t40.5 -93v-32
q0 -74 -46.5 -102.5t-130.5 -28.5q-40 0 -112 3zM217.5 673q-3.5 4 -3.5 9v67q0 13 13 13h19q13 0 13 -13v-67q0 -6 -4 -9.5t-9 -3.5h-19q-6 0 -9.5 4z" />
    <glyph glyph-name="uni1E63" unicode="&#x1e63;" horiz-adv-x="497" 
d="M152 -3q-72 3 -92 6v25h208q45 0 73.5 7t45 28.5t16.5 63.5v27q0 44 -29.5 68t-87.5 24h-71q-78 0 -118 28t-40 96v27q0 73 42 106.5t130 33.5q41 0 100.5 -3t91.5 -7v-25h-196q-67 0 -98.5 -23t-31.5 -82v-25q0 -53 30.5 -71t93.5 -18h71q70 0 110.5 -33t40.5 -93v-32
q0 -74 -46.5 -102.5t-130.5 -28.5q-40 0 -112 3zM212 -188v67q0 13 13 13h19q13 0 13 -13v-67q0 -13 -13 -13h-19q-13 0 -13 13z" />
    <glyph glyph-name="uni1E69" unicode="&#x1e69;" horiz-adv-x="497" 
d="M152 -3q-72 3 -92 6v25h208q45 0 73.5 7t45 28.5t16.5 63.5v27q0 44 -29.5 68t-87.5 24h-71q-78 0 -118 28t-40 96v27q0 73 42 106.5t130 33.5q41 0 100.5 -3t91.5 -7v-25h-196q-67 0 -98.5 -23t-31.5 -82v-25q0 -53 30.5 -71t93.5 -18h71q70 0 110.5 -33t40.5 -93v-32
q0 -74 -46.5 -102.5t-130.5 -28.5q-40 0 -112 3zM212 -188v67q0 13 13 13h19q13 0 13 -13v-67q0 -13 -13 -13h-19q-13 0 -13 13zM217.5 673q-3.5 4 -3.5 9v67q0 13 13 13h19q13 0 13 -13v-67q0 -6 -4 -9.5t-9 -3.5h-19q-6 0 -9.5 4z" />
    <glyph glyph-name="germandbls" unicode="&#xdf;" horiz-adv-x="571" 
d="M292.5 -3.5q-46.5 4.5 -76.5 10.5v26q93 -5 165 -5q71 0 98.5 33t27.5 73v29q0 36 -27 52t-79 29q-41 11 -64.5 20.5t-40 29.5t-16.5 53q0 39 22.5 67.5t65.5 65.5t65.5 66t22.5 68q0 58 -42.5 88t-122.5 30q-83 0 -128.5 -46.5t-45.5 -132.5v-553h-41v555q0 94 55 154
t160 60q106 0 155 -42.5t49 -110.5q0 -34 -13.5 -61.5t-32.5 -47t-51 -46.5q-39 -32 -58.5 -55.5t-19.5 -55.5q0 -33 25 -47.5t76 -27.5q41 -11 66 -21.5t42.5 -31.5t17.5 -57v-31q0 -69 -44.5 -105.5t-116.5 -36.5q-47 0 -93.5 4.5z" />
    <glyph glyph-name="t" unicode="t" horiz-adv-x="355" 
d="M142.5 39q-35.5 39 -34.5 124l3 334h-86v26l85 9l9 149h30v-149h168v-35h-168v-334q0 -73 27.5 -99t67.5 -29l65 -6v-29h-61q-70 0 -105.5 39z" />
    <glyph glyph-name="tbar" unicode="&#x167;" horiz-adv-x="355" 
d="M149 497v-164h150v-22h-150v-148q0 -73 27.5 -99t67.5 -29l65 -6v-29h-61q-70 0 -105.5 39t-34.5 124l1 148h-84v22h85l1 164h-86v26l85 9l9 149h30v-149h168v-35h-168z" />
    <glyph glyph-name="tcaron" unicode="&#x165;" horiz-adv-x="355" 
d="M142.5 39q-35.5 39 -34.5 124l3 334h-86v26l85 9l9 149h30v-149h168v-35h-168v-334q0 -73 27.5 -99t67.5 -29l65 -6v-29h-61q-70 0 -105.5 39zM225 725v58h39v-58l-4 -143h-30z" />
    <glyph glyph-name="uni0163" unicode="&#x163;" horiz-adv-x="355" 
d="M149 497v-334q0 -73 27.5 -99t67.5 -29l65 -6v-29h-61q-28 0 -49 6l-42 -63q40 -1 57.5 -17t17.5 -45q0 -31 -23.5 -48.5t-66.5 -17.5h-24v17l25 2q31 2 47 14.5t16 36.5q0 22 -16.5 34.5t-60.5 13.5l52 78h2q-76 31 -75 152l3 334h-86v26l85 9l9 149h30v-149h168v-35
h-168z" />
    <glyph glyph-name="uni021B" unicode="&#x21b;" horiz-adv-x="355" 
d="M142.5 39q-35.5 39 -34.5 124l3 334h-86v26l85 9l9 149h30v-149h168v-35h-168v-334q0 -73 27.5 -99t67.5 -29l65 -6v-29h-61q-70 0 -105.5 39zM93 -178l31 4q30 3 46 11.5t24.5 32.5t7.5 73h27q0 -53 -8.5 -82t-31 -42t-66.5 -13h-30v16z" />
    <glyph glyph-name="uni1E97" unicode="&#x1e97;" horiz-adv-x="355" 
d="M142.5 39q-35.5 39 -34.5 124l3 334h-86v26l85 9l9 149h30v-149h168v-35h-168v-334q0 -73 27.5 -99t67.5 -29l65 -6v-29h-61q-70 0 -105.5 39zM23 748q-4 4 -4 9v67q0 13 13 13h19q13 0 13 -13v-67q0 -13 -13 -13h-19q-5 0 -9 4zM217 748q-4 4 -4 9v67q0 13 14 13h18
q14 0 14 -13v-67q0 -6 -4 -9.5t-10 -3.5h-18q-6 0 -10 4z" />
    <glyph glyph-name="uni1E6B" unicode="&#x1e6b;" horiz-adv-x="355" 
d="M142.5 39q-35.5 39 -34.5 124l3 334h-86v26l85 9l9 149h30v-149h168v-35h-168v-334q0 -73 27.5 -99t67.5 -29l65 -6v-29h-61q-70 0 -105.5 39zM117.5 755q-3.5 4 -3.5 9v67q0 13 13 13h19q13 0 13 -13v-67q0 -6 -4 -9.5t-9 -3.5h-19q-6 0 -9.5 4z" />
    <glyph glyph-name="uni1E6D" unicode="&#x1e6d;" horiz-adv-x="355" 
d="M142.5 39q-35.5 39 -34.5 124l3 334h-86v26l85 9l9 149h30v-149h168v-35h-168v-334q0 -73 27.5 -99t67.5 -29l65 -6v-29h-61q-70 0 -105.5 39zM159 -188v67q0 13 13 13h19q13 0 13 -13v-67q0 -13 -13 -13h-19q-13 0 -13 13z" />
    <glyph glyph-name="uni1E6F" unicode="&#x1e6f;" horiz-adv-x="355" 
d="M142.5 39q-35.5 39 -34.5 124l3 334h-86v26l85 9l9 149h30v-149h168v-35h-168v-334q0 -73 27.5 -99t67.5 -29l65 -6v-29h-61q-70 0 -105.5 39zM50 -150h256v-25h-256v25z" />
    <glyph glyph-name="u" unicode="u" horiz-adv-x="584" 
d="M127 33.5q-41 39.5 -41 125.5v373h41v-367q0 -75 33 -104.5t104 -29.5q55 0 98.5 13.5t97.5 43.5v444h41v-532h-29l-12 61q-46 -30 -100.5 -48.5t-110.5 -18.5q-81 0 -122 39.5z" />
    <glyph glyph-name="uacute" unicode="&#xfa;" horiz-adv-x="584" 
d="M127 33.5q-41 39.5 -41 125.5v373h41v-367q0 -75 33 -104.5t104 -29.5q55 0 98.5 13.5t97.5 43.5v444h41v-532h-29l-12 61q-46 -30 -100.5 -48.5t-110.5 -18.5q-81 0 -122 39.5zM371 765h39l-131 -134h-24z" />
    <glyph glyph-name="ubreve" unicode="&#x16d;" horiz-adv-x="584" 
d="M127 33.5q-41 39.5 -41 125.5v373h41v-367q0 -75 33 -104.5t104 -29.5q55 0 98.5 13.5t97.5 43.5v444h41v-532h-29l-12 61q-46 -30 -100.5 -48.5t-110.5 -18.5q-81 0 -122 39.5zM185 663.5q-36 31.5 -36 104.5h22q0 -59 28.5 -87t72.5 -28q52 0 80.5 26.5t28.5 88.5h22
q0 -74 -36.5 -105t-91.5 -31q-54 0 -90 31.5z" />
    <glyph glyph-name="ucircumflex" unicode="&#xfb;" horiz-adv-x="584" 
d="M127 33.5q-41 39.5 -41 125.5v373h41v-367q0 -75 33 -104.5t104 -29.5q55 0 98.5 13.5t97.5 43.5v444h41v-532h-29l-12 61q-46 -30 -100.5 -48.5t-110.5 -18.5q-81 0 -122 39.5zM269 763h31l117 -132h-27l-106 110l-117 -110h-27z" />
    <glyph glyph-name="uni0215" unicode="&#x215;" horiz-adv-x="584" 
d="M127 33.5q-41 39.5 -41 125.5v373h41v-367q0 -75 33 -104.5t104 -29.5q55 0 98.5 13.5t97.5 43.5v444h41v-532h-29l-12 61q-46 -30 -100.5 -48.5t-110.5 -18.5q-81 0 -122 39.5zM97 765h39l115 -134h-24zM225 765h39l115 -134h-24z" />
    <glyph glyph-name="udieresis" unicode="&#xfc;" horiz-adv-x="584" 
d="M127 33.5q-41 39.5 -41 125.5v373h41v-367q0 -75 33 -104.5t104 -29.5q55 0 98.5 13.5t97.5 43.5v444h41v-532h-29l-12 61q-46 -30 -100.5 -48.5t-110.5 -18.5q-81 0 -122 39.5zM166 666q-4 4 -4 9v67q0 13 13 13h19q13 0 13 -13v-67q0 -13 -13 -13h-19q-5 0 -9 4z
M360 666q-4 4 -4 9v67q0 13 14 13h18q14 0 14 -13v-67q0 -6 -4 -9.5t-10 -3.5h-18q-6 0 -10 4z" />
    <glyph glyph-name="uni1EE5" unicode="&#x1ee5;" horiz-adv-x="584" 
d="M127 33.5q-41 39.5 -41 125.5v373h41v-367q0 -75 33 -104.5t104 -29.5q55 0 98.5 13.5t97.5 43.5v444h41v-532h-29l-12 61q-46 -30 -100.5 -48.5t-110.5 -18.5q-81 0 -122 39.5zM257 -188v67q0 13 13 13h19q13 0 13 -13v-67q0 -13 -13 -13h-19q-13 0 -13 13z" />
    <glyph glyph-name="ugrave" unicode="&#xf9;" horiz-adv-x="584" 
d="M127 33.5q-41 39.5 -41 125.5v373h41v-367q0 -75 33 -104.5t104 -29.5q55 0 98.5 13.5t97.5 43.5v444h41v-532h-29l-12 61q-46 -30 -100.5 -48.5t-110.5 -18.5q-81 0 -122 39.5zM156 765h39l116 -134h-24z" />
    <glyph glyph-name="uni1EE7" unicode="&#x1ee7;" horiz-adv-x="584" 
d="M127 33.5q-41 39.5 -41 125.5v373h41v-367q0 -75 33 -104.5t104 -29.5q55 0 98.5 13.5t97.5 43.5v444h41v-532h-29l-12 61q-46 -30 -100.5 -48.5t-110.5 -18.5q-81 0 -122 39.5zM269 629q34 11 50 29t16 40q0 27 -13.5 40.5t-43.5 13.5q-19 0 -37 -6v20q17 6 42 6
q38 0 57 -20t19 -54q0 -29 -22.5 -53t-67.5 -37v21z" />
    <glyph glyph-name="uhorn" unicode="&#x1b0;" horiz-adv-x="584" 
d="M572.5 543.5q-27.5 -32.5 -71.5 -35.5v-508h-29l-12 61q-46 -30 -100.5 -48.5t-110.5 -18.5q-81 0 -122 39.5t-41 125.5v373h41v-367q0 -75 33 -104.5t104 -29.5q55 0 98.5 13.5t97.5 43.5v444h24q83 0 83 115h33q0 -71 -27.5 -103.5z" />
    <glyph glyph-name="uni1EE9" unicode="&#x1ee9;" horiz-adv-x="584" 
d="M572.5 543.5q-27.5 -32.5 -71.5 -35.5v-508h-29l-12 61q-46 -30 -100.5 -48.5t-110.5 -18.5q-81 0 -122 39.5t-41 125.5v373h41v-367q0 -75 33 -104.5t104 -29.5q55 0 98.5 13.5t97.5 43.5v444h24q83 0 83 115h33q0 -71 -27.5 -103.5zM388 765h39l-131 -134h-24z" />
    <glyph glyph-name="uni1EF1" unicode="&#x1ef1;" horiz-adv-x="584" 
d="M572.5 543.5q-27.5 -32.5 -71.5 -35.5v-508h-29l-12 61q-46 -30 -100.5 -48.5t-110.5 -18.5q-81 0 -122 39.5t-41 125.5v373h41v-367q0 -75 33 -104.5t104 -29.5q55 0 98.5 13.5t97.5 43.5v444h24q83 0 83 115h33q0 -71 -27.5 -103.5zM249 -188v67q0 13 13 13h19
q13 0 13 -13v-67q0 -13 -13 -13h-19q-13 0 -13 13z" />
    <glyph glyph-name="uni1EEB" unicode="&#x1eeb;" horiz-adv-x="584" 
d="M572.5 543.5q-27.5 -32.5 -71.5 -35.5v-508h-29l-12 61q-46 -30 -100.5 -48.5t-110.5 -18.5q-81 0 -122 39.5t-41 125.5v373h41v-367q0 -75 33 -104.5t104 -29.5q55 0 98.5 13.5t97.5 43.5v444h24q83 0 83 115h33q0 -71 -27.5 -103.5zM172 765h39l116 -134h-24z" />
    <glyph glyph-name="uni1EED" unicode="&#x1eed;" horiz-adv-x="584" 
d="M572.5 543.5q-27.5 -32.5 -71.5 -35.5v-508h-29l-12 61q-46 -30 -100.5 -48.5t-110.5 -18.5q-81 0 -122 39.5t-41 125.5v373h41v-367q0 -75 33 -104.5t104 -29.5q55 0 98.5 13.5t97.5 43.5v444h24q83 0 83 115h33q0 -71 -27.5 -103.5zM278 629q34 11 50 29t16 40
q0 27 -13.5 40.5t-43.5 13.5q-19 0 -37 -6v20q17 6 42 6q38 0 57 -20t19 -54q0 -29 -22.5 -53t-67.5 -37v21z" />
    <glyph glyph-name="uni1EEF" unicode="&#x1eef;" horiz-adv-x="584" 
d="M572.5 543.5q-27.5 -32.5 -71.5 -35.5v-508h-29l-12 61q-46 -30 -100.5 -48.5t-110.5 -18.5q-81 0 -122 39.5t-41 125.5v373h41v-367q0 -75 33 -104.5t104 -29.5q55 0 98.5 13.5t97.5 43.5v444h24q83 0 83 115h33q0 -71 -27.5 -103.5zM148.5 728.5q26.5 22.5 62.5 22.5
q22 0 41 -9.5t47 -27.5q27 -17 42 -24.5t31 -7.5q31 0 51 18.5t20 51.5h22q-1 -43 -25.5 -69t-67.5 -26q-20 0 -38 9t-45 26q-27 18 -43.5 26t-34.5 8q-29 0 -48 -17t-20 -52h-22q1 49 27.5 71.5z" />
    <glyph glyph-name="uhungarumlaut" unicode="&#x171;" horiz-adv-x="584" 
d="M127 33.5q-41 39.5 -41 125.5v373h41v-367q0 -75 33 -104.5t104 -29.5q55 0 98.5 13.5t97.5 43.5v444h41v-532h-29l-12 61q-46 -30 -100.5 -48.5t-110.5 -18.5q-81 0 -122 39.5zM288 765h38l-129 -134h-24zM431 765h37l-128 -134h-24z" />
    <glyph glyph-name="uni0217" unicode="&#x217;" horiz-adv-x="584" 
d="M127 33.5q-41 39.5 -41 125.5v373h41v-367q0 -75 33 -104.5t104 -29.5q55 0 98.5 13.5t97.5 43.5v444h41v-532h-29l-12 61q-46 -30 -100.5 -48.5t-110.5 -18.5q-81 0 -122 39.5zM368 736.5q36 -31.5 36 -104.5h-22q0 59 -28.5 87t-72.5 28q-52 0 -80.5 -26.5t-28.5 -88.5
h-22q0 74 36.5 105t91.5 31q54 0 90 -31.5z" />
    <glyph glyph-name="umacron" unicode="&#x16b;" horiz-adv-x="584" 
d="M127 33.5q-41 39.5 -41 125.5v373h41v-367q0 -75 33 -104.5t104 -29.5q55 0 98.5 13.5t97.5 43.5v444h41v-532h-29l-12 61q-46 -30 -100.5 -48.5t-110.5 -18.5q-81 0 -122 39.5zM153 710h256v-25h-256v25z" />
    <glyph glyph-name="uni1E7B" unicode="&#x1e7b;" horiz-adv-x="584" 
d="M127 33.5q-41 39.5 -41 125.5v373h41v-367q0 -75 33 -104.5t104 -29.5q55 0 98.5 13.5t97.5 43.5v444h41v-532h-29l-12 61q-46 -30 -100.5 -48.5t-110.5 -18.5q-81 0 -122 39.5zM153 710h256v-25h-256v25zM166 790q-4 4 -4 9v67q0 13 13 13h19q13 0 13 -13v-67
q0 -13 -13 -13h-19q-5 0 -9 4zM360 790q-4 4 -4 9v67q0 13 14 13h18q14 0 14 -13v-67q0 -6 -4 -9.5t-10 -3.5h-18q-6 0 -10 4z" />
    <glyph glyph-name="uogonek" unicode="&#x173;" horiz-adv-x="584" 
d="M531 -160v-22q-8 -1 -23 -1q-47 0 -76 23.5t-29 63.5q0 28 20 53t60 43h-11l-12 61q-46 -30 -100.5 -48.5t-110.5 -18.5q-81 0 -122 39.5t-41 125.5v373h41v-367q0 -75 33 -104.5t104 -29.5q55 0 98.5 13.5t97.5 43.5v444h41v-532q-35 -18 -53.5 -40.5t-18.5 -47.5
q0 -35 24.5 -53.5t71.5 -18.5h6z" />
    <glyph glyph-name="uring" unicode="&#x16f;" horiz-adv-x="584" 
d="M127 33.5q-41 39.5 -41 125.5v373h41v-367q0 -75 33 -104.5t104 -29.5q55 0 98.5 13.5t97.5 43.5v444h41v-532h-29l-12 61q-46 -30 -100.5 -48.5t-110.5 -18.5q-81 0 -122 39.5zM203 621.5q-26 23.5 -26 80.5t26 80.5t79 23.5t78 -23.5t25 -80.5t-25 -80.5t-78 -23.5
t-79 23.5zM343.5 637q18.5 18 18.5 65t-18.5 65t-61.5 18t-62.5 -18.5t-19.5 -64.5q0 -47 19.5 -65t62.5 -18t61.5 18z" />
    <glyph glyph-name="utilde" unicode="&#x169;" horiz-adv-x="584" 
d="M127 33.5q-41 39.5 -41 125.5v373h41v-367q0 -75 33 -104.5t104 -29.5q55 0 98.5 13.5t97.5 43.5v444h41v-532h-29l-12 61q-46 -30 -100.5 -48.5t-110.5 -18.5q-81 0 -122 39.5zM152.5 728.5q26.5 22.5 62.5 22.5q22 0 41 -9.5t47 -27.5q27 -17 42 -24.5t31 -7.5
q31 0 51 18.5t20 51.5h22q-1 -43 -25.5 -69t-67.5 -26q-20 0 -38 9t-45 26q-27 18 -43.5 26t-34.5 8q-29 0 -48 -17t-20 -52h-22q1 49 27.5 71.5z" />
    <glyph glyph-name="uni1E79" unicode="&#x1e79;" horiz-adv-x="584" 
d="M127 33.5q-41 39.5 -41 125.5v373h41v-367q0 -75 33 -104.5t104 -29.5q55 0 98.5 13.5t97.5 43.5v444h41v-532h-29l-12 61q-46 -30 -100.5 -48.5t-110.5 -18.5q-81 0 -122 39.5zM152.5 728.5q26.5 22.5 62.5 22.5q22 0 41 -9.5t47 -27.5q27 -17 42 -24.5t31 -7.5
q31 0 51 18.5t20 51.5h22q-1 -43 -25.5 -69t-67.5 -26q-20 0 -38 9t-45 26q-27 18 -43.5 26t-34.5 8q-29 0 -48 -17t-20 -52h-22q1 49 27.5 71.5zM370 916h39l-131 -134h-24z" />
    <glyph glyph-name="v" unicode="v" horiz-adv-x="521" 
d="M22 532h42l195 -493l198 493h41l-217 -532h-46z" />
    <glyph glyph-name="w" unicode="w" horiz-adv-x="781" 
d="M22 532h42l156 -493l152 493h39l151 -493l155 493h42l-173 -532h-45l-150 483l-151 -483h-44z" />
    <glyph glyph-name="wacute" unicode="&#x1e83;" horiz-adv-x="781" 
d="M22 532h42l156 -493l152 493h39l151 -493l155 493h42l-173 -532h-45l-150 483l-151 -483h-44zM483 765h39l-131 -134h-24z" />
    <glyph glyph-name="wcircumflex" unicode="&#x175;" horiz-adv-x="781" 
d="M22 532h42l156 -493l152 493h39l151 -493l155 493h42l-173 -532h-45l-150 483l-151 -483h-44zM381 763h31l117 -132h-27l-106 110l-117 -110h-27z" />
    <glyph glyph-name="wdieresis" unicode="&#x1e85;" horiz-adv-x="781" 
d="M22 532h42l156 -493l152 493h39l151 -493l155 493h42l-173 -532h-45l-150 483l-151 -483h-44zM278 666q-4 4 -4 9v67q0 13 13 13h19q13 0 13 -13v-67q0 -13 -13 -13h-19q-5 0 -9 4zM472 666q-4 4 -4 9v67q0 13 14 13h18q14 0 14 -13v-67q0 -6 -4 -9.5t-10 -3.5h-18
q-6 0 -10 4z" />
    <glyph glyph-name="wgrave" unicode="&#x1e81;" horiz-adv-x="781" 
d="M22 532h42l156 -493l152 493h39l151 -493l155 493h42l-173 -532h-45l-150 483l-151 -483h-44zM268 765h39l116 -134h-24z" />
    <glyph glyph-name="x" unicode="x" horiz-adv-x="488" 
d="M268 264l192 -264h-44l-174 239l-171 -239h-42l192 268l-192 264h44l174 -240l170 239l43 1z" />
    <glyph glyph-name="y" unicode="y" horiz-adv-x="526" 
d="M290 0q-33 1 -67.5 25.5t-56.5 89.5l-144 417h44l139 -408q30 -86 95 -86l161 494h42l-214 -670l-45 -99h-28z" />
    <glyph glyph-name="yacute" unicode="&#xfd;" horiz-adv-x="526" 
d="M290 0q-33 1 -67.5 25.5t-56.5 89.5l-144 417h44l139 -408q30 -86 95 -86l161 494h42l-214 -670l-45 -99h-28zM351 765h39l-131 -134h-24z" />
    <glyph glyph-name="ycircumflex" unicode="&#x177;" horiz-adv-x="526" 
d="M290 0q-33 1 -67.5 25.5t-56.5 89.5l-144 417h44l139 -408q30 -86 95 -86l161 494h42l-214 -670l-45 -99h-28zM249 763h31l117 -132h-27l-106 110l-117 -110h-27z" />
    <glyph glyph-name="ydieresis" unicode="&#xff;" horiz-adv-x="526" 
d="M290 0q-33 1 -67.5 25.5t-56.5 89.5l-144 417h44l139 -408q30 -86 95 -86l161 494h42l-214 -670l-45 -99h-28zM146 666q-4 4 -4 9v67q0 13 13 13h19q13 0 13 -13v-67q0 -13 -13 -13h-19q-5 0 -9 4zM340 666q-4 4 -4 9v67q0 13 14 13h18q14 0 14 -13v-67q0 -6 -4 -9.5
t-10 -3.5h-18q-6 0 -10 4z" />
    <glyph glyph-name="uni1E8F" unicode="&#x1e8f;" horiz-adv-x="526" 
d="M290 0q-33 1 -67.5 25.5t-56.5 89.5l-144 417h44l139 -408q30 -86 95 -86l161 494h42l-214 -670l-45 -99h-28zM400 -188v67q0 13 13 13h19q13 0 13 -13v-67q0 -13 -13 -13h-19q-13 0 -13 13z" />
    <glyph glyph-name="uni1EF5" unicode="&#x1ef5;" horiz-adv-x="526" 
d="M290 0q-33 1 -67.5 25.5t-56.5 89.5l-144 417h44l139 -408q30 -86 95 -86l161 494h42l-214 -670l-45 -99h-28zM400 -188v67q0 13 13 13h19q13 0 13 -13v-67q0 -13 -13 -13h-19q-13 0 -13 13z" />
    <glyph glyph-name="ygrave" unicode="&#x1ef3;" horiz-adv-x="526" 
d="M290 0q-33 1 -67.5 25.5t-56.5 89.5l-144 417h44l139 -408q30 -86 95 -86l161 494h42l-214 -670l-45 -99h-28zM136 765h39l116 -134h-24z" />
    <glyph glyph-name="uni1EF7" unicode="&#x1ef7;" horiz-adv-x="526" 
d="M290 0q-33 1 -67.5 25.5t-56.5 89.5l-144 417h44l139 -408q30 -86 95 -86l161 494h42l-214 -670l-45 -99h-28zM249 629q34 11 50 29t16 40q0 27 -13.5 40.5t-43.5 13.5q-19 0 -37 -6v20q17 6 42 6q38 0 57 -20t19 -54q0 -29 -22.5 -53t-67.5 -37v21z" />
    <glyph glyph-name="uni0233" unicode="&#x233;" horiz-adv-x="526" 
d="M290 0q-33 1 -67.5 25.5t-56.5 89.5l-144 417h44l139 -408q30 -86 95 -86l161 494h42l-214 -670l-45 -99h-28zM133 710h256v-25h-256v25z" />
    <glyph glyph-name="uni1EF9" unicode="&#x1ef9;" horiz-adv-x="526" 
d="M290 0q-33 1 -67.5 25.5t-56.5 89.5l-144 417h44l139 -408q30 -86 95 -86l161 494h42l-214 -670l-45 -99h-28zM132.5 728.5q26.5 22.5 62.5 22.5q22 0 41 -9.5t47 -27.5q27 -17 42 -24.5t31 -7.5q31 0 51 18.5t20 51.5h22q-1 -43 -25.5 -69t-67.5 -26q-20 0 -38 9t-45 26
q-27 18 -43.5 26t-34.5 8q-29 0 -48 -17t-20 -52h-22q1 49 27.5 71.5z" />
    <glyph glyph-name="z" unicode="z" horiz-adv-x="489" 
d="M55 34l337 463h-344v35h393v-34l-340 -463h340v-35h-386v34z" />
    <glyph glyph-name="zacute" unicode="&#x17a;" horiz-adv-x="489" 
d="M55 34l337 463h-344v35h393v-34l-340 -463h340v-35h-386v34zM321 765h39l-131 -134h-24z" />
    <glyph glyph-name="zcaron" unicode="&#x17e;" horiz-adv-x="489" 
d="M55 34l337 463h-344v35h393v-34l-340 -463h340v-35h-386v34zM99 763h27l106 -110l117 110h27l-129 -132h-31z" />
    <glyph glyph-name="zdotaccent" unicode="&#x17c;" horiz-adv-x="489" 
d="M55 34l337 463h-344v35h393v-34l-340 -463h340v-35h-386v34zM212.5 673q-3.5 4 -3.5 9v67q0 13 13 13h19q13 0 13 -13v-67q0 -6 -4 -9.5t-9 -3.5h-19q-6 0 -9.5 4z" />
    <glyph glyph-name="uni1E93" unicode="&#x1e93;" horiz-adv-x="489" 
d="M55 34l337 463h-344v35h393v-34l-340 -463h340v-35h-386v34zM207 -188v67q0 13 13 13h19q13 0 13 -13v-67q0 -13 -13 -13h-19q-13 0 -13 13z" />
    <glyph glyph-name="a.salt" horiz-adv-x="525" 
d="M93 263q42 38 120 38h205v82q0 61 -33 92.5t-117 31.5h-169v25q101 9 182 9q93 0 135.5 -39t42.5 -118v-313q-49 -32 -118.5 -54.5t-128.5 -22.5h-22q-62 0 -100.5 35.5t-38.5 97.5v33q0 65 42 103zM310 42q58 15 108 44v191l-204 -6q-64 -3 -93 -32.5t-29 -78.5v-26
q0 -54 30.5 -79t72.5 -26q57 -2 115 13z" />
    <glyph glyph-name="aacute.salt" horiz-adv-x="525" 
d="M93 263q42 38 120 38h205v82q0 61 -33 92.5t-117 31.5h-169v25q101 9 182 9q93 0 135.5 -39t42.5 -118v-313q-49 -32 -118.5 -54.5t-128.5 -22.5h-22q-62 0 -100.5 35.5t-38.5 97.5v33q0 65 42 103zM310 42q58 15 108 44v191l-204 -6q-64 -3 -93 -32.5t-29 -78.5v-26
q0 -54 30.5 -79t72.5 -26q57 -2 115 13zM368 765h39l-131 -134h-24z" />
    <glyph glyph-name="abreve.salt" horiz-adv-x="525" 
d="M93 263q42 38 120 38h205v82q0 61 -33 92.5t-117 31.5h-169v25q101 9 182 9q93 0 135.5 -39t42.5 -118v-313q-49 -32 -118.5 -54.5t-128.5 -22.5h-22q-62 0 -100.5 35.5t-38.5 97.5v33q0 65 42 103zM310 42q58 15 108 44v191l-204 -6q-64 -3 -93 -32.5t-29 -78.5v-26
q0 -54 30.5 -79t72.5 -26q57 -2 115 13zM182 663.5q-36 31.5 -36 104.5h22q0 -59 28.5 -87t72.5 -28q52 0 80.5 26.5t28.5 88.5h22q0 -74 -36.5 -105t-91.5 -31q-54 0 -90 31.5z" />
    <glyph glyph-name="uni1EAF.salt" horiz-adv-x="525" 
d="M93 263q42 38 120 38h205v82q0 61 -33 92.5t-117 31.5h-169v25q101 9 182 9q93 0 135.5 -39t42.5 -118v-313q-49 -32 -118.5 -54.5t-128.5 -22.5h-22q-62 0 -100.5 35.5t-38.5 97.5v33q0 65 42 103zM310 42q58 15 108 44v191l-204 -6q-64 -3 -93 -32.5t-29 -78.5v-26
q0 -54 30.5 -79t72.5 -26q57 -2 115 13zM367 868h39l-131 -134h-24zM195.5 671q28.5 -21 73.5 -21q109 0 109 86h22q0 -58 -36 -82t-92 -24q-55 0 -90.5 25t-35.5 81h21q0 -44 28.5 -65z" />
    <glyph glyph-name="uni1EB7.salt" horiz-adv-x="525" 
d="M93 263q42 38 120 38h205v82q0 61 -33 92.5t-117 31.5h-169v25q101 9 182 9q93 0 135.5 -39t42.5 -118v-313q-49 -32 -118.5 -54.5t-128.5 -22.5h-22q-62 0 -100.5 35.5t-38.5 97.5v33q0 65 42 103zM310 42q58 15 108 44v191l-204 -6q-64 -3 -93 -32.5t-29 -78.5v-26
q0 -54 30.5 -79t72.5 -26q57 -2 115 13zM182 663.5q-36 31.5 -36 104.5h22q0 -59 28.5 -87t72.5 -28q52 0 80.5 26.5t28.5 88.5h22q0 -74 -36.5 -105t-91.5 -31q-54 0 -90 31.5zM245 -188v67q0 13 13 13h19q13 0 13 -13v-67q0 -13 -13 -13h-19q-13 0 -13 13z" />
    <glyph glyph-name="uni1EB1.salt" horiz-adv-x="525" 
d="M93 263q42 38 120 38h205v82q0 61 -33 92.5t-117 31.5h-169v25q101 9 182 9q93 0 135.5 -39t42.5 -118v-313q-49 -32 -118.5 -54.5t-128.5 -22.5h-22q-62 0 -100.5 35.5t-38.5 97.5v33q0 65 42 103zM310 42q58 15 108 44v191l-204 -6q-64 -3 -93 -32.5t-29 -78.5v-26
q0 -54 30.5 -79t72.5 -26q57 -2 115 13zM150 868h39l116 -134h-24zM195.5 671q28.5 -21 73.5 -21q109 0 109 86h22q0 -58 -36 -82t-92 -24q-55 0 -90.5 25t-35.5 81h21q0 -44 28.5 -65z" />
    <glyph glyph-name="uni1EB3.salt" horiz-adv-x="525" 
d="M93 263q42 38 120 38h205v82q0 61 -33 92.5t-117 31.5h-169v25q101 9 182 9q93 0 135.5 -39t42.5 -118v-313q-49 -32 -118.5 -54.5t-128.5 -22.5h-22q-62 0 -100.5 35.5t-38.5 97.5v33q0 65 42 103zM310 42q58 15 108 44v191l-204 -6q-64 -3 -93 -32.5t-29 -78.5v-26
q0 -54 30.5 -79t72.5 -26q57 -2 115 13zM258 714q34 11 50 29t16 40q0 27 -13.5 40.5t-43.5 13.5q-19 0 -37 -6v20q17 6 42 6q38 0 57 -20t19 -54q0 -29 -22.5 -53t-67.5 -37v21zM181.5 655q-35.5 25 -35.5 81h21q0 -44 28.5 -65t73.5 -21q109 0 109 86h22q0 -58 -36 -82
t-92 -24q-55 0 -90.5 25z" />
    <glyph glyph-name="uni1EB5.salt" horiz-adv-x="525" 
d="M93 263q42 38 120 38h205v82q0 61 -33 92.5t-117 31.5h-169v25q101 9 182 9q93 0 135.5 -39t42.5 -118v-313q-49 -32 -118.5 -54.5t-128.5 -22.5h-22q-62 0 -100.5 35.5t-38.5 97.5v33q0 65 42 103zM310 42q58 15 108 44v191l-204 -6q-64 -3 -93 -32.5t-29 -78.5v-26
q0 -54 30.5 -79t72.5 -26q57 -2 115 13zM237.5 837.5q18.5 -6.5 44.5 -19.5q25 -12 40.5 -18t32.5 -6q27 0 44.5 13t17.5 37h22q-1 -34 -22.5 -53.5t-59.5 -19.5q-19 0 -36 6t-42 18q-23 12 -41 18.5t-38 6.5q-25 0 -42 -12.5t-17 -37.5h-22q1 39 24 56.5t55 17.5
q21 0 39.5 -6.5zM195.5 671q28.5 -21 73.5 -21q109 0 109 86h22q0 -58 -36 -82t-92 -24q-55 0 -90.5 25t-35.5 81h21q0 -44 28.5 -65z" />
    <glyph glyph-name="acircumflex.salt" horiz-adv-x="525" 
d="M93 263q42 38 120 38h205v82q0 61 -33 92.5t-117 31.5h-169v25q101 9 182 9q93 0 135.5 -39t42.5 -118v-313q-49 -32 -118.5 -54.5t-128.5 -22.5h-22q-62 0 -100.5 35.5t-38.5 97.5v33q0 65 42 103zM310 42q58 15 108 44v191l-204 -6q-64 -3 -93 -32.5t-29 -78.5v-26
q0 -54 30.5 -79t72.5 -26q57 -2 115 13zM266 763h31l117 -132h-27l-106 110l-117 -110h-27z" />
    <glyph glyph-name="uni1EA5.salt" horiz-adv-x="525" 
d="M93 263q42 38 120 38h205v82q0 61 -33 92.5t-117 31.5h-169v25q101 9 182 9q93 0 135.5 -39t42.5 -118v-313q-49 -32 -118.5 -54.5t-128.5 -22.5h-22q-62 0 -100.5 35.5t-38.5 97.5v33q0 65 42 103zM310 42q58 15 108 44v191l-204 -6q-64 -3 -93 -32.5t-29 -78.5v-26
q0 -54 30.5 -79t72.5 -26q57 -2 115 13zM507 835l-126 -132h-24l111 132h39zM297 724l117 -93h-28l-105 71l-117 -71h-27l129 93h31z" />
    <glyph glyph-name="uni1EAD.salt" horiz-adv-x="525" 
d="M93 263q42 38 120 38h205v82q0 61 -33 92.5t-117 31.5h-169v25q101 9 182 9q93 0 135.5 -39t42.5 -118v-313q-49 -32 -118.5 -54.5t-128.5 -22.5h-22q-62 0 -100.5 35.5t-38.5 97.5v33q0 65 42 103zM310 42q58 15 108 44v191l-204 -6q-64 -3 -93 -32.5t-29 -78.5v-26
q0 -54 30.5 -79t72.5 -26q57 -2 115 13zM266 763h31l117 -132h-27l-106 110l-117 -110h-27zM245 -188v67q0 13 13 13h19q13 0 13 -13v-67q0 -13 -13 -13h-19q-13 0 -13 13z" />
    <glyph glyph-name="uni1EA7.salt" horiz-adv-x="525" 
d="M93 263q42 38 120 38h205v82q0 61 -33 92.5t-117 31.5h-169v25q101 9 182 9q93 0 135.5 -39t42.5 -118v-313q-49 -32 -118.5 -54.5t-128.5 -22.5h-22q-62 0 -100.5 35.5t-38.5 97.5v33q0 65 42 103zM310 42q58 15 108 44v191l-204 -6q-64 -3 -93 -32.5t-29 -78.5v-26
q0 -54 30.5 -79t72.5 -26q57 -2 115 13zM89 835l111 -132h-24l-126 132h39zM297 724l117 -93h-28l-105 71l-117 -71h-27l129 93h31z" />
    <glyph glyph-name="uni1EA9.salt" horiz-adv-x="525" 
d="M93 263q42 38 120 38h205v82q0 61 -33 92.5t-117 31.5h-169v25q101 9 182 9q93 0 135.5 -39t42.5 -118v-313q-49 -32 -118.5 -54.5t-128.5 -22.5h-22q-62 0 -100.5 35.5t-38.5 97.5v33q0 65 42 103zM310 42q58 15 108 44v191l-204 -6q-64 -3 -93 -32.5t-29 -78.5v-26
q0 -54 30.5 -79t72.5 -26q57 -2 115 13zM380 702q60 19 60 60q0 44 -51 44q-19 0 -37 -6v19q20 7 42 7q35 0 52 -17t17 -47q0 -26 -21 -48t-62 -33v21zM266 724h31l117 -93h-28l-105 71l-117 -71h-27z" />
    <glyph glyph-name="uni1EAB.salt" horiz-adv-x="525" 
d="M93 263q42 38 120 38h205v82q0 61 -33 92.5t-117 31.5h-169v25q101 9 182 9q93 0 135.5 -39t42.5 -118v-313q-49 -32 -118.5 -54.5t-128.5 -22.5h-22q-62 0 -100.5 35.5t-38.5 97.5v33q0 65 42 103zM310 42q58 15 108 44v191l-204 -6q-64 -3 -93 -32.5t-29 -78.5v-26
q0 -54 30.5 -79t72.5 -26q57 -2 115 13zM237.5 839.5q18.5 -6.5 44.5 -19.5q25 -12 40.5 -18t32.5 -6q27 0 44.5 13t17.5 37h22q-1 -34 -22.5 -53.5t-59.5 -19.5q-20 0 -38 6.5t-41 18.5q-24 12 -42 18t-37 6q-25 0 -41.5 -12.5t-16.5 -37.5h-22q1 39 24 56.5t55 17.5
q21 0 39.5 -6.5zM414 631h-28l-105 71l-117 -71h-27l129 93h31z" />
    <glyph glyph-name="uni0201.salt" horiz-adv-x="525" 
d="M93 263q42 38 120 38h205v82q0 61 -33 92.5t-117 31.5h-169v25q101 9 182 9q93 0 135.5 -39t42.5 -118v-313q-49 -32 -118.5 -54.5t-128.5 -22.5h-22q-62 0 -100.5 35.5t-38.5 97.5v33q0 65 42 103zM310 42q58 15 108 44v191l-204 -6q-64 -3 -93 -32.5t-29 -78.5v-26
q0 -54 30.5 -79t72.5 -26q57 -2 115 13zM94 765h39l115 -134h-24zM222 765h39l115 -134h-24z" />
    <glyph glyph-name="adieresis.salt" horiz-adv-x="525" 
d="M93 263q42 38 120 38h205v82q0 61 -33 92.5t-117 31.5h-169v25q101 9 182 9q93 0 135.5 -39t42.5 -118v-313q-49 -32 -118.5 -54.5t-128.5 -22.5h-22q-62 0 -100.5 35.5t-38.5 97.5v33q0 65 42 103zM310 42q58 15 108 44v191l-204 -6q-64 -3 -93 -32.5t-29 -78.5v-26
q0 -54 30.5 -79t72.5 -26q57 -2 115 13zM163 666q-4 4 -4 9v67q0 13 13 13h19q13 0 13 -13v-67q0 -13 -13 -13h-19q-5 0 -9 4zM357 666q-4 4 -4 9v67q0 13 14 13h18q14 0 14 -13v-67q0 -6 -4 -9.5t-10 -3.5h-18q-6 0 -10 4z" />
    <glyph glyph-name="uni1EA1.salt" horiz-adv-x="525" 
d="M93 263q42 38 120 38h205v82q0 61 -33 92.5t-117 31.5h-169v25q101 9 182 9q93 0 135.5 -39t42.5 -118v-313q-49 -32 -118.5 -54.5t-128.5 -22.5h-22q-62 0 -100.5 35.5t-38.5 97.5v33q0 65 42 103zM310 42q58 15 108 44v191l-204 -6q-64 -3 -93 -32.5t-29 -78.5v-26
q0 -54 30.5 -79t72.5 -26q57 -2 115 13zM245 -188v67q0 13 13 13h19q13 0 13 -13v-67q0 -13 -13 -13h-19q-13 0 -13 13z" />
    <glyph glyph-name="agrave.salt" horiz-adv-x="525" 
d="M93 263q42 38 120 38h205v82q0 61 -33 92.5t-117 31.5h-169v25q101 9 182 9q93 0 135.5 -39t42.5 -118v-313q-49 -32 -118.5 -54.5t-128.5 -22.5h-22q-62 0 -100.5 35.5t-38.5 97.5v33q0 65 42 103zM310 42q58 15 108 44v191l-204 -6q-64 -3 -93 -32.5t-29 -78.5v-26
q0 -54 30.5 -79t72.5 -26q57 -2 115 13zM153 765h39l116 -134h-24z" />
    <glyph glyph-name="uni1EA3.salt" horiz-adv-x="525" 
d="M93 263q42 38 120 38h205v82q0 61 -33 92.5t-117 31.5h-169v25q101 9 182 9q93 0 135.5 -39t42.5 -118v-313q-49 -32 -118.5 -54.5t-128.5 -22.5h-22q-62 0 -100.5 35.5t-38.5 97.5v33q0 65 42 103zM310 42q58 15 108 44v191l-204 -6q-64 -3 -93 -32.5t-29 -78.5v-26
q0 -54 30.5 -79t72.5 -26q57 -2 115 13zM266 629q34 11 50 29t16 40q0 27 -13.5 40.5t-43.5 13.5q-19 0 -37 -6v20q17 6 42 6q38 0 57 -20t19 -54q0 -29 -22.5 -53t-67.5 -37v21z" />
    <glyph glyph-name="uni0203.salt" horiz-adv-x="525" 
d="M93 263q42 38 120 38h205v82q0 61 -33 92.5t-117 31.5h-169v25q101 9 182 9q93 0 135.5 -39t42.5 -118v-313q-49 -32 -118.5 -54.5t-128.5 -22.5h-22q-62 0 -100.5 35.5t-38.5 97.5v33q0 65 42 103zM310 42q58 15 108 44v191l-204 -6q-64 -3 -93 -32.5t-29 -78.5v-26
q0 -54 30.5 -79t72.5 -26q57 -2 115 13zM365 736.5q36 -31.5 36 -104.5h-22q0 59 -28.5 87t-72.5 28q-52 0 -80.5 -26.5t-28.5 -88.5h-22q0 74 36.5 105t91.5 31q54 0 90 -31.5z" />
    <glyph glyph-name="amacron.salt" horiz-adv-x="525" 
d="M93 263q42 38 120 38h205v82q0 61 -33 92.5t-117 31.5h-169v25q101 9 182 9q93 0 135.5 -39t42.5 -118v-313q-49 -32 -118.5 -54.5t-128.5 -22.5h-22q-62 0 -100.5 35.5t-38.5 97.5v33q0 65 42 103zM310 42q58 15 108 44v191l-204 -6q-64 -3 -93 -32.5t-29 -78.5v-26
q0 -54 30.5 -79t72.5 -26q57 -2 115 13zM150 710h256v-25h-256v25z" />
    <glyph glyph-name="aogonek.salt" horiz-adv-x="525" 
d="M220.5 -40.5q-18.5 -22.5 -18.5 -47.5q0 -35 24.5 -53.5t71.5 -18.5h6v-22q-8 -1 -23 -1q-47 0 -76 23.5t-29 63.5q0 26 18 50t54 42q-26 -2 -36 -2h-22q-62 0 -100.5 35.5t-38.5 97.5v33q0 65 42 103t120 38h205v82q0 61 -33 92.5t-117 31.5h-169v25q101 9 182 9
q93 0 135.5 -39t42.5 -118v-313q-37 -24 -86.5 -43t-98.5 -28q-35 -18 -53.5 -40.5zM310 42q58 15 108 44v191l-204 -6q-64 -3 -93 -32.5t-29 -78.5v-26q0 -54 30.5 -79t72.5 -26q57 -2 115 13z" />
    <glyph glyph-name="aring.salt" horiz-adv-x="525" 
d="M93 263q42 38 120 38h205v82q0 61 -33 92.5t-117 31.5h-169v25q101 9 182 9q93 0 135.5 -39t42.5 -118v-313q-49 -32 -118.5 -54.5t-128.5 -22.5h-22q-62 0 -100.5 35.5t-38.5 97.5v33q0 65 42 103zM310 42q58 15 108 44v191l-204 -6q-64 -3 -93 -32.5t-29 -78.5v-26
q0 -54 30.5 -79t72.5 -26q57 -2 115 13zM200 621.5q-26 23.5 -26 80.5t26 80.5t79 23.5t78 -23.5t25 -80.5t-25 -80.5t-78 -23.5t-79 23.5zM340.5 637q18.5 18 18.5 65t-18.5 65t-61.5 18t-62.5 -18.5t-19.5 -64.5q0 -47 19.5 -65t62.5 -18t61.5 18z" />
    <glyph glyph-name="aringacute.salt" horiz-adv-x="525" 
d="M200 621.5q-26 23.5 -26 80.5q0 53 22.5 77t69.5 27l103 119h39l-117 -119q46 -2 68.5 -26.5t22.5 -77.5q0 -57 -25 -80.5t-78 -23.5t-79 23.5zM216.5 766.5q-19.5 -18.5 -19.5 -64.5q0 -47 19.5 -65t62.5 -18t61.5 18t18.5 65t-18.5 65t-61.5 18t-62.5 -18.5zM416.5 502
q42.5 -39 42.5 -118v-313q-49 -32 -118.5 -54.5t-128.5 -22.5h-22q-62 0 -100.5 35.5t-38.5 97.5v33q0 65 42 103t120 38h205v82q0 61 -33 92.5t-117 31.5h-169v25q101 9 182 9q93 0 135.5 -39zM418 277l-204 -6q-64 -3 -93 -32.5t-29 -78.5v-26q0 -54 30.5 -79t72.5 -26
q57 -2 115 13t108 44v191z" />
    <glyph glyph-name="atilde.salt" horiz-adv-x="525" 
d="M93 263q42 38 120 38h205v82q0 61 -33 92.5t-117 31.5h-169v25q101 9 182 9q93 0 135.5 -39t42.5 -118v-313q-49 -32 -118.5 -54.5t-128.5 -22.5h-22q-62 0 -100.5 35.5t-38.5 97.5v33q0 65 42 103zM310 42q58 15 108 44v191l-204 -6q-64 -3 -93 -32.5t-29 -78.5v-26
q0 -54 30.5 -79t72.5 -26q57 -2 115 13zM149.5 728.5q26.5 22.5 62.5 22.5q22 0 41 -9.5t47 -27.5q27 -17 42 -24.5t31 -7.5q31 0 51 18.5t20 51.5h22q-1 -43 -25.5 -69t-67.5 -26q-20 0 -38 9t-45 26q-27 18 -43.5 26t-34.5 8q-29 0 -48 -17t-20 -52h-22q1 49 27.5 71.5z
" />
    <glyph glyph-name="b.salt" horiz-adv-x="565" 
d="M77 4v759h41v-266q42 18 101.5 28.5t98.5 10.5q105 0 144 -71t39 -207q0 -131 -47.5 -200t-143.5 -69q-155 0 -233 15zM310 26q79 0 114.5 62t35.5 171q0 123 -33.5 181.5t-115.5 58.5q-49 0 -90 -7t-103 -23v-443h192z" />
    <glyph glyph-name="uni1E03.salt" horiz-adv-x="565" 
d="M77 4v759h41v-266q42 18 101.5 28.5t98.5 10.5q105 0 144 -71t39 -207q0 -131 -47.5 -200t-143.5 -69q-155 0 -233 15zM310 26q79 0 114.5 62t35.5 171q0 123 -33.5 181.5t-115.5 58.5q-49 0 -90 -7t-103 -23v-443h192zM78.5 873q-3.5 4 -3.5 9v67q0 13 13 13h19
q13 0 13 -13v-67q0 -6 -4 -9.5t-9 -3.5h-19q-6 0 -9.5 4z" />
    <glyph glyph-name="d.salt" horiz-adv-x="565" 
d="M111 58q-47 69 -47 200q0 136 39.5 207t146.5 71q38 0 96.5 -10t99.5 -27v264h41v-756q-80 -18 -233 -18q-96 0 -143 69zM446 28v443q-60 16 -100.5 22.5t-89.5 6.5q-84 0 -117.5 -59t-33.5 -182q0 -233 151 -233q64 0 190 2z" />
    <glyph glyph-name="dcaron.salt" horiz-adv-x="565" 
d="M111 58q-47 69 -47 200q0 136 39.5 207t146.5 71q38 0 96.5 -10t99.5 -27v264h41v-756q-80 -18 -233 -18q-96 0 -143 69zM446 28v443q-60 16 -100.5 22.5t-89.5 6.5q-84 0 -117.5 -59t-33.5 -182q0 -233 151 -233q64 0 190 2zM563 725v58h39v-58l-4 -143h-30z" />
    <glyph glyph-name="dcroat.salt" horiz-adv-x="565" 
d="M562 637h-75v-630q-80 -18 -233 -18q-96 0 -143 69t-47 200q0 136 39.5 207t146.5 71q38 0 96.5 -10t99.5 -27v138h-151v21h151v105h41v-105h75v-21zM446 471q-60 16 -100.5 22.5t-89.5 6.5q-84 0 -117.5 -59t-33.5 -182q0 -233 151 -233q64 0 190 2v443z" />
    <glyph glyph-name="uni1E0B.salt" horiz-adv-x="565" 
d="M111 58q-47 69 -47 200q0 136 39.5 207t146.5 71q38 0 96.5 -10t99.5 -27v264h41v-756q-80 -18 -233 -18q-96 0 -143 69zM446 28v443q-60 16 -100.5 22.5t-89.5 6.5q-84 0 -117.5 -59t-33.5 -182q0 -233 151 -233q64 0 190 2zM447.5 873q-3.5 4 -3.5 9v67q0 13 13 13h19
q13 0 13 -13v-67q0 -6 -4 -9.5t-9 -3.5h-19q-6 0 -9.5 4z" />
    <glyph glyph-name="uni1E0D.salt" horiz-adv-x="565" 
d="M111 58q-47 69 -47 200q0 136 39.5 207t146.5 71q38 0 96.5 -10t99.5 -27v264h41v-756q-80 -18 -233 -18q-96 0 -143 69zM446 28v443q-60 16 -100.5 22.5t-89.5 6.5q-84 0 -117.5 -59t-33.5 -182q0 -233 151 -233q64 0 190 2zM263 -188v67q0 13 13 13h19q13 0 13 -13v-67
q0 -13 -13 -13h-19q-13 0 -13 13z" />
    <glyph glyph-name="uni1E0F.salt" horiz-adv-x="565" 
d="M111 58q-47 69 -47 200q0 136 39.5 207t146.5 71q38 0 96.5 -10t99.5 -27v264h41v-756q-80 -18 -233 -18q-96 0 -143 69zM446 28v443q-60 16 -100.5 22.5t-89.5 6.5q-84 0 -117.5 -59t-33.5 -182q0 -233 151 -233q64 0 190 2zM154 -150h256v-25h-256v25z" />
    <glyph glyph-name="f.salt" horiz-adv-x="336" 
d="M122 729q30 40 110 40q39 0 65.5 -3t32.5 -4v-28h-93q-62 0 -83 -29.5t-21 -95.5v-77h180v-35h-180v-497h-41v608q0 81 30 121z" />
    <glyph glyph-name="uni1E1F.salt" horiz-adv-x="336" 
d="M122 729q30 40 110 40q39 0 65.5 -3t32.5 -4v-28h-93q-62 0 -83 -29.5t-21 -95.5v-77h180v-35h-180v-497h-41v608q0 81 30 121zM201.5 876q-3.5 4 -3.5 9v67q0 13 13 13h19q13 0 13 -13v-67q0 -6 -4 -9.5t-9 -3.5h-19q-6 0 -9.5 4z" />
    <glyph glyph-name="g.salt" horiz-adv-x="569" 
d="M487 528v-549q0 -113 -53 -167.5t-177 -54.5q-73 0 -165 9v26h153q112 0 156.5 44.5t44.5 140.5v78q-45 -29 -96 -45t-99 -16q-98 0 -141.5 67.5t-43.5 206.5q0 132 48.5 201t152.5 69q118 0 220 -10zM351.5 42.5q44.5 13.5 94.5 40.5v420q-60 1 -180 1q-159 0 -159 -235
q0 -125 35.5 -182.5t115.5 -57.5q49 0 93.5 13.5z" />
    <glyph glyph-name="gbreve.salt" horiz-adv-x="569" 
d="M487 528v-549q0 -113 -53 -167.5t-177 -54.5q-73 0 -165 9v26h153q112 0 156.5 44.5t44.5 140.5v78q-45 -29 -96 -45t-99 -16q-98 0 -141.5 67.5t-43.5 206.5q0 132 48.5 201t152.5 69q118 0 220 -10zM351.5 42.5q44.5 13.5 94.5 40.5v420q-60 1 -180 1q-159 0 -159 -235
q0 -125 35.5 -182.5t115.5 -57.5q49 0 93.5 13.5zM202 663.5q-36 31.5 -36 104.5h22q0 -59 28.5 -87t72.5 -28q52 0 80.5 26.5t28.5 88.5h22q0 -74 -36.5 -105t-91.5 -31q-54 0 -90 31.5z" />
    <glyph glyph-name="gcaron.salt" horiz-adv-x="569" 
d="M487 528v-549q0 -113 -53 -167.5t-177 -54.5q-73 0 -165 9v26h153q112 0 156.5 44.5t44.5 140.5v78q-45 -29 -96 -45t-99 -16q-98 0 -141.5 67.5t-43.5 206.5q0 132 48.5 201t152.5 69q118 0 220 -10zM351.5 42.5q44.5 13.5 94.5 40.5v420q-60 1 -180 1q-159 0 -159 -235
q0 -125 35.5 -182.5t115.5 -57.5q49 0 93.5 13.5zM166 763h27l106 -110l117 110h27l-129 -132h-31z" />
    <glyph glyph-name="gcircumflex.salt" horiz-adv-x="569" 
d="M487 528v-549q0 -113 -53 -167.5t-177 -54.5q-73 0 -165 9v26h153q112 0 156.5 44.5t44.5 140.5v78q-45 -29 -96 -45t-99 -16q-98 0 -141.5 67.5t-43.5 206.5q0 132 48.5 201t152.5 69q118 0 220 -10zM351.5 42.5q44.5 13.5 94.5 40.5v420q-60 1 -180 1q-159 0 -159 -235
q0 -125 35.5 -182.5t115.5 -57.5q49 0 93.5 13.5zM286 763h31l117 -132h-27l-106 110l-117 -110h-27z" />
    <glyph glyph-name="gcommaaccent.salt" horiz-adv-x="569" 
d="M487 528v-549q0 -113 -53 -167.5t-177 -54.5q-73 0 -165 9v26h153q112 0 156.5 44.5t44.5 140.5v78q-45 -29 -96 -45t-99 -16q-98 0 -141.5 67.5t-43.5 206.5q0 132 48.5 201t152.5 69q118 0 220 -10zM351.5 42.5q44.5 13.5 94.5 40.5v420q-60 1 -180 1q-159 0 -159 -235
q0 -125 35.5 -182.5t115.5 -57.5q49 0 93.5 13.5zM262.5 692.5q8.5 28.5 31.5 42t66 13.5h30v-17l-31 -4q-30 -3 -46 -11t-24.5 -32t-7.5 -73h-27q0 53 8.5 81.5z" />
    <glyph glyph-name="gdotaccent.salt" horiz-adv-x="569" 
d="M487 528v-549q0 -113 -53 -167.5t-177 -54.5q-73 0 -165 9v26h153q112 0 156.5 44.5t44.5 140.5v78q-45 -29 -96 -45t-99 -16q-98 0 -141.5 67.5t-43.5 206.5q0 132 48.5 201t152.5 69q118 0 220 -10zM351.5 42.5q44.5 13.5 94.5 40.5v420q-60 1 -180 1q-159 0 -159 -235
q0 -125 35.5 -182.5t115.5 -57.5q49 0 93.5 13.5zM279.5 673q-3.5 4 -3.5 9v67q0 13 13 13h19q13 0 13 -13v-67q0 -6 -4 -9.5t-9 -3.5h-19q-6 0 -9.5 4z" />
    <glyph glyph-name="uni1E21.salt" horiz-adv-x="569" 
d="M487 528v-549q0 -113 -53 -167.5t-177 -54.5q-73 0 -165 9v26h153q112 0 156.5 44.5t44.5 140.5v78q-45 -29 -96 -45t-99 -16q-98 0 -141.5 67.5t-43.5 206.5q0 132 48.5 201t152.5 69q118 0 220 -10zM351.5 42.5q44.5 13.5 94.5 40.5v420q-60 1 -180 1q-159 0 -159 -235
q0 -125 35.5 -182.5t115.5 -57.5q49 0 93.5 13.5zM170 710h256v-25h-256v25z" />
    <glyph glyph-name="m.salt" horiz-adv-x="903" 
d="M211.5 530q45.5 11 108.5 11q92 0 143 -76q45 33 106 54.5t124 21.5q78 0 120 -50t42 -124v-367h-41v365q0 58 -35 98.5t-92 40.5q-59 0 -116 -19t-95 -46q7 -14 11 -34.5t4 -39.5v-365h-41v365q0 58 -36 98.5t-95 40.5q-48 0 -90.5 -9t-101.5 -31v-464h-41v487
q80 32 125.5 43z" />
    <glyph glyph-name="uni1E41.salt" horiz-adv-x="903" 
d="M211.5 530q45.5 11 108.5 11q92 0 143 -76q45 33 106 54.5t124 21.5q78 0 120 -50t42 -124v-367h-41v365q0 58 -35 98.5t-92 40.5q-59 0 -116 -19t-95 -46q7 -14 11 -34.5t4 -39.5v-365h-41v365q0 58 -36 98.5t-95 40.5q-48 0 -90.5 -9t-101.5 -31v-464h-41v487
q80 32 125.5 43zM454.5 673q-3.5 4 -3.5 9v67q0 13 13 13h19q13 0 13 -13v-67q0 -6 -4 -9.5t-9 -3.5h-19q-6 0 -9.5 4z" />
    <glyph glyph-name="uni1E43.salt" horiz-adv-x="903" 
d="M211.5 530q45.5 11 108.5 11q92 0 143 -76q45 33 106 54.5t124 21.5q78 0 120 -50t42 -124v-367h-41v365q0 58 -35 98.5t-92 40.5q-59 0 -116 -19t-95 -46q7 -14 11 -34.5t4 -39.5v-365h-41v365q0 58 -36 98.5t-95 40.5q-48 0 -90.5 -9t-101.5 -31v-464h-41v487
q80 32 125.5 43zM447 -188v67q0 13 13 13h19q13 0 13 -13v-67q0 -13 -13 -13h-19q-13 0 -13 13z" />
    <glyph glyph-name="n.salt" horiz-adv-x="583" 
d="M198 526.5q60 14.5 118 14.5q55 0 93.5 -24t57.5 -63t19 -86v-368h-41v365q0 59 -35.5 99t-95.5 40q-52 0 -96.5 -10.5t-90.5 -29.5v-464h-41v487q52 25 112 39.5z" />
    <glyph glyph-name="nacute.salt" horiz-adv-x="583" 
d="M198 526.5q60 14.5 118 14.5q55 0 93.5 -24t57.5 -63t19 -86v-368h-41v365q0 59 -35.5 99t-95.5 40q-52 0 -96.5 -10.5t-90.5 -29.5v-464h-41v487q52 25 112 39.5zM371 765h39l-131 -134h-24z" />
    <glyph glyph-name="ncaron.salt" horiz-adv-x="583" 
d="M198 526.5q60 14.5 118 14.5q55 0 93.5 -24t57.5 -63t19 -86v-368h-41v365q0 59 -35.5 99t-95.5 40q-52 0 -96.5 -10.5t-90.5 -29.5v-464h-41v487q52 25 112 39.5zM149 763h27l106 -110l117 110h27l-129 -132h-31z" />
    <glyph glyph-name="ncommaaccent.salt" horiz-adv-x="583" 
d="M198 526.5q60 14.5 118 14.5q55 0 93.5 -24t57.5 -63t19 -86v-368h-41v365q0 59 -35.5 99t-95.5 40q-52 0 -96.5 -10.5t-90.5 -29.5v-464h-41v487q52 25 112 39.5zM201 -178l31 4q30 3 46 11.5t24.5 32.5t7.5 73h27q0 -53 -8.5 -82t-31 -42t-66.5 -13h-30v16z" />
    <glyph glyph-name="uni1E45.salt" horiz-adv-x="583" 
d="M198 526.5q60 14.5 118 14.5q55 0 93.5 -24t57.5 -63t19 -86v-368h-41v365q0 59 -35.5 99t-95.5 40q-52 0 -96.5 -10.5t-90.5 -29.5v-464h-41v487q52 25 112 39.5zM257 -188v67q0 13 13 13h19q13 0 13 -13v-67q0 -13 -13 -13h-19q-13 0 -13 13z" />
    <glyph glyph-name="uni1E47.salt" horiz-adv-x="583" 
d="M198 526.5q60 14.5 118 14.5q55 0 93.5 -24t57.5 -63t19 -86v-368h-41v365q0 59 -35.5 99t-95.5 40q-52 0 -96.5 -10.5t-90.5 -29.5v-464h-41v487q52 25 112 39.5zM257 -188v67q0 13 13 13h19q13 0 13 -13v-67q0 -13 -13 -13h-19q-13 0 -13 13z" />
    <glyph glyph-name="uni1E49.salt" horiz-adv-x="583" 
d="M198 526.5q60 14.5 118 14.5q55 0 93.5 -24t57.5 -63t19 -86v-368h-41v365q0 59 -35.5 99t-95.5 40q-52 0 -96.5 -10.5t-90.5 -29.5v-464h-41v487q52 25 112 39.5zM148 -150h256v-25h-256v25z" />
    <glyph glyph-name="ntilde.salt" horiz-adv-x="583" 
d="M198 526.5q60 14.5 118 14.5q55 0 93.5 -24t57.5 -63t19 -86v-368h-41v365q0 59 -35.5 99t-95.5 40q-52 0 -96.5 -10.5t-90.5 -29.5v-464h-41v487q52 25 112 39.5zM152.5 728.5q26.5 22.5 62.5 22.5q22 0 41 -9.5t47 -27.5q27 -17 42 -24.5t31 -7.5q31 0 51 18.5t20 51.5
h22q-1 -43 -25.5 -69t-67.5 -26q-20 0 -38 9t-45 26q-27 18 -43.5 26t-34.5 8q-29 0 -48 -17t-20 -52h-22q1 49 27.5 71.5z" />
    <glyph glyph-name="p.salt" horiz-adv-x="565" 
d="M77 526q79 18 235 18q96 0 142.5 -70t46.5 -201q0 -135 -39 -206t-145 -71q-39 0 -98 10t-101 27v-300h-41v793zM426.5 92q33.5 59 33.5 180q0 234 -150 234q-128 0 -192 -1v-442q62 -16 103 -23t89 -7q83 0 116.5 59z" />
    <glyph glyph-name="uni1E57.salt" horiz-adv-x="565" 
d="M77 526q79 18 235 18q96 0 142.5 -70t46.5 -201q0 -135 -39 -206t-145 -71q-39 0 -98 10t-101 27v-300h-41v793zM426.5 92q33.5 59 33.5 180q0 234 -150 234q-128 0 -192 -1v-442q62 -16 103 -23t89 -7q83 0 116.5 59zM252.5 673q-3.5 4 -3.5 9v67q0 13 13 13h19
q13 0 13 -13v-67q0 -6 -4 -9.5t-9 -3.5h-19q-6 0 -9.5 4z" />
    <glyph glyph-name="r.salt" horiz-adv-x="383" 
d="M293 538q33 0 56 -6v-39q-30 6 -53 6q-96 0 -169 -35v-464h-41v487q102 51 207 51z" />
    <glyph glyph-name="racute.salt" horiz-adv-x="383" 
d="M293 538q33 0 56 -6v-39q-30 6 -53 6q-96 0 -169 -35v-464h-41v487q102 51 207 51zM334 765h39l-131 -134h-24z" />
    <glyph glyph-name="rcaron.salt" horiz-adv-x="383" 
d="M293 538q33 0 56 -6v-39q-30 6 -53 6q-96 0 -169 -35v-464h-41v487q102 51 207 51zM112 763h27l106 -110l117 110h27l-129 -132h-31z" />
    <glyph glyph-name="rcommaaccent.salt" horiz-adv-x="383" 
d="M293 538q33 0 56 -6v-39q-30 6 -53 6q-96 0 -169 -35v-464h-41v487q102 51 207 51zM26 -178l31 4q30 3 46 11.5t24.5 32.5t7.5 73h27q0 -53 -8.5 -82t-31 -42t-66.5 -13h-30v16z" />
    <glyph glyph-name="uni0211.salt" horiz-adv-x="383" 
d="M293 538q33 0 56 -6v-39q-30 6 -53 6q-96 0 -169 -35v-464h-41v487q102 51 207 51zM60 765h39l115 -134h-24zM188 765h39l115 -134h-24z" />
    <glyph glyph-name="uni1E5B.salt" horiz-adv-x="383" 
d="M293 538q33 0 56 -6v-39q-30 6 -53 6q-96 0 -169 -35v-464h-41v487q102 51 207 51zM82 -188v67q0 13 13 13h19q13 0 13 -13v-67q0 -13 -13 -13h-19q-13 0 -13 13z" />
    <glyph glyph-name="uni0213.salt" horiz-adv-x="383" 
d="M293 538q33 0 56 -6v-39q-30 6 -53 6q-96 0 -169 -35v-464h-41v487q102 51 207 51zM331 736.5q36 -31.5 36 -104.5h-22q0 59 -28.5 87t-72.5 28q-52 0 -80.5 -26.5t-28.5 -88.5h-22q0 74 36.5 105t91.5 31q54 0 90 -31.5z" />
    <glyph glyph-name="uni1E5F.salt" horiz-adv-x="383" 
d="M293 538q33 0 56 -6v-39q-30 6 -53 6q-96 0 -169 -35v-464h-41v487q102 51 207 51zM-27 -150h256v-25h-256v25z" />
    <glyph glyph-name="t.salt" horiz-adv-x="332" 
d="M126 681v-149h168v-35h-168v-334q0 -73 27.5 -98.5t67.5 -29.5l65 -6v-29h-61q-70 0 -105.5 39t-34.5 124l3 334v184h38z" />
    <glyph glyph-name="tbar.salt" horiz-adv-x="332" 
d="M126 497v-191h150v-22h-150v-121q0 -73 27.5 -98.5t67.5 -29.5l65 -6v-29h-61q-70 0 -105.5 39t-34.5 124l1 121h-62v22h62l2 191v184h38v-149h168v-35h-168z" />
    <glyph glyph-name="tcaron.salt" horiz-adv-x="332" 
d="M126 681v-149h168v-35h-168v-334q0 -73 27.5 -98.5t67.5 -29.5l65 -6v-29h-61q-70 0 -105.5 39t-34.5 124l3 334v184h38zM202 725v58h39v-58l-4 -143h-30z" />
    </font>
</defs>
</svg>
