<?xml version="1.0" standalone="no"?>
<!DOCTYPE svg PUBLIC "-//W3C//DTD SVG 1.1//EN" "http://www.w3.org/Graphics/SVG/1.1/DTD/svg11.dtd" >
<svg xmlns="http://www.w3.org/2000/svg" xmlns:xlink="http://www.w3.org/1999/xlink" version="1.1">
<metadata>
Created by FontForge 20170924 at Mon Jul 24 21:10:42 2017
 By www-data
Copyright 2017 The Exo Project Authors (https://github.com/NDISCOVER/Exo-1.0)
</metadata>
<defs>
<font id="Exo-Bold" horiz-adv-x="609" >
  <font-face 
    font-family="Exo"
    font-weight="700"
    font-stretch="normal"
    units-per-em="1000"
    panose-1="0 0 8 0 0 0 0 0 0 0"
    ascent="800"
    descent="-200"
    x-height="537"
    cap-height="740"
    bbox="-538 -270 1346 1121"
    underline-thickness="50"
    underline-position="-100"
    unicode-range="U+000D-FB04"
  />
<missing-glyph horiz-adv-x="657" 
d="M604 544v-551h-551v551h551zM536 476h-415v-415h415v415zM329 207l-106 -106l-61 61l106 106l-106 106l61 61l106 -106l106 106l61 -61l-106 -106l106 -106l-61 -61z" />
    <glyph glyph-name="f_f" unicode="ff" horiz-adv-x="790" 
d="M650.5 632.5q-12.5 -15.5 -12.5 -51.5v-44h136v-119h-136v-418h-149v418h-254v-418h-148v418h-76v95l76 24v58q0 96 39 135t125 39q40 0 75.5 -4.5t58.5 -12.5v-107q-32 3 -83 3q-37 0 -52 -17.5t-15 -56.5v-37h254v36q0 103 42 149.5t137 46.5q57 0 111 -15v-106h-82
q-34 0 -46.5 -15.5z" />
    <glyph glyph-name="f_f_i" unicode="ffi" horiz-adv-x="1052" 
d="M995 0h-148v418h-217v-418h-148v418h-247v-418h-148v418h-76v95l76 24v58q0 96 39 135t125 39q40 0 75.5 -4.5t58.5 -12.5v-107q-32 3 -83 3q-37 0 -52 -17.5t-15 -56.5v-37h247v58q0 96 39 135t125 39q40 0 75.5 -4.5t58.5 -12.5v-107q-32 3 -83 3q-37 0 -52 -17.5
t-15 -56.5v-37h365v-537zM993 749q5 -6 5 -15v-98q0 -20 -19 -20h-114q-10 0 -15.5 5.5t-5.5 14.5v98q0 21 21 21h114q9 0 14 -6z" />
    <glyph glyph-name="f_f_l" unicode="ffl" horiz-adv-x="1104" 
d="M1092 107v-107h-77q-85 0 -126.5 42.5t-41.5 133.5v470q-82 2 -120 2q-53 0 -75 -17.5t-22 -56.5v-37h137v-119h-137v-418h-148v418h-247v-418h-148v418h-76v95l76 24v58q0 96 39 135t125 39q40 0 75.5 -4.5t58.5 -12.5v-107q-32 3 -83 3q-37 0 -52 -17.5t-15 -56.5v-37
h247v43q0 105 53 147t170 42q81 0 160 -8t130 -19v-544q0 -44 13 -62.5t43 -22.5z" />
    <glyph glyph-name="fi" unicode="fi" horiz-adv-x="657" 
d="M600 0h-148v418h-217v-418h-148v418h-76v95l76 24v58q0 96 39 135t125 39q40 0 75.5 -4.5t58.5 -12.5v-107q-32 3 -83 3q-37 0 -52 -17.5t-15 -56.5v-37h365v-537zM598 749q5 -6 5 -15v-98q0 -20 -19 -20h-114q-10 0 -15.5 5.5t-5.5 14.5v98q0 21 21 21h114q9 0 14 -6z
" />
    <glyph glyph-name="fl" unicode="fl" horiz-adv-x="708" 
d="M697 107v-107h-77q-85 0 -126.5 42.5t-41.5 133.5v470q-82 2 -120 2q-53 0 -75 -17.5t-22 -56.5v-37h137v-119h-137v-418h-148v418h-76v95l76 24v43q0 105 53 147t170 42q81 0 160 -8t130 -19v-544q0 -44 13 -62.5t43 -22.5z" />
    <glyph glyph-name=".notdef" horiz-adv-x="657" 
d="M604 544v-551h-551v551h551zM536 476h-415v-415h415v415zM329 207l-106 -106l-61 61l106 106l-106 106l61 61l106 -106l106 106l61 -61l-106 -106l106 -106l-61 -61z" />
    <glyph glyph-name="NULL" horiz-adv-x="0" 
 />
    <glyph glyph-name="nonmarkingreturn" unicode="&#xd;" horiz-adv-x="258" 
 />
    <glyph glyph-name="space" unicode=" " horiz-adv-x="258" 
 />
    <glyph glyph-name="A" unicode="A" horiz-adv-x="685" 
d="M249 740h187l232 -740h-154l-47 155h-252l-46 -155h-152zM432 288l-91 325l-91 -325h182z" />
    <glyph glyph-name="Aacute" unicode="&#xc1;" horiz-adv-x="685" 
d="M249 740h187l232 -740h-154l-47 155h-252l-46 -155h-152zM432 288l-91 325l-91 -325h182zM386 931h119l-115 -140h-87z" />
    <glyph glyph-name="Abreve" unicode="&#x102;" horiz-adv-x="685" 
d="M249 740h187l232 -740h-154l-47 155h-252l-46 -155h-152zM432 288l-91 325l-91 -325h182zM231.5 820.5q-36.5 37.5 -36.5 113.5h69q0 -44 20 -63.5t50 -19.5q70 0 70 83h70q0 -77 -36.5 -114t-103.5 -37q-66 0 -102.5 37.5z" />
    <glyph glyph-name="uni1EAE" unicode="&#x1eae;" horiz-adv-x="685" 
d="M249 740h187l232 -740h-154l-47 155h-252l-46 -155h-152zM432 288l-91 325l-91 -325h182zM374 1053h119l-115 -140h-87zM283.5 843q19.5 -14 50.5 -14q70 0 70 61h71q0 -62 -36.5 -91.5t-104.5 -29.5q-67 0 -103 30t-36 91h69q0 -33 19.5 -47z" />
    <glyph glyph-name="uni1EB6" unicode="&#x1eb6;" horiz-adv-x="685" 
d="M249 740h187l232 -740h-154l-47 155h-252l-46 -155h-152zM432 288l-91 325l-91 -325h182zM231.5 820.5q-36.5 37.5 -36.5 113.5h69q0 -44 20 -63.5t50 -19.5q70 0 70 83h70q0 -77 -36.5 -114t-103.5 -37q-66 0 -102.5 37.5zM292 -220.5q-6 5.5 -6 15.5v97q0 10 5.5 16
t15.5 6h69q9 0 14.5 -6.5t5.5 -15.5v-97q0 -21 -20 -21h-69q-9 0 -15 5.5z" />
    <glyph glyph-name="uni1EB0" unicode="&#x1eb0;" horiz-adv-x="685" 
d="M249 740h187l232 -740h-154l-47 155h-252l-46 -155h-152zM432 288l-91 325l-91 -325h182zM183 1053h120l82 -140h-87zM283.5 843q19.5 -14 50.5 -14q70 0 70 61h71q0 -62 -36.5 -91.5t-104.5 -29.5q-67 0 -103 30t-36 91h69q0 -33 19.5 -47z" />
    <glyph glyph-name="uni1EB2" unicode="&#x1eb2;" horiz-adv-x="685" 
d="M249 740h187l232 -740h-154l-47 155h-252l-46 -155h-152zM432 288l-91 325l-91 -325h182zM313 936q40 11 40 40q0 28 -33 28q-11 0 -33 -6v58q24 8 52 8q46 0 69 -21.5t23 -61.5t-28.5 -66.5t-89.5 -43.5v65zM231 799q-36 30 -36 91h69q0 -33 19.5 -47t50.5 -14
q70 0 70 61h71q0 -62 -36.5 -91.5t-104.5 -29.5q-67 0 -103 30z" />
    <glyph glyph-name="uni1EB4" unicode="&#x1eb4;" horiz-adv-x="685" 
d="M249 740h187l232 -740h-154l-47 155h-252l-46 -155h-152zM432 288l-91 325l-91 -325h182zM333 1011q12 -5 25 -8.5t23 -3.5q19 0 29 8.5t10 24.5h74q-5 -59 -25 -81.5t-61 -22.5q-22 0 -45.5 7.5t-26.5 8.5l-19.5 6.5t-27.5 5.5q-17 0 -27.5 -8t-12.5 -21h-74
q5 58 27.5 79t60.5 21q28 0 70 -16zM283.5 843q19.5 -14 50.5 -14q70 0 70 61h71q0 -62 -36.5 -91.5t-104.5 -29.5q-67 0 -103 30t-36 91h69q0 -33 19.5 -47z" />
    <glyph glyph-name="Acircumflex" unicode="&#xc2;" horiz-adv-x="685" 
d="M249 740h187l232 -740h-154l-47 155h-252l-46 -155h-152zM432 288l-91 325l-91 -325h182zM293 933h102l98 -142h-86l-66 76l-70 -76h-86z" />
    <glyph glyph-name="uni1EA4" unicode="&#x1ea4;" horiz-adv-x="685" 
d="M249 740h187l232 -740h-154l-47 155h-252l-46 -155h-152zM432 288l-91 325l-91 -325h182zM600 1001l-78 -125h-87l45 125h120zM395 900l98 -109h-86l-65 43l-70 -43h-87l109 109h101z" />
    <glyph glyph-name="uni1EAC" unicode="&#x1eac;" horiz-adv-x="685" 
d="M249 740h187l232 -740h-154l-47 155h-252l-46 -155h-152zM432 288l-91 325l-91 -325h182zM293 933h102l98 -142h-86l-66 76l-70 -76h-86zM292 -220.5q-6 5.5 -6 15.5v97q0 10 5.5 16t15.5 6h69q9 0 14.5 -6.5t5.5 -15.5v-97q0 -21 -20 -21h-69q-9 0 -15 5.5z" />
    <glyph glyph-name="uni1EA6" unicode="&#x1ea6;" horiz-adv-x="685" 
d="M249 740h187l232 -740h-154l-47 155h-252l-46 -155h-152zM432 288l-91 325l-91 -325h182zM203 1001l46 -125h-87l-79 125h120zM395 900l98 -109h-86l-65 43l-70 -43h-87l109 109h101z" />
    <glyph glyph-name="uni1EA8" unicode="&#x1ea8;" horiz-adv-x="685" 
d="M249 740h187l232 -740h-154l-47 155h-252l-46 -155h-152zM432 288l-91 325l-91 -325h182zM459 911q31 9 31 33q0 12 -5.5 17.5t-19.5 5.5q-17 0 -32 -6v51q24 8 52 8q37 0 56 -17.5t19 -48.5q0 -40 -24 -66.5t-77 -41.5v65zM294 900h101l98 -109h-86l-65 43l-70 -43h-87z
" />
    <glyph glyph-name="uni1EAA" unicode="&#x1eaa;" horiz-adv-x="685" 
d="M249 740h187l232 -740h-154l-47 155h-252l-46 -155h-152zM432 288l-91 325l-91 -325h182zM332 1026q4 -1 19.5 -6.5t29.5 -5.5q19 0 29 8.5t10 24.5h74q-5 -59 -25 -81.5t-61 -22.5q-23 0 -47.5 7.5t-29.5 8.5q-3 1 -20.5 6.5t-29.5 5.5q-14 0 -22 -8.5t-10 -21.5h-74
q5 58 27.5 79.5t60.5 21.5q29 0 69 -16zM493 791h-86l-65 43l-70 -43h-87l109 109h101z" />
    <glyph glyph-name="uni0200" unicode="&#x200;" horiz-adv-x="685" 
d="M249 740h187l232 -740h-154l-47 155h-252l-46 -155h-152zM432 288l-91 325l-91 -325h182zM109 931h120l82 -140h-87zM288 931h119l83 -140h-88z" />
    <glyph glyph-name="Adieresis" unicode="&#xc4;" horiz-adv-x="685" 
d="M249 740h187l232 -740h-154l-47 155h-252l-46 -155h-152zM432 288l-91 325l-91 -325h182zM179 802.5q-6 5.5 -6 15.5v97q0 10 5.5 16t15.5 6h69q9 0 14.5 -6.5t5.5 -15.5v-97q0 -21 -20 -21h-69q-9 0 -15 5.5zM391.5 802.5q-5.5 5.5 -5.5 15.5v97q0 10 5 16t15 6h69
q9 0 14.5 -6.5t5.5 -15.5v-97q0 -21 -20 -21h-69q-9 0 -14.5 5.5z" />
    <glyph glyph-name="uni1EA0" unicode="&#x1ea0;" horiz-adv-x="685" 
d="M249 740h187l232 -740h-154l-47 155h-252l-46 -155h-152zM432 288l-91 325l-91 -325h182zM292 -220.5q-6 5.5 -6 15.5v97q0 10 5.5 16t15.5 6h69q9 0 14.5 -6.5t5.5 -15.5v-97q0 -21 -20 -21h-69q-9 0 -15 5.5z" />
    <glyph glyph-name="Agrave" unicode="&#xc0;" horiz-adv-x="685" 
d="M249 740h187l232 -740h-154l-47 155h-252l-46 -155h-152zM432 288l-91 325l-91 -325h182zM200 931h120l82 -140h-87z" />
    <glyph glyph-name="uni1EA2" unicode="&#x1ea2;" horiz-adv-x="685" 
d="M249 740h187l232 -740h-154l-47 155h-252l-46 -155h-152zM432 288l-91 325l-91 -325h182zM311 834q40 11 40 40q0 28 -33 28q-11 0 -33 -6v58q24 8 52 8q46 0 69 -21.5t23 -61.5t-28.5 -66.5t-89.5 -43.5v65z" />
    <glyph glyph-name="uni0202" unicode="&#x202;" horiz-adv-x="685" 
d="M249 740h187l232 -740h-154l-47 155h-252l-46 -155h-152zM432 288l-91 325l-91 -325h182zM444.5 899.5q36.5 -37.5 36.5 -113.5h-69q0 44 -20 63.5t-50 19.5q-70 0 -70 -83h-70q0 77 36.5 114t103.5 37q66 0 102.5 -37.5z" />
    <glyph glyph-name="Amacron" unicode="&#x100;" horiz-adv-x="685" 
d="M249 740h187l232 -740h-154l-47 155h-252l-46 -155h-152zM432 288l-91 325l-91 -325h182zM195 895h281v-88h-281v88z" />
    <glyph glyph-name="Aogonek" unicode="&#x104;" horiz-adv-x="685" 
d="M249 740h187l232 -740h-154l-47 155h-252l-46 -155h-152zM432 288l-91 325l-91 -325h182zM474.5 -165.5q-26.5 26.5 -26.5 63.5q0 67 67 102h54q-26 -16 -37.5 -32t-11.5 -36q0 -24 16 -37.5t42 -13.5h9v-69q-9 -4 -32 -4q-54 0 -80.5 26.5z" />
    <glyph glyph-name="Aring" unicode="&#xc5;" horiz-adv-x="685" 
d="M249 740h187l232 -740h-154l-47 155h-252l-46 -155h-152zM432 288l-91 325l-91 -325h182zM248.5 792.5q-30.5 25.5 -30.5 87.5t31 88t93 26t92 -26t30 -88t-30 -87.5t-92 -25.5q-63 0 -93.5 25.5zM383.5 835q12.5 13 12.5 45q0 33 -13 46.5t-41 13.5q-29 0 -42.5 -13.5
t-13.5 -46.5q0 -32 13.5 -45t42.5 -13t41.5 13z" />
    <glyph glyph-name="Aringacute" unicode="&#x1fa;" horiz-adv-x="685" 
d="M248.5 792.5q-30.5 25.5 -30.5 87.5q0 53 23 79.5t69 32.5l76 129h119l-109 -133q34 -9 51 -35t17 -73q0 -62 -30 -87.5t-92 -25.5q-63 0 -93.5 25.5zM299.5 926.5q-13.5 -13.5 -13.5 -46.5q0 -32 13.5 -45t42.5 -13t41.5 13t12.5 45q0 33 -13 46.5t-41 13.5
q-29 0 -42.5 -13.5zM668 0h-154l-47 155h-252l-46 -155h-152l232 740h187zM432 288l-91 325l-91 -325h182z" />
    <glyph glyph-name="Atilde" unicode="&#xc3;" horiz-adv-x="685" 
d="M249 740h187l232 -740h-154l-47 155h-252l-46 -155h-152zM432 288l-91 325l-91 -325h182zM185.5 888q28.5 31 72.5 31q25 0 44 -7t43 -20q22 -11 33.5 -15.5t25.5 -4.5q20 0 31 13.5t12 38.5h74q-3 -66 -29.5 -100t-73.5 -34q-24 0 -44 7t-46 20q-18 10 -31 15t-26 5
q-19 0 -30.5 -13t-13.5 -35h-74q4 68 32.5 99z" />
    <glyph glyph-name="AE" unicode="&#xc6;" horiz-adv-x="981" 
d="M519 21.5q-42 26.5 -49 92.5v40h-217l-91 -154h-145l300 549q56 106 127 148.5t187 42.5q113 0 305 -13v-124h-273q-32 0 -46 -13.5t-14 -41.5v-113l286 -8v-117l-286 -8v-102q0 -40 19.5 -53t56.5 -13h257v-123q-151 -16 -292 -16q-83 0 -125 26.5zM470 280v282
l-151 -282h151z" />
    <glyph glyph-name="AEacute" unicode="&#x1fc;" horiz-adv-x="981" 
d="M519 21.5q-42 26.5 -49 92.5v40h-217l-91 -154h-145l300 549q56 106 127 148.5t187 42.5q113 0 305 -13v-124h-273q-32 0 -46 -13.5t-14 -41.5v-113l286 -8v-117l-286 -8v-102q0 -40 19.5 -53t56.5 -13h257v-123q-151 -16 -292 -16q-83 0 -125 26.5zM470 280v282
l-151 -282h151zM577 931h119l-115 -140h-87z" />
    <glyph glyph-name="B" unicode="B" horiz-adv-x="627" 
d="M64 740h291q211 0 211 -194q0 -66 -27 -107.5t-76 -54.5q54 -13 90.5 -58t36.5 -122q0 -110 -55.5 -157t-166.5 -47h-304v740zM356 435q32 0 50.5 24t18.5 64q0 44 -19.5 64t-51.5 20h-142v-172h144zM364 133q85 0 85 97q0 42 -23.5 66.5t-61.5 24.5h-152v-188h152z" />
    <glyph glyph-name="uni1E02" unicode="&#x1e02;" horiz-adv-x="627" 
d="M64 740h291q211 0 211 -194q0 -66 -27 -107.5t-76 -54.5q54 -13 90.5 -58t36.5 -122q0 -110 -55.5 -157t-166.5 -47h-304v740zM356 435q32 0 50.5 24t18.5 64q0 44 -19.5 64t-51.5 20h-142v-172h144zM364 133q85 0 85 97q0 42 -23.5 66.5t-61.5 24.5h-152v-188h152z
M242 809.5q-6 5.5 -6 15.5v97q0 10 5.5 16t15.5 6h69q9 0 14.5 -6.5t5.5 -15.5v-97q0 -21 -20 -21h-69q-9 0 -15 5.5z" />
    <glyph glyph-name="C" unicode="C" horiz-adv-x="586" 
d="M163 23.5q-57 29.5 -87.5 112t-30.5 236.5q0 148 31.5 230t89.5 113.5t149 31.5q68 0 128 -10.5t103 -24.5v-115q-30 7 -85 12t-115 5t-92 -18.5t-46.5 -70t-14.5 -154.5q0 -102 13 -153t45 -71t95 -20q122 0 200 10v-114q-89 -29 -233 -29q-93 0 -150 29.5z" />
    <glyph glyph-name="Cacute" unicode="&#x106;" horiz-adv-x="586" 
d="M163 23.5q-57 29.5 -87.5 112t-30.5 236.5q0 148 31.5 230t89.5 113.5t149 31.5q68 0 128 -10.5t103 -24.5v-115q-30 7 -85 12t-115 5t-92 -18.5t-46.5 -70t-14.5 -154.5q0 -102 13 -153t45 -71t95 -20q122 0 200 10v-114q-89 -29 -233 -29q-93 0 -150 29.5zM360 931h119
l-115 -140h-87z" />
    <glyph glyph-name="Ccaron" unicode="&#x10c;" horiz-adv-x="586" 
d="M163 23.5q-57 29.5 -87.5 112t-30.5 236.5q0 148 31.5 230t89.5 113.5t149 31.5q68 0 128 -10.5t103 -24.5v-115q-30 7 -85 12t-115 5t-92 -18.5t-46.5 -70t-14.5 -154.5q0 -102 13 -153t45 -71t95 -20q122 0 200 10v-114q-89 -29 -233 -29q-93 0 -150 29.5zM163 933h86
l66 -76l70 76h86l-108 -142h-101z" />
    <glyph glyph-name="Ccedilla" unicode="&#xc7;" horiz-adv-x="586" 
d="M254 595.5q-32 -18.5 -46.5 -70t-14.5 -154.5q0 -102 13 -153t45 -71t95 -20q122 0 200 10v-114q-68 -23 -166 -27l-30 -47q31 -3 49 -20t18 -47q0 -38 -27 -59t-80 -21h-48v61l18 3q41 4 41 34t-46 36l37 58q-93 0 -150 30t-87 112t-30 236q0 148 31.5 230t89.5 113.5
t149 31.5q68 0 128 -10.5t103 -24.5v-115q-30 7 -85 12t-115 5t-92 -18.5z" />
    <glyph glyph-name="uni1E08" unicode="&#x1e08;" horiz-adv-x="586" 
d="M364 791h-87l83 140h119zM254 595.5q-32 -18.5 -46.5 -70t-14.5 -154.5q0 -102 13 -153t45 -71t95 -20q122 0 200 10v-114q-68 -23 -166 -27l-30 -47q31 -3 49 -20t18 -47q0 -38 -27 -59t-80 -21h-48v61l18 3q41 4 41 34t-46 36l37 58q-93 0 -150 30t-87 112t-30 236
q0 148 31.5 230t89.5 113.5t149 31.5q68 0 128 -10.5t103 -24.5v-115q-30 7 -85 12t-115 5t-92 -18.5z" />
    <glyph glyph-name="Ccircumflex" unicode="&#x108;" horiz-adv-x="586" 
d="M163 23.5q-57 29.5 -87.5 112t-30.5 236.5q0 148 31.5 230t89.5 113.5t149 31.5q68 0 128 -10.5t103 -24.5v-115q-30 7 -85 12t-115 5t-92 -18.5t-46.5 -70t-14.5 -154.5q0 -102 13 -153t45 -71t95 -20q122 0 200 10v-114q-89 -29 -233 -29q-93 0 -150 29.5zM267 933h102
l98 -142h-86l-66 76l-70 -76h-86z" />
    <glyph glyph-name="Cdotaccent" unicode="&#x10a;" horiz-adv-x="586" 
d="M163 23.5q-57 29.5 -87.5 112t-30.5 236.5q0 148 31.5 230t89.5 113.5t149 31.5q68 0 128 -10.5t103 -24.5v-115q-30 7 -85 12t-115 5t-92 -18.5t-46.5 -70t-14.5 -154.5q0 -102 13 -153t45 -71t95 -20q122 0 200 10v-114q-89 -29 -233 -29q-93 0 -150 29.5zM263 809.5
q-6 5.5 -6 15.5v97q0 10 5.5 16t15.5 6h69q9 0 14.5 -6.5t5.5 -15.5v-97q0 -21 -20 -21h-69q-9 0 -15 5.5z" />
    <glyph glyph-name="D" unicode="D" horiz-adv-x="680" 
d="M64 740h313q142 0 200 -96t58 -274q0 -187 -64 -278.5t-194 -91.5h-313v740zM362 133q67 0 96 58.5t29 178.5q0 94 -13.5 145.5t-40.5 71.5t-71 20h-150v-474h150z" />
    <glyph glyph-name="Eth" unicode="&#xd0;" horiz-adv-x="680" 
d="M577 644q58 -96 58 -274q0 -187 -64 -278.5t-194 -91.5h-313v324h-52v97h52v319h313q142 0 200 -96zM458 191.5q29 58.5 29 178.5q0 94 -13.5 145.5t-40.5 71.5t-71 20h-150v-186h119v-97h-119v-191h150q67 0 96 58.5z" />
    <glyph glyph-name="Dcaron" unicode="&#x10e;" horiz-adv-x="680" 
d="M64 740h313q142 0 200 -96t58 -274q0 -187 -64 -278.5t-194 -91.5h-313v740zM362 133q67 0 96 58.5t29 178.5q0 94 -13.5 145.5t-40.5 71.5t-71 20h-150v-474h150zM176 933h86l66 -76l70 76h86l-108 -142h-101z" />
    <glyph glyph-name="Dcroat" unicode="&#x110;" horiz-adv-x="680" 
d="M577 644q58 -96 58 -274q0 -187 -64 -278.5t-194 -91.5h-313v324h-52v97h52v319h313q142 0 200 -96zM458 191.5q29 58.5 29 178.5q0 94 -13.5 145.5t-40.5 71.5t-71 20h-150v-186h119v-97h-119v-191h150q67 0 96 58.5z" />
    <glyph glyph-name="uni1E0A" unicode="&#x1e0a;" horiz-adv-x="680" 
d="M64 740h313q142 0 200 -96t58 -274q0 -187 -64 -278.5t-194 -91.5h-313v740zM362 133q67 0 96 58.5t29 178.5q0 94 -13.5 145.5t-40.5 71.5t-71 20h-150v-474h150zM276 809.5q-6 5.5 -6 15.5v97q0 10 5.5 16t15.5 6h69q9 0 14.5 -6.5t5.5 -15.5v-97q0 -21 -20 -21h-69
q-9 0 -15 5.5z" />
    <glyph glyph-name="uni1E0C" unicode="&#x1e0c;" horiz-adv-x="680" 
d="M64 740h313q142 0 200 -96t58 -274q0 -187 -64 -278.5t-194 -91.5h-313v740zM362 133q67 0 96 58.5t29 178.5q0 94 -13.5 145.5t-40.5 71.5t-71 20h-150v-474h150zM246 -220.5q-6 5.5 -6 15.5v97q0 10 5.5 16t15.5 6h69q9 0 14.5 -6.5t5.5 -15.5v-97q0 -21 -20 -21h-69
q-9 0 -15 5.5z" />
    <glyph glyph-name="uni1E0E" unicode="&#x1e0e;" horiz-adv-x="680" 
d="M64 740h313q142 0 200 -96t58 -274q0 -187 -64 -278.5t-194 -91.5h-313v740zM362 133q67 0 96 58.5t29 178.5q0 94 -13.5 145.5t-40.5 71.5t-71 20h-150v-474h150zM156 -125h281v-88h-281v88z" />
    <glyph glyph-name="E" unicode="E" horiz-adv-x="597" 
d="M118 27q-54 32 -54 131v413q0 90 49.5 129.5t119.5 39.5q153 0 320 -13v-124h-276q-65 0 -65 -61v-107l293 -8v-117l-293 -8v-102q0 -66 62 -66h279v-124q-133 -15 -309 -15q-72 0 -126 32z" />
    <glyph glyph-name="Eacute" unicode="&#xc9;" horiz-adv-x="597" 
d="M118 27q-54 32 -54 131v413q0 90 49.5 129.5t119.5 39.5q153 0 320 -13v-124h-276q-65 0 -65 -61v-107l293 -8v-117l-293 -8v-102q0 -66 62 -66h279v-124q-133 -15 -309 -15q-72 0 -126 32zM358 931h119l-115 -140h-87z" />
    <glyph glyph-name="Ebreve" unicode="&#x114;" horiz-adv-x="597" 
d="M118 27q-54 32 -54 131v413q0 90 49.5 129.5t119.5 39.5q153 0 320 -13v-124h-276q-65 0 -65 -61v-107l293 -8v-117l-293 -8v-102q0 -66 62 -66h279v-124q-133 -15 -309 -15q-72 0 -126 32zM203.5 820.5q-36.5 37.5 -36.5 113.5h69q0 -44 20 -63.5t50 -19.5q70 0 70 83
h70q0 -77 -36.5 -114t-103.5 -37q-66 0 -102.5 37.5z" />
    <glyph glyph-name="Ecaron" unicode="&#x11a;" horiz-adv-x="597" 
d="M118 27q-54 32 -54 131v413q0 90 49.5 129.5t119.5 39.5q153 0 320 -13v-124h-276q-65 0 -65 -61v-107l293 -8v-117l-293 -8v-102q0 -66 62 -66h279v-124q-133 -15 -309 -15q-72 0 -126 32zM161 933h86l66 -76l70 76h86l-108 -142h-101z" />
    <glyph glyph-name="uni1E1C" unicode="&#x1e1c;" horiz-adv-x="597" 
d="M203.5 820.5q-36.5 37.5 -36.5 113.5h69q0 -44 20 -63.5t50 -19.5q70 0 70 83h70q0 -77 -36.5 -114t-103.5 -37q-66 0 -102.5 37.5zM212 542v-107l293 -8v-117l-293 -8v-102q0 -66 62 -66h279v-124q-74 -9 -176 -12l-31 -49q31 -3 49 -20t18 -47q0 -38 -27 -59t-80 -21
h-48v61l18 3q41 4 41 34t-46 36l38 60q-23 -1 -65 -1q-72 0 -126 32t-54 131v413q0 90 49.5 129.5t119.5 39.5q153 0 320 -13v-124h-276q-65 0 -65 -61z" />
    <glyph glyph-name="Ecircumflex" unicode="&#xca;" horiz-adv-x="597" 
d="M118 27q-54 32 -54 131v413q0 90 49.5 129.5t119.5 39.5q153 0 320 -13v-124h-276q-65 0 -65 -61v-107l293 -8v-117l-293 -8v-102q0 -66 62 -66h279v-124q-133 -15 -309 -15q-72 0 -126 32zM265 933h102l98 -142h-86l-66 76l-70 -76h-86z" />
    <glyph glyph-name="uni1EBE" unicode="&#x1ebe;" horiz-adv-x="597" 
d="M118 27q-54 32 -54 131v413q0 90 49.5 129.5t119.5 39.5q153 0 320 -13v-124h-276q-65 0 -65 -61v-107l293 -8v-117l-293 -8v-102q0 -66 62 -66h279v-124q-133 -15 -309 -15q-72 0 -126 32zM572 1001l-78 -125h-87l45 125h120zM367 900l98 -109h-86l-65 43l-70 -43h-87
l109 109h101z" />
    <glyph glyph-name="uni1EC6" unicode="&#x1ec6;" horiz-adv-x="597" 
d="M118 27q-54 32 -54 131v413q0 90 49.5 129.5t119.5 39.5q153 0 320 -13v-124h-276q-65 0 -65 -61v-107l293 -8v-117l-293 -8v-102q0 -66 62 -66h279v-124q-133 -15 -309 -15q-72 0 -126 32zM265 933h102l98 -142h-86l-66 76l-70 -76h-86zM284 -220.5q-6 5.5 -6 15.5v97
q0 10 5.5 16t15.5 6h69q9 0 14.5 -6.5t5.5 -15.5v-97q0 -21 -20 -21h-69q-9 0 -15 5.5z" />
    <glyph glyph-name="uni1EC0" unicode="&#x1ec0;" horiz-adv-x="597" 
d="M118 27q-54 32 -54 131v413q0 90 49.5 129.5t119.5 39.5q153 0 320 -13v-124h-276q-65 0 -65 -61v-107l293 -8v-117l-293 -8v-102q0 -66 62 -66h279v-124q-133 -15 -309 -15q-72 0 -126 32zM175 1001l46 -125h-87l-79 125h120zM367 900l98 -109h-86l-65 43l-70 -43h-87
l109 109h101z" />
    <glyph glyph-name="uni1EC2" unicode="&#x1ec2;" horiz-adv-x="597" 
d="M118 27q-54 32 -54 131v413q0 90 49.5 129.5t119.5 39.5q153 0 320 -13v-124h-276q-65 0 -65 -61v-107l293 -8v-117l-293 -8v-102q0 -66 62 -66h279v-124q-133 -15 -309 -15q-72 0 -126 32zM431 911q31 9 31 33q0 12 -5.5 17.5t-19.5 5.5q-17 0 -32 -6v51q24 8 52 8
q37 0 56 -17.5t19 -48.5q0 -40 -24 -66.5t-77 -41.5v65zM266 900h101l98 -109h-86l-65 43l-70 -43h-87z" />
    <glyph glyph-name="uni1EC4" unicode="&#x1ec4;" horiz-adv-x="597" 
d="M118 27q-54 32 -54 131v413q0 90 49.5 129.5t119.5 39.5q153 0 320 -13v-124h-276q-65 0 -65 -61v-107l293 -8v-117l-293 -8v-102q0 -66 62 -66h279v-124q-133 -15 -309 -15q-72 0 -126 32zM304 1026q4 -1 19.5 -6.5t29.5 -5.5q19 0 29 8.5t10 24.5h74q-5 -59 -25 -81.5
t-61 -22.5q-23 0 -47.5 7.5t-29.5 8.5q-3 1 -20.5 6.5t-29.5 5.5q-14 0 -22 -8.5t-10 -21.5h-74q5 58 27.5 79.5t60.5 21.5q29 0 69 -16zM465 791h-86l-65 43l-70 -43h-87l109 109h101z" />
    <glyph glyph-name="uni0204" unicode="&#x204;" horiz-adv-x="597" 
d="M118 27q-54 32 -54 131v413q0 90 49.5 129.5t119.5 39.5q153 0 320 -13v-124h-276q-65 0 -65 -61v-107l293 -8v-117l-293 -8v-102q0 -66 62 -66h279v-124q-133 -15 -309 -15q-72 0 -126 32zM81 931h120l82 -140h-87zM260 931h119l83 -140h-88z" />
    <glyph glyph-name="Edieresis" unicode="&#xcb;" horiz-adv-x="597" 
d="M118 27q-54 32 -54 131v413q0 90 49.5 129.5t119.5 39.5q153 0 320 -13v-124h-276q-65 0 -65 -61v-107l293 -8v-117l-293 -8v-102q0 -66 62 -66h279v-124q-133 -15 -309 -15q-72 0 -126 32zM151 802.5q-6 5.5 -6 15.5v97q0 10 5.5 16t15.5 6h69q9 0 14.5 -6.5t5.5 -15.5
v-97q0 -21 -20 -21h-69q-9 0 -15 5.5zM363.5 802.5q-5.5 5.5 -5.5 15.5v97q0 10 5 16t15 6h69q9 0 14.5 -6.5t5.5 -15.5v-97q0 -21 -20 -21h-69q-9 0 -14.5 5.5z" />
    <glyph glyph-name="Edotaccent" unicode="&#x116;" horiz-adv-x="597" 
d="M118 27q-54 32 -54 131v413q0 90 49.5 129.5t119.5 39.5q153 0 320 -13v-124h-276q-65 0 -65 -61v-107l293 -8v-117l-293 -8v-102q0 -66 62 -66h279v-124q-133 -15 -309 -15q-72 0 -126 32zM261 809.5q-6 5.5 -6 15.5v97q0 10 5.5 16t15.5 6h69q9 0 14.5 -6.5t5.5 -15.5
v-97q0 -21 -20 -21h-69q-9 0 -15 5.5z" />
    <glyph glyph-name="uni1EB8" unicode="&#x1eb8;" horiz-adv-x="597" 
d="M118 27q-54 32 -54 131v413q0 90 49.5 129.5t119.5 39.5q153 0 320 -13v-124h-276q-65 0 -65 -61v-107l293 -8v-117l-293 -8v-102q0 -66 62 -66h279v-124q-133 -15 -309 -15q-72 0 -126 32zM284 -220.5q-6 5.5 -6 15.5v97q0 10 5.5 16t15.5 6h69q9 0 14.5 -6.5t5.5 -15.5
v-97q0 -21 -20 -21h-69q-9 0 -15 5.5z" />
    <glyph glyph-name="Egrave" unicode="&#xc8;" horiz-adv-x="597" 
d="M118 27q-54 32 -54 131v413q0 90 49.5 129.5t119.5 39.5q153 0 320 -13v-124h-276q-65 0 -65 -61v-107l293 -8v-117l-293 -8v-102q0 -66 62 -66h279v-124q-133 -15 -309 -15q-72 0 -126 32zM172 931h120l82 -140h-87z" />
    <glyph glyph-name="uni1EBA" unicode="&#x1eba;" horiz-adv-x="597" 
d="M118 27q-54 32 -54 131v413q0 90 49.5 129.5t119.5 39.5q153 0 320 -13v-124h-276q-65 0 -65 -61v-107l293 -8v-117l-293 -8v-102q0 -66 62 -66h279v-124q-133 -15 -309 -15q-72 0 -126 32zM283 834q40 11 40 40q0 28 -33 28q-11 0 -33 -6v58q24 8 52 8q46 0 69 -21.5
t23 -61.5t-28.5 -66.5t-89.5 -43.5v65z" />
    <glyph glyph-name="uni0206" unicode="&#x206;" horiz-adv-x="597" 
d="M118 27q-54 32 -54 131v413q0 90 49.5 129.5t119.5 39.5q153 0 320 -13v-124h-276q-65 0 -65 -61v-107l293 -8v-117l-293 -8v-102q0 -66 62 -66h279v-124q-133 -15 -309 -15q-72 0 -126 32zM416.5 899.5q36.5 -37.5 36.5 -113.5h-69q0 44 -20 63.5t-50 19.5
q-70 0 -70 -83h-70q0 77 36.5 114t103.5 37q66 0 102.5 -37.5z" />
    <glyph glyph-name="Emacron" unicode="&#x112;" horiz-adv-x="597" 
d="M118 27q-54 32 -54 131v413q0 90 49.5 129.5t119.5 39.5q153 0 320 -13v-124h-276q-65 0 -65 -61v-107l293 -8v-117l-293 -8v-102q0 -66 62 -66h279v-124q-133 -15 -309 -15q-72 0 -126 32zM167 895h281v-88h-281v88z" />
    <glyph glyph-name="uni1E16" unicode="&#x1e16;" horiz-adv-x="597" 
d="M118 27q-54 32 -54 131v413q0 90 49.5 129.5t119.5 39.5q153 0 320 -13v-124h-276q-65 0 -65 -61v-107l293 -8v-117l-293 -8v-102q0 -66 62 -66h279v-124q-133 -15 -309 -15q-72 0 -126 32zM167 895h281v-88h-281v88zM348 1073h119l-115 -140h-87z" />
    <glyph glyph-name="uni1E14" unicode="&#x1e14;" horiz-adv-x="597" 
d="M118 27q-54 32 -54 131v413q0 90 49.5 129.5t119.5 39.5q153 0 320 -13v-124h-276q-65 0 -65 -61v-107l293 -8v-117l-293 -8v-102q0 -66 62 -66h279v-124q-133 -15 -309 -15q-72 0 -126 32zM167 895h281v-88h-281v88zM150 1073h120l82 -140h-87z" />
    <glyph glyph-name="Eogonek" unicode="&#x118;" horiz-adv-x="597" 
d="M571 -109v-69q-9 -4 -32 -4q-54 0 -80.5 26.5t-26.5 63.5q0 61 56 96q-117 -9 -244 -9q-72 0 -126 32t-54 131v413q0 90 49.5 129.5t119.5 39.5q153 0 320 -13v-124h-276q-65 0 -65 -61v-107l293 -8v-117l-293 -8v-102q0 -66 62 -66h279v-124q-26 -16 -37.5 -32
t-11.5 -36q0 -24 16 -37.5t42 -13.5h9z" />
    <glyph glyph-name="uni1EBC" unicode="&#x1ebc;" horiz-adv-x="597" 
d="M118 27q-54 32 -54 131v413q0 90 49.5 129.5t119.5 39.5q153 0 320 -13v-124h-276q-65 0 -65 -61v-107l293 -8v-117l-293 -8v-102q0 -66 62 -66h279v-124q-133 -15 -309 -15q-72 0 -126 32zM157.5 888q28.5 31 72.5 31q25 0 44 -7t43 -20q22 -11 33.5 -15.5t25.5 -4.5
q20 0 31 13.5t12 38.5h74q-3 -66 -29.5 -100t-73.5 -34q-24 0 -44 7t-46 20q-18 10 -31 15t-26 5q-19 0 -30.5 -13t-13.5 -35h-74q4 68 32.5 99z" />
    <glyph glyph-name="F" unicode="F" horiz-adv-x="583" 
d="M64 571q0 90 49.5 129.5t119.5 39.5q199 0 320 -13v-124h-279q-30 0 -46 -16.5t-16 -42.5v-127l293 -8v-117l-293 -8v-284h-148v571z" />
    <glyph glyph-name="uni1E1E" unicode="&#x1e1e;" horiz-adv-x="583" 
d="M64 571q0 90 49.5 129.5t119.5 39.5q199 0 320 -13v-124h-279q-30 0 -46 -16.5t-16 -42.5v-127l293 -8v-117l-293 -8v-284h-148v571zM261 809.5q-6 5.5 -6 15.5v97q0 10 5.5 16t15.5 6h69q9 0 14.5 -6.5t5.5 -15.5v-97q0 -21 -20 -21h-69q-9 0 -15 5.5z" />
    <glyph glyph-name="G" unicode="G" horiz-adv-x="666" 
d="M134 40q-50 45 -69.5 126.5t-19.5 203.5q0 128 22.5 209t82 124.5t168.5 43.5q71 0 128 -8.5t122 -24.5v-114q-39 5 -99.5 9.5t-123.5 4.5q-64 0 -96 -22.5t-44 -74t-12 -148.5t12 -147.5t39 -70.5t77 -20q38 0 75 6t64 15v144h-133v117q30 4 78.5 7t92.5 3q62 0 104 -3
v-420h-111l-20 50q-37 -22 -89.5 -38.5t-109.5 -16.5q-88 0 -138 45z" />
    <glyph glyph-name="Gbreve" unicode="&#x11e;" horiz-adv-x="666" 
d="M134 40q-50 45 -69.5 126.5t-19.5 203.5q0 128 22.5 209t82 124.5t168.5 43.5q71 0 128 -8.5t122 -24.5v-114q-39 5 -99.5 9.5t-123.5 4.5q-64 0 -96 -22.5t-44 -74t-12 -148.5t12 -147.5t39 -70.5t77 -20q38 0 75 6t64 15v144h-133v117q30 4 78.5 7t92.5 3q62 0 104 -3
v-420h-111l-20 50q-37 -22 -89.5 -38.5t-109.5 -16.5q-88 0 -138 45zM216.5 820.5q-36.5 37.5 -36.5 113.5h69q0 -44 20 -63.5t50 -19.5q70 0 70 83h70q0 -77 -36.5 -114t-103.5 -37q-66 0 -102.5 37.5z" />
    <glyph glyph-name="Gcaron" unicode="&#x1e6;" horiz-adv-x="666" 
d="M134 40q-50 45 -69.5 126.5t-19.5 203.5q0 128 22.5 209t82 124.5t168.5 43.5q71 0 128 -8.5t122 -24.5v-114q-39 5 -99.5 9.5t-123.5 4.5q-64 0 -96 -22.5t-44 -74t-12 -148.5t12 -147.5t39 -70.5t77 -20q38 0 75 6t64 15v144h-133v117q30 4 78.5 7t92.5 3q62 0 104 -3
v-420h-111l-20 50q-37 -22 -89.5 -38.5t-109.5 -16.5q-88 0 -138 45zM174 933h86l66 -76l70 76h86l-108 -142h-101z" />
    <glyph glyph-name="Gcircumflex" unicode="&#x11c;" horiz-adv-x="666" 
d="M134 40q-50 45 -69.5 126.5t-19.5 203.5q0 128 22.5 209t82 124.5t168.5 43.5q71 0 128 -8.5t122 -24.5v-114q-39 5 -99.5 9.5t-123.5 4.5q-64 0 -96 -22.5t-44 -74t-12 -148.5t12 -147.5t39 -70.5t77 -20q38 0 75 6t64 15v144h-133v117q30 4 78.5 7t92.5 3q62 0 104 -3
v-420h-111l-20 50q-37 -22 -89.5 -38.5t-109.5 -16.5q-88 0 -138 45zM278 933h102l98 -142h-86l-66 76l-70 -76h-86z" />
    <glyph glyph-name="Gcommaaccent" unicode="&#x122;" horiz-adv-x="666" 
d="M134 40q-50 45 -69.5 126.5t-19.5 203.5q0 128 22.5 209t82 124.5t168.5 43.5q71 0 128 -8.5t122 -24.5v-114q-39 5 -99.5 9.5t-123.5 4.5q-64 0 -96 -22.5t-44 -74t-12 -148.5t12 -147.5t39 -70.5t77 -20q38 0 75 6t64 15v144h-133v117q30 4 78.5 7t92.5 3q62 0 104 -3
v-420h-111l-20 50q-37 -22 -89.5 -38.5t-109.5 -16.5q-88 0 -138 45zM266 -155l27 7q21 5 31.5 11.5t15 21t4.5 42.5h90q0 -78 -25 -110.5t-91 -32.5h-52v61z" />
    <glyph glyph-name="Gdotaccent" unicode="&#x120;" horiz-adv-x="666" 
d="M134 40q-50 45 -69.5 126.5t-19.5 203.5q0 128 22.5 209t82 124.5t168.5 43.5q71 0 128 -8.5t122 -24.5v-114q-39 5 -99.5 9.5t-123.5 4.5q-64 0 -96 -22.5t-44 -74t-12 -148.5t12 -147.5t39 -70.5t77 -20q38 0 75 6t64 15v144h-133v117q30 4 78.5 7t92.5 3q62 0 104 -3
v-420h-111l-20 50q-37 -22 -89.5 -38.5t-109.5 -16.5q-88 0 -138 45zM274 809.5q-6 5.5 -6 15.5v97q0 10 5.5 16t15.5 6h69q9 0 14.5 -6.5t5.5 -15.5v-97q0 -21 -20 -21h-69q-9 0 -15 5.5z" />
    <glyph glyph-name="uni1E20" unicode="&#x1e20;" horiz-adv-x="666" 
d="M134 40q-50 45 -69.5 126.5t-19.5 203.5q0 128 22.5 209t82 124.5t168.5 43.5q71 0 128 -8.5t122 -24.5v-114q-39 5 -99.5 9.5t-123.5 4.5q-64 0 -96 -22.5t-44 -74t-12 -148.5t12 -147.5t39 -70.5t77 -20q38 0 75 6t64 15v144h-133v117q30 4 78.5 7t92.5 3q62 0 104 -3
v-420h-111l-20 50q-37 -22 -89.5 -38.5t-109.5 -16.5q-88 0 -138 45zM180 895h281v-88h-281v88z" />
    <glyph glyph-name="H" unicode="H" horiz-adv-x="703" 
d="M64 740h148v-308h279v308h149v-740h-149v299h-279v-299h-148v740z" />
    <glyph glyph-name="Hbar" unicode="&#x126;" horiz-adv-x="703" 
d="M692 518h-52v-518h-149v299h-279v-299h-148v518h-52v74h52v148h148v-148h279v148h149v-148h52v-74zM491 518h-279v-86h279v86z" />
    <glyph glyph-name="uni1E2A" unicode="&#x1e2a;" horiz-adv-x="703" 
d="M64 740h148v-308h279v308h149v-740h-149v299h-279v-299h-148v740zM250.5 -189.5q-36.5 37.5 -36.5 113.5h69q0 -44 20 -63.5t50 -19.5q70 0 70 83h70q0 -77 -36.5 -114t-103.5 -37q-66 0 -102.5 37.5z" />
    <glyph glyph-name="Hcircumflex" unicode="&#x124;" horiz-adv-x="703" 
d="M64 740h148v-308h279v308h149v-740h-149v299h-279v-299h-148v740zM304 933h102l98 -142h-86l-66 76l-70 -76h-86z" />
    <glyph glyph-name="uni1E24" unicode="&#x1e24;" horiz-adv-x="703" 
d="M64 740h148v-308h279v308h149v-740h-149v299h-279v-299h-148v740zM303 -220.5q-6 5.5 -6 15.5v97q0 10 5.5 16t15.5 6h69q9 0 14.5 -6.5t5.5 -15.5v-97q0 -21 -20 -21h-69q-9 0 -15 5.5z" />
    <glyph glyph-name="I" unicode="I" horiz-adv-x="276" 
d="M64 740h148v-740h-148v740z" />
    <glyph glyph-name="Iacute" unicode="&#xcd;" horiz-adv-x="276" 
d="M64 740h148v-740h-148v740zM183 931h119l-115 -140h-87z" />
    <glyph glyph-name="Ibreve" unicode="&#x12c;" horiz-adv-x="276" 
d="M64 740h148v-740h-148v740zM28.5 820.5q-36.5 37.5 -36.5 113.5h69q0 -44 20 -63.5t50 -19.5q70 0 70 83h70q0 -77 -36.5 -114t-103.5 -37q-66 0 -102.5 37.5z" />
    <glyph glyph-name="Icircumflex" unicode="&#xce;" horiz-adv-x="276" 
d="M64 740h148v-740h-148v740zM90 933h102l98 -142h-86l-66 76l-70 -76h-86z" />
    <glyph glyph-name="uni0208" unicode="&#x208;" horiz-adv-x="276" 
d="M64 740h148v-740h-148v740zM-94 931h120l82 -140h-87zM85 931h119l83 -140h-88z" />
    <glyph glyph-name="Idieresis" unicode="&#xcf;" horiz-adv-x="276" 
d="M64 740h148v-740h-148v740zM-24 802.5q-6 5.5 -6 15.5v97q0 10 5.5 16t15.5 6h69q9 0 14.5 -6.5t5.5 -15.5v-97q0 -21 -20 -21h-69q-9 0 -15 5.5zM188.5 802.5q-5.5 5.5 -5.5 15.5v97q0 10 5 16t15 6h69q9 0 14.5 -6.5t5.5 -15.5v-97q0 -21 -20 -21h-69q-9 0 -14.5 5.5z
" />
    <glyph glyph-name="uni1E2E" unicode="&#x1e2e;" horiz-adv-x="276" 
d="M64 740h148v-740h-148v740zM-24 802.5q-6 5.5 -6 15.5v97q0 10 5.5 16t15.5 6h69q9 0 14.5 -6.5t5.5 -15.5v-97q0 -21 -20 -21h-69q-9 0 -15 5.5zM188.5 802.5q-5.5 5.5 -5.5 15.5v97q0 10 5 16t15 6h69q9 0 14.5 -6.5t5.5 -15.5v-97q0 -21 -20 -21h-69q-9 0 -14.5 5.5z
M176 1110h119l-115 -140h-87z" />
    <glyph glyph-name="Idotaccent" unicode="&#x130;" horiz-adv-x="276" 
d="M64 740h148v-740h-148v740zM86 809.5q-6 5.5 -6 15.5v97q0 10 5.5 16t15.5 6h69q9 0 14.5 -6.5t5.5 -15.5v-97q0 -21 -20 -21h-69q-9 0 -15 5.5z" />
    <glyph glyph-name="uni1ECA" unicode="&#x1eca;" horiz-adv-x="276" 
d="M64 740h148v-740h-148v740zM89 -220.5q-6 5.5 -6 15.5v97q0 10 5.5 16t15.5 6h69q9 0 14.5 -6.5t5.5 -15.5v-97q0 -21 -20 -21h-69q-9 0 -15 5.5z" />
    <glyph glyph-name="Igrave" unicode="&#xcc;" horiz-adv-x="276" 
d="M64 740h148v-740h-148v740zM-3 931h120l82 -140h-87z" />
    <glyph glyph-name="uni1EC8" unicode="&#x1ec8;" horiz-adv-x="276" 
d="M64 740h148v-740h-148v740zM108 834q40 11 40 40q0 28 -33 28q-11 0 -33 -6v58q24 8 52 8q46 0 69 -21.5t23 -61.5t-28.5 -66.5t-89.5 -43.5v65z" />
    <glyph glyph-name="uni020A" unicode="&#x20a;" horiz-adv-x="276" 
d="M64 740h148v-740h-148v740zM241.5 899.5q36.5 -37.5 36.5 -113.5h-69q0 44 -20 63.5t-50 19.5q-70 0 -70 -83h-70q0 77 36.5 114t103.5 37q66 0 102.5 -37.5z" />
    <glyph glyph-name="Imacron" unicode="&#x12a;" horiz-adv-x="276" 
d="M64 740h148v-740h-148v740zM-8 895h281v-88h-281v88z" />
    <glyph glyph-name="Iogonek" unicode="&#x12e;" horiz-adv-x="276" 
d="M64 740h148v-740h-148v740zM118.5 -165.5q-26.5 26.5 -26.5 63.5q0 67 67 102h54q-26 -16 -37.5 -32t-11.5 -36q0 -24 16 -37.5t42 -13.5h9v-69q-9 -4 -32 -4q-54 0 -80.5 26.5z" />
    <glyph glyph-name="Itilde" unicode="&#x128;" horiz-adv-x="276" 
d="M64 740h148v-740h-148v740zM-17.5 888q28.5 31 72.5 31q25 0 44 -7t43 -20q22 -11 33.5 -15.5t25.5 -4.5q20 0 31 13.5t12 38.5h74q-3 -66 -29.5 -100t-73.5 -34q-24 0 -44 7t-46 20q-18 10 -31 15t-26 5q-19 0 -30.5 -13t-13.5 -35h-74q4 68 32.5 99z" />
    <glyph glyph-name="J" unicode="J" horiz-adv-x="404" 
d="M84 0q-33 6 -58 14v118q70 -5 88 -5q39 0 58.5 18t19.5 59v536h148v-558q0 -96 -45.5 -142t-146.5 -46q-31 0 -64 6z" />
    <glyph glyph-name="Jcircumflex" unicode="&#x134;" horiz-adv-x="404" 
d="M84 0q-33 6 -58 14v118q70 -5 88 -5q39 0 58.5 18t19.5 59v536h148v-558q0 -96 -45.5 -142t-146.5 -46q-31 0 -64 6zM218 933h102l98 -142h-86l-66 76l-70 -76h-86z" />
    <glyph glyph-name="K" unicode="K" horiz-adv-x="645" 
d="M64 740h148v-306h98l152 306h158l-192 -372l198 -368h-158l-158 300h-98v-300h-148v740z" />
    <glyph glyph-name="Kcommaaccent" unicode="&#x136;" horiz-adv-x="645" 
d="M64 740h148v-306h98l152 306h158l-192 -372l198 -368h-158l-158 300h-98v-300h-148v740zM235 -155l27 7q21 5 31.5 11.5t15 21t4.5 42.5h90q0 -78 -25 -110.5t-91 -32.5h-52v61z" />
    <glyph glyph-name="L" unicode="L" horiz-adv-x="535" 
d="M107 41q-43 41 -43 134v565h148v-541q0 -65 66 -65h234v-134h-273q-89 0 -132 41z" />
    <glyph glyph-name="Lacute" unicode="&#x139;" horiz-adv-x="535" 
d="M107 41q-43 41 -43 134v565h148v-541q0 -65 66 -65h234v-134h-273q-89 0 -132 41zM183 931h119l-115 -140h-87z" />
    <glyph glyph-name="Lcaron" unicode="&#x13d;" horiz-adv-x="535" 
d="M107 41q-43 41 -43 134v565h148v-541q0 -65 66 -65h234v-134h-273q-89 0 -132 41zM283 719v64h134v-64l-8 -137h-117z" />
    <glyph glyph-name="Lcommaaccent" unicode="&#x13b;" horiz-adv-x="535" 
d="M107 41q-43 41 -43 134v565h148v-541q0 -65 66 -65h234v-134h-273q-89 0 -132 41zM203 -155l27 7q21 5 31.5 11.5t15 21t4.5 42.5h90q0 -78 -25 -110.5t-91 -32.5h-52v61z" />
    <glyph glyph-name="Ldot" unicode="&#x13f;" horiz-adv-x="535" 
d="M107 41q-43 41 -43 134v565h148v-541q0 -65 66 -65h234v-134h-273q-89 0 -132 41zM361 341.5q-6 5.5 -6 14.5v88q0 22 21 22h85q22 0 22 -22v-88q0 -20 -22 -20h-85q-9 0 -15 5.5z" />
    <glyph glyph-name="uni1E36" unicode="&#x1e36;" horiz-adv-x="535" 
d="M107 41q-43 41 -43 134v565h148v-541q0 -65 66 -65h234v-134h-273q-89 0 -132 41zM240 -220.5q-6 5.5 -6 15.5v97q0 10 5.5 16t15.5 6h69q9 0 14.5 -6.5t5.5 -15.5v-97q0 -21 -20 -21h-69q-9 0 -15 5.5z" />
    <glyph glyph-name="uni1E3A" unicode="&#x1e3a;" horiz-adv-x="535" 
d="M107 41q-43 41 -43 134v565h148v-541q0 -65 66 -65h234v-134h-273q-89 0 -132 41zM150 -125h281v-88h-281v88z" />
    <glyph glyph-name="Lslash" unicode="&#x141;" horiz-adv-x="535" 
d="M512 134v-134h-273q-89 0 -132 41t-43 134v158l-68 -29v79l68 29v328h148v-282l128 56v-79l-128 -56v-180q0 -65 66 -65h234z" />
    <glyph glyph-name="M" unicode="M" horiz-adv-x="883" 
d="M696 0l-57 484l-129 -484h-139l-129 478l-55 -478h-143l86 740h142l170 -567l169 567h141l87 -740h-143z" />
    <glyph glyph-name="uni1E40" unicode="&#x1e40;" horiz-adv-x="883" 
d="M696 0l-57 484l-129 -484h-139l-129 478l-55 -478h-143l86 740h142l170 -567l169 567h141l87 -740h-143zM382 809.5q-6 5.5 -6 15.5v97q0 10 5.5 16t15.5 6h69q9 0 14.5 -6.5t5.5 -15.5v-97q0 -21 -20 -21h-69q-9 0 -15 5.5z" />
    <glyph glyph-name="uni1E42" unicode="&#x1e42;" horiz-adv-x="883" 
d="M696 0l-57 484l-129 -484h-139l-129 478l-55 -478h-143l86 740h142l170 -567l169 567h141l87 -740h-143zM385 -220.5q-6 5.5 -6 15.5v97q0 10 5.5 16t15.5 6h69q9 0 14.5 -6.5t5.5 -15.5v-97q0 -21 -20 -21h-69q-9 0 -15 5.5z" />
    <glyph glyph-name="N" unicode="N" horiz-adv-x="704" 
d="M69 740h119l310 -488v488h148v-740h-119l-309 488v-488h-149v740z" />
    <glyph glyph-name="Nacute" unicode="&#x143;" horiz-adv-x="704" 
d="M69 740h119l310 -488v488h148v-740h-119l-309 488v-488h-149v740zM387 931h119l-115 -140h-87z" />
    <glyph glyph-name="Ncaron" unicode="&#x147;" horiz-adv-x="704" 
d="M69 740h119l310 -488v488h148v-740h-119l-309 488v-488h-149v740zM190 933h86l66 -76l70 76h86l-108 -142h-101z" />
    <glyph glyph-name="Ncommaaccent" unicode="&#x145;" horiz-adv-x="704" 
d="M69 740h119l310 -488v488h148v-740h-119l-309 488v-488h-149v740zM256 -155l27 7q21 5 31.5 11.5t15 21t4.5 42.5h90q0 -78 -25 -110.5t-91 -32.5h-52v61z" />
    <glyph glyph-name="uni1E44" unicode="&#x1e44;" horiz-adv-x="704" 
d="M69 740h119l310 -488v488h148v-740h-119l-309 488v-488h-149v740zM293 -220.5q-6 5.5 -6 15.5v97q0 10 5.5 16t15.5 6h69q9 0 14.5 -6.5t5.5 -15.5v-97q0 -21 -20 -21h-69q-9 0 -15 5.5z" />
    <glyph glyph-name="uni1E46" unicode="&#x1e46;" horiz-adv-x="704" 
d="M69 740h119l310 -488v488h148v-740h-119l-309 488v-488h-149v740zM293 -220.5q-6 5.5 -6 15.5v97q0 10 5.5 16t15.5 6h69q9 0 14.5 -6.5t5.5 -15.5v-97q0 -21 -20 -21h-69q-9 0 -15 5.5z" />
    <glyph glyph-name="Eng" unicode="&#x14a;" horiz-adv-x="697" 
d="M646 740v-795q0 -96 -47 -142t-150 -46q-31 0 -64 6t-58 14v118q72 -5 93 -5q39 0 58.5 18t19.5 58v80l-280 442v-488h-149v740h119l310 -488v488h148z" />
    <glyph glyph-name="uni1E48" unicode="&#x1e48;" horiz-adv-x="704" 
d="M69 740h119l310 -488v488h148v-740h-119l-309 488v-488h-149v740zM203 -125h281v-88h-281v88z" />
    <glyph glyph-name="Ntilde" unicode="&#xd1;" horiz-adv-x="704" 
d="M69 740h119l310 -488v488h148v-740h-119l-309 488v-488h-149v740zM186.5 888q28.5 31 72.5 31q25 0 44 -7t43 -20q22 -11 33.5 -15.5t25.5 -4.5q20 0 31 13.5t12 38.5h74q-3 -66 -29.5 -100t-73.5 -34q-24 0 -44 7t-46 20q-18 10 -31 15t-26 5q-19 0 -30.5 -13t-13.5 -35
h-74q4 68 32.5 99z" />
    <glyph glyph-name="O" unicode="O" horiz-adv-x="699" 
d="M176 23q-65 29 -98 110t-33 236t33.5 236.5t98.5 111.5t173 30q109 0 173.5 -30t97.5 -111.5t33 -236.5t-33 -236t-97.5 -110t-173.5 -29t-174 29zM445.5 145.5q32.5 18.5 46.5 70t14 153.5q0 106 -14 157.5t-46.5 69.5t-95.5 18q-62 0 -94.5 -18t-47.5 -70t-15 -157
q0 -103 14 -154t46.5 -69.5t96.5 -18.5q63 0 95.5 18.5z" />
    <glyph glyph-name="Oacute" unicode="&#xd3;" horiz-adv-x="699" 
d="M176 23q-65 29 -98 110t-33 236t33.5 236.5t98.5 111.5t173 30q109 0 173.5 -30t97.5 -111.5t33 -236.5t-33 -236t-97.5 -110t-173.5 -29t-174 29zM445.5 145.5q32.5 18.5 46.5 70t14 153.5q0 106 -14 157.5t-46.5 69.5t-95.5 18q-62 0 -94.5 -18t-47.5 -70t-15 -157
q0 -103 14 -154t46.5 -69.5t96.5 -18.5q63 0 95.5 18.5zM395 931h119l-115 -140h-87z" />
    <glyph glyph-name="Obreve" unicode="&#x14e;" horiz-adv-x="699" 
d="M176 23q-65 29 -98 110t-33 236t33.5 236.5t98.5 111.5t173 30q109 0 173.5 -30t97.5 -111.5t33 -236.5t-33 -236t-97.5 -110t-173.5 -29t-174 29zM445.5 145.5q32.5 18.5 46.5 70t14 153.5q0 106 -14 157.5t-46.5 69.5t-95.5 18q-62 0 -94.5 -18t-47.5 -70t-15 -157
q0 -103 14 -154t46.5 -69.5t96.5 -18.5q63 0 95.5 18.5zM240.5 820.5q-36.5 37.5 -36.5 113.5h69q0 -44 20 -63.5t50 -19.5q70 0 70 83h70q0 -77 -36.5 -114t-103.5 -37q-66 0 -102.5 37.5z" />
    <glyph glyph-name="Ocircumflex" unicode="&#xd4;" horiz-adv-x="699" 
d="M176 23q-65 29 -98 110t-33 236t33.5 236.5t98.5 111.5t173 30q109 0 173.5 -30t97.5 -111.5t33 -236.5t-33 -236t-97.5 -110t-173.5 -29t-174 29zM445.5 145.5q32.5 18.5 46.5 70t14 153.5q0 106 -14 157.5t-46.5 69.5t-95.5 18q-62 0 -94.5 -18t-47.5 -70t-15 -157
q0 -103 14 -154t46.5 -69.5t96.5 -18.5q63 0 95.5 18.5zM302 933h102l98 -142h-86l-66 76l-70 -76h-86z" />
    <glyph glyph-name="uni1ED0" unicode="&#x1ed0;" horiz-adv-x="699" 
d="M176 23q-65 29 -98 110t-33 236t33.5 236.5t98.5 111.5t173 30q109 0 173.5 -30t97.5 -111.5t33 -236.5t-33 -236t-97.5 -110t-173.5 -29t-174 29zM445.5 145.5q32.5 18.5 46.5 70t14 153.5q0 106 -14 157.5t-46.5 69.5t-95.5 18q-62 0 -94.5 -18t-47.5 -70t-15 -157
q0 -103 14 -154t46.5 -69.5t96.5 -18.5q63 0 95.5 18.5zM609 1001l-78 -125h-87l45 125h120zM404 900l98 -109h-86l-65 43l-70 -43h-87l109 109h101z" />
    <glyph glyph-name="uni1ED8" unicode="&#x1ed8;" horiz-adv-x="699" 
d="M176 23q-65 29 -98 110t-33 236t33.5 236.5t98.5 111.5t173 30q109 0 173.5 -30t97.5 -111.5t33 -236.5t-33 -236t-97.5 -110t-173.5 -29t-174 29zM445.5 145.5q32.5 18.5 46.5 70t14 153.5q0 106 -14 157.5t-46.5 69.5t-95.5 18q-62 0 -94.5 -18t-47.5 -70t-15 -157
q0 -103 14 -154t46.5 -69.5t96.5 -18.5q63 0 95.5 18.5zM302 933h102l98 -142h-86l-66 76l-70 -76h-86zM301 -220.5q-6 5.5 -6 15.5v97q0 10 5.5 16t15.5 6h69q9 0 14.5 -6.5t5.5 -15.5v-97q0 -21 -20 -21h-69q-9 0 -15 5.5z" />
    <glyph glyph-name="uni1ED2" unicode="&#x1ed2;" horiz-adv-x="699" 
d="M176 23q-65 29 -98 110t-33 236t33.5 236.5t98.5 111.5t173 30q109 0 173.5 -30t97.5 -111.5t33 -236.5t-33 -236t-97.5 -110t-173.5 -29t-174 29zM445.5 145.5q32.5 18.5 46.5 70t14 153.5q0 106 -14 157.5t-46.5 69.5t-95.5 18q-62 0 -94.5 -18t-47.5 -70t-15 -157
q0 -103 14 -154t46.5 -69.5t96.5 -18.5q63 0 95.5 18.5zM212 1001l46 -125h-87l-79 125h120zM404 900l98 -109h-86l-65 43l-70 -43h-87l109 109h101z" />
    <glyph glyph-name="uni1ED4" unicode="&#x1ed4;" horiz-adv-x="699" 
d="M176 23q-65 29 -98 110t-33 236t33.5 236.5t98.5 111.5t173 30q109 0 173.5 -30t97.5 -111.5t33 -236.5t-33 -236t-97.5 -110t-173.5 -29t-174 29zM445.5 145.5q32.5 18.5 46.5 70t14 153.5q0 106 -14 157.5t-46.5 69.5t-95.5 18q-62 0 -94.5 -18t-47.5 -70t-15 -157
q0 -103 14 -154t46.5 -69.5t96.5 -18.5q63 0 95.5 18.5zM468 911q31 9 31 33q0 12 -5.5 17.5t-19.5 5.5q-17 0 -32 -6v51q24 8 52 8q37 0 56 -17.5t19 -48.5q0 -40 -24 -66.5t-77 -41.5v65zM303 900h101l98 -109h-86l-65 43l-70 -43h-87z" />
    <glyph glyph-name="uni1ED6" unicode="&#x1ed6;" horiz-adv-x="699" 
d="M176 23q-65 29 -98 110t-33 236t33.5 236.5t98.5 111.5t173 30q109 0 173.5 -30t97.5 -111.5t33 -236.5t-33 -236t-97.5 -110t-173.5 -29t-174 29zM445.5 145.5q32.5 18.5 46.5 70t14 153.5q0 106 -14 157.5t-46.5 69.5t-95.5 18q-62 0 -94.5 -18t-47.5 -70t-15 -157
q0 -103 14 -154t46.5 -69.5t96.5 -18.5q63 0 95.5 18.5zM341 1026q4 -1 19.5 -6.5t29.5 -5.5q19 0 29 8.5t10 24.5h74q-5 -59 -25 -81.5t-61 -22.5q-23 0 -47.5 7.5t-29.5 8.5q-3 1 -20.5 6.5t-29.5 5.5q-14 0 -22 -8.5t-10 -21.5h-74q5 58 27.5 79.5t60.5 21.5q29 0 69 -16
zM502 791h-86l-65 43l-70 -43h-87l109 109h101z" />
    <glyph glyph-name="uni020C" unicode="&#x20c;" horiz-adv-x="699" 
d="M176 23q-65 29 -98 110t-33 236t33.5 236.5t98.5 111.5t173 30q109 0 173.5 -30t97.5 -111.5t33 -236.5t-33 -236t-97.5 -110t-173.5 -29t-174 29zM445.5 145.5q32.5 18.5 46.5 70t14 153.5q0 106 -14 157.5t-46.5 69.5t-95.5 18q-62 0 -94.5 -18t-47.5 -70t-15 -157
q0 -103 14 -154t46.5 -69.5t96.5 -18.5q63 0 95.5 18.5zM118 931h120l82 -140h-87zM297 931h119l83 -140h-88z" />
    <glyph glyph-name="Odieresis" unicode="&#xd6;" horiz-adv-x="699" 
d="M176 23q-65 29 -98 110t-33 236t33.5 236.5t98.5 111.5t173 30q109 0 173.5 -30t97.5 -111.5t33 -236.5t-33 -236t-97.5 -110t-173.5 -29t-174 29zM445.5 145.5q32.5 18.5 46.5 70t14 153.5q0 106 -14 157.5t-46.5 69.5t-95.5 18q-62 0 -94.5 -18t-47.5 -70t-15 -157
q0 -103 14 -154t46.5 -69.5t96.5 -18.5q63 0 95.5 18.5zM188 802.5q-6 5.5 -6 15.5v97q0 10 5.5 16t15.5 6h69q9 0 14.5 -6.5t5.5 -15.5v-97q0 -21 -20 -21h-69q-9 0 -15 5.5zM400.5 802.5q-5.5 5.5 -5.5 15.5v97q0 10 5 16t15 6h69q9 0 14.5 -6.5t5.5 -15.5v-97
q0 -21 -20 -21h-69q-9 0 -14.5 5.5z" />
    <glyph glyph-name="uni022A" unicode="&#x22a;" horiz-adv-x="699" 
d="M176 23q-65 29 -98 110t-33 236t33.5 236.5t98.5 111.5t173 30q109 0 173.5 -30t97.5 -111.5t33 -236.5t-33 -236t-97.5 -110t-173.5 -29t-174 29zM445.5 145.5q32.5 18.5 46.5 70t14 153.5q0 106 -14 157.5t-46.5 69.5t-95.5 18q-62 0 -94.5 -18t-47.5 -70t-15 -157
q0 -103 14 -154t46.5 -69.5t96.5 -18.5q63 0 95.5 18.5zM193 802.5q-6 5.5 -6 15.5v97q0 10 5.5 16t15.5 6h69q9 0 14.5 -6.5t5.5 -15.5v-97q0 -21 -20 -21h-69q-9 0 -15 5.5zM405.5 802.5q-5.5 5.5 -5.5 15.5v97q0 10 5 16t15 6h69q9 0 14.5 -6.5t5.5 -15.5v-97
q0 -21 -20 -21h-69q-9 0 -14.5 5.5zM209 1082h281v-88h-281v88z" />
    <glyph glyph-name="uni0230" unicode="&#x230;" horiz-adv-x="699" 
d="M176 23q-65 29 -98 110t-33 236t33.5 236.5t98.5 111.5t173 30q109 0 173.5 -30t97.5 -111.5t33 -236.5t-33 -236t-97.5 -110t-173.5 -29t-174 29zM445.5 145.5q32.5 18.5 46.5 70t14 153.5q0 106 -14 157.5t-46.5 69.5t-95.5 18q-62 0 -94.5 -18t-47.5 -70t-15 -157
q0 -103 14 -154t46.5 -69.5t96.5 -18.5q63 0 95.5 18.5zM298 809.5q-6 5.5 -6 15.5v97q0 10 5.5 16t15.5 6h69q9 0 14.5 -6.5t5.5 -15.5v-97q0 -21 -20 -21h-69q-9 0 -15 5.5zM204 1079h281v-88h-281v88z" />
    <glyph glyph-name="uni1ECC" unicode="&#x1ecc;" horiz-adv-x="699" 
d="M176 23q-65 29 -98 110t-33 236t33.5 236.5t98.5 111.5t173 30q109 0 173.5 -30t97.5 -111.5t33 -236.5t-33 -236t-97.5 -110t-173.5 -29t-174 29zM445.5 145.5q32.5 18.5 46.5 70t14 153.5q0 106 -14 157.5t-46.5 69.5t-95.5 18q-62 0 -94.5 -18t-47.5 -70t-15 -157
q0 -103 14 -154t46.5 -69.5t96.5 -18.5q63 0 95.5 18.5zM301 -220.5q-6 5.5 -6 15.5v97q0 10 5.5 16t15.5 6h69q9 0 14.5 -6.5t5.5 -15.5v-97q0 -21 -20 -21h-69q-9 0 -15 5.5z" />
    <glyph glyph-name="Ograve" unicode="&#xd2;" horiz-adv-x="699" 
d="M176 23q-65 29 -98 110t-33 236t33.5 236.5t98.5 111.5t173 30q109 0 173.5 -30t97.5 -111.5t33 -236.5t-33 -236t-97.5 -110t-173.5 -29t-174 29zM445.5 145.5q32.5 18.5 46.5 70t14 153.5q0 106 -14 157.5t-46.5 69.5t-95.5 18q-62 0 -94.5 -18t-47.5 -70t-15 -157
q0 -103 14 -154t46.5 -69.5t96.5 -18.5q63 0 95.5 18.5zM209 931h120l82 -140h-87z" />
    <glyph glyph-name="uni1ECE" unicode="&#x1ece;" horiz-adv-x="699" 
d="M176 23q-65 29 -98 110t-33 236t33.5 236.5t98.5 111.5t173 30q109 0 173.5 -30t97.5 -111.5t33 -236.5t-33 -236t-97.5 -110t-173.5 -29t-174 29zM445.5 145.5q32.5 18.5 46.5 70t14 153.5q0 106 -14 157.5t-46.5 69.5t-95.5 18q-62 0 -94.5 -18t-47.5 -70t-15 -157
q0 -103 14 -154t46.5 -69.5t96.5 -18.5q63 0 95.5 18.5zM320 834q40 11 40 40q0 28 -33 28q-11 0 -33 -6v58q24 8 52 8q46 0 69 -21.5t23 -61.5t-28.5 -66.5t-89.5 -43.5v65z" />
    <glyph glyph-name="Ohorn" unicode="&#x1a0;" horiz-adv-x="699" 
d="M648.5 734.5q-23.5 -45.5 -65.5 -63.5q36 -43 53.5 -116t17.5 -186q0 -155 -33 -236t-97.5 -110t-173.5 -29t-174 29t-98 110t-33 236t33.5 236.5t98.5 111.5t173 30q57 0 99 -7h49q35 0 53.5 25.5t18.5 84.5h102q0 -70 -23.5 -115.5zM445.5 145.5q32.5 18.5 46.5 70
t14 153.5q0 106 -14 157.5t-46.5 69.5t-95.5 18q-62 0 -94.5 -18t-47.5 -70t-15 -157q0 -103 14 -154t46.5 -69.5t96.5 -18.5q63 0 95.5 18.5z" />
    <glyph glyph-name="uni1EDA" unicode="&#x1eda;" horiz-adv-x="699" 
d="M648.5 734.5q-23.5 -45.5 -65.5 -63.5q36 -43 53.5 -116t17.5 -186q0 -155 -33 -236t-97.5 -110t-173.5 -29t-174 29t-98 110t-33 236t33.5 236.5t98.5 111.5t173 30q57 0 99 -7h49q35 0 53.5 25.5t18.5 84.5h102q0 -70 -23.5 -115.5zM445.5 145.5q32.5 18.5 46.5 70
t14 153.5q0 106 -14 157.5t-46.5 69.5t-95.5 18q-62 0 -94.5 -18t-47.5 -70t-15 -157q0 -103 14 -154t46.5 -69.5t96.5 -18.5q63 0 95.5 18.5zM376 931h119l-115 -140h-87z" />
    <glyph glyph-name="uni1EE2" unicode="&#x1ee2;" horiz-adv-x="699" 
d="M648.5 734.5q-23.5 -45.5 -65.5 -63.5q36 -43 53.5 -116t17.5 -186q0 -155 -33 -236t-97.5 -110t-173.5 -29t-174 29t-98 110t-33 236t33.5 236.5t98.5 111.5t173 30q57 0 99 -7h49q35 0 53.5 25.5t18.5 84.5h102q0 -70 -23.5 -115.5zM445.5 145.5q32.5 18.5 46.5 70
t14 153.5q0 106 -14 157.5t-46.5 69.5t-95.5 18q-62 0 -94.5 -18t-47.5 -70t-15 -157q0 -103 14 -154t46.5 -69.5t96.5 -18.5q63 0 95.5 18.5zM306 -220.5q-6 5.5 -6 15.5v97q0 10 5.5 16t15.5 6h69q9 0 14.5 -6.5t5.5 -15.5v-97q0 -21 -20 -21h-69q-9 0 -15 5.5z" />
    <glyph glyph-name="uni1EDC" unicode="&#x1edc;" horiz-adv-x="699" 
d="M648.5 734.5q-23.5 -45.5 -65.5 -63.5q36 -43 53.5 -116t17.5 -186q0 -155 -33 -236t-97.5 -110t-173.5 -29t-174 29t-98 110t-33 236t33.5 236.5t98.5 111.5t173 30q57 0 99 -7h49q35 0 53.5 25.5t18.5 84.5h102q0 -70 -23.5 -115.5zM445.5 145.5q32.5 18.5 46.5 70
t14 153.5q0 106 -14 157.5t-46.5 69.5t-95.5 18q-62 0 -94.5 -18t-47.5 -70t-15 -157q0 -103 14 -154t46.5 -69.5t96.5 -18.5q63 0 95.5 18.5zM183 931h120l82 -140h-87z" />
    <glyph glyph-name="uni1EDE" unicode="&#x1ede;" horiz-adv-x="699" 
d="M648.5 734.5q-23.5 -45.5 -65.5 -63.5q36 -43 53.5 -116t17.5 -186q0 -155 -33 -236t-97.5 -110t-173.5 -29t-174 29t-98 110t-33 236t33.5 236.5t98.5 111.5t173 30q57 0 99 -7h49q35 0 53.5 25.5t18.5 84.5h102q0 -70 -23.5 -115.5zM445.5 145.5q32.5 18.5 46.5 70
t14 153.5q0 106 -14 157.5t-46.5 69.5t-95.5 18q-62 0 -94.5 -18t-47.5 -70t-15 -157q0 -103 14 -154t46.5 -69.5t96.5 -18.5q63 0 95.5 18.5zM317 834q40 11 40 40q0 28 -33 28q-11 0 -33 -6v58q24 8 52 8q46 0 69 -21.5t23 -61.5t-28.5 -66.5t-89.5 -43.5v65z" />
    <glyph glyph-name="uni1EE0" unicode="&#x1ee0;" horiz-adv-x="699" 
d="M648.5 734.5q-23.5 -45.5 -65.5 -63.5q36 -43 53.5 -116t17.5 -186q0 -155 -33 -236t-97.5 -110t-173.5 -29t-174 29t-98 110t-33 236t33.5 236.5t98.5 111.5t173 30q57 0 99 -7h49q35 0 53.5 25.5t18.5 84.5h102q0 -70 -23.5 -115.5zM445.5 145.5q32.5 18.5 46.5 70
t14 153.5q0 106 -14 157.5t-46.5 69.5t-95.5 18q-62 0 -94.5 -18t-47.5 -70t-15 -157q0 -103 14 -154t46.5 -69.5t96.5 -18.5q63 0 95.5 18.5zM190.5 888q28.5 31 72.5 31q25 0 44 -7t43 -20q22 -11 33.5 -15.5t25.5 -4.5q20 0 31 13.5t12 38.5h74q-3 -66 -29.5 -100
t-73.5 -34q-24 0 -44 7t-46 20q-18 10 -31 15t-26 5q-19 0 -30.5 -13t-13.5 -35h-74q4 68 32.5 99z" />
    <glyph glyph-name="Ohungarumlaut" unicode="&#x150;" horiz-adv-x="699" 
d="M176 23q-65 29 -98 110t-33 236t33.5 236.5t98.5 111.5t173 30q109 0 173.5 -30t97.5 -111.5t33 -236.5t-33 -236t-97.5 -110t-173.5 -29t-174 29zM445.5 145.5q32.5 18.5 46.5 70t14 153.5q0 106 -14 157.5t-46.5 69.5t-95.5 18q-62 0 -94.5 -18t-47.5 -70t-15 -157
q0 -103 14 -154t46.5 -69.5t96.5 -18.5q63 0 95.5 18.5zM287 931h113l-101 -140h-87zM451 931h112l-100 -140h-87z" />
    <glyph glyph-name="uni020E" unicode="&#x20e;" horiz-adv-x="699" 
d="M176 23q-65 29 -98 110t-33 236t33.5 236.5t98.5 111.5t173 30q109 0 173.5 -30t97.5 -111.5t33 -236.5t-33 -236t-97.5 -110t-173.5 -29t-174 29zM445.5 145.5q32.5 18.5 46.5 70t14 153.5q0 106 -14 157.5t-46.5 69.5t-95.5 18q-62 0 -94.5 -18t-47.5 -70t-15 -157
q0 -103 14 -154t46.5 -69.5t96.5 -18.5q63 0 95.5 18.5zM453.5 899.5q36.5 -37.5 36.5 -113.5h-69q0 44 -20 63.5t-50 19.5q-70 0 -70 -83h-70q0 77 36.5 114t103.5 37q66 0 102.5 -37.5z" />
    <glyph glyph-name="Omacron" unicode="&#x14c;" horiz-adv-x="699" 
d="M176 23q-65 29 -98 110t-33 236t33.5 236.5t98.5 111.5t173 30q109 0 173.5 -30t97.5 -111.5t33 -236.5t-33 -236t-97.5 -110t-173.5 -29t-174 29zM445.5 145.5q32.5 18.5 46.5 70t14 153.5q0 106 -14 157.5t-46.5 69.5t-95.5 18q-62 0 -94.5 -18t-47.5 -70t-15 -157
q0 -103 14 -154t46.5 -69.5t96.5 -18.5q63 0 95.5 18.5zM204 895h281v-88h-281v88z" />
    <glyph glyph-name="uni1E52" unicode="&#x1e52;" horiz-adv-x="699" 
d="M176 23q-65 29 -98 110t-33 236t33.5 236.5t98.5 111.5t173 30q109 0 173.5 -30t97.5 -111.5t33 -236.5t-33 -236t-97.5 -110t-173.5 -29t-174 29zM445.5 145.5q32.5 18.5 46.5 70t14 153.5q0 106 -14 157.5t-46.5 69.5t-95.5 18q-62 0 -94.5 -18t-47.5 -70t-15 -157
q0 -103 14 -154t46.5 -69.5t96.5 -18.5q63 0 95.5 18.5zM204 895h281v-88h-281v88zM387 1080h119l-115 -140h-87z" />
    <glyph glyph-name="uni1E50" unicode="&#x1e50;" horiz-adv-x="699" 
d="M176 23q-65 29 -98 110t-33 236t33.5 236.5t98.5 111.5t173 30q109 0 173.5 -30t97.5 -111.5t33 -236.5t-33 -236t-97.5 -110t-173.5 -29t-174 29zM445.5 145.5q32.5 18.5 46.5 70t14 153.5q0 106 -14 157.5t-46.5 69.5t-95.5 18q-62 0 -94.5 -18t-47.5 -70t-15 -157
q0 -103 14 -154t46.5 -69.5t96.5 -18.5q63 0 95.5 18.5zM204 895h281v-88h-281v88zM187 1080h120l82 -140h-87z" />
    <glyph glyph-name="uni01EA" unicode="&#x1ea;" horiz-adv-x="699" 
d="M386.5 -33.5q-10.5 -15.5 -10.5 -34.5q0 -24 16 -37.5t42 -13.5h9v-69q-9 -4 -32 -4q-54 0 -80.5 26.5t-26.5 63.5q0 61 57 96h-11q-109 0 -174 29t-98 110t-33 236t33.5 236.5t98.5 111.5t173 30q109 0 173.5 -30t97.5 -111.5t33 -236.5q0 -137 -25.5 -215.5t-76 -113.5
t-132.5 -43q-23 -15 -33.5 -30.5zM207 215q14 -51 46.5 -69.5t96.5 -18.5q63 0 95.5 18.5t46.5 70t14 153.5q0 106 -14 157.5t-46.5 69.5t-95.5 18q-62 0 -94.5 -18t-47.5 -70t-15 -157q0 -103 14 -154z" />
    <glyph glyph-name="Oslash" unicode="&#xd8;" horiz-adv-x="699" 
d="M638.5 547q15.5 -71 15.5 -178q0 -155 -33 -236t-97.5 -110t-173.5 -29q-58 0 -102 7t-77 25l-17 -26h-98l52 79q-32 43 -47.5 113t-15.5 177q0 155 33.5 236.5t98.5 111.5t173 30q58 0 101.5 -7.5t77.5 -25.5l17 26h98l-53 -80q32 -42 47.5 -113zM205 224l244 370
q-17 11 -40.5 15.5t-58.5 4.5q-62 0 -94.5 -18t-47.5 -70t-15 -157q0 -98 12 -145zM445.5 145.5q32.5 18.5 46.5 70t14 153.5q0 97 -11 146l-244 -368q32 -20 99 -20q63 0 95.5 18.5z" />
    <glyph glyph-name="Oslashacute" unicode="&#x1fe;" horiz-adv-x="699" 
d="M638.5 547q15.5 -71 15.5 -178q0 -155 -33 -236t-97.5 -110t-173.5 -29q-58 0 -102 7t-77 25l-17 -26h-98l52 79q-32 43 -47.5 113t-15.5 177q0 155 33.5 236.5t98.5 111.5t173 30q58 0 101.5 -7.5t77.5 -25.5l17 26h98l-53 -80q32 -42 47.5 -113zM205 224l244 370
q-17 11 -40.5 15.5t-58.5 4.5q-62 0 -94.5 -18t-47.5 -70t-15 -157q0 -98 12 -145zM445.5 145.5q32.5 18.5 46.5 70t14 153.5q0 97 -11 146l-244 -368q32 -20 99 -20q63 0 95.5 18.5zM395 931h119l-115 -140h-87z" />
    <glyph glyph-name="Otilde" unicode="&#xd5;" horiz-adv-x="699" 
d="M176 23q-65 29 -98 110t-33 236t33.5 236.5t98.5 111.5t173 30q109 0 173.5 -30t97.5 -111.5t33 -236.5t-33 -236t-97.5 -110t-173.5 -29t-174 29zM445.5 145.5q32.5 18.5 46.5 70t14 153.5q0 106 -14 157.5t-46.5 69.5t-95.5 18q-62 0 -94.5 -18t-47.5 -70t-15 -157
q0 -103 14 -154t46.5 -69.5t96.5 -18.5q63 0 95.5 18.5zM194.5 888q28.5 31 72.5 31q25 0 44 -7t43 -20q22 -11 33.5 -15.5t25.5 -4.5q20 0 31 13.5t12 38.5h74q-3 -66 -29.5 -100t-73.5 -34q-24 0 -44 7t-46 20q-18 10 -31 15t-26 5q-19 0 -30.5 -13t-13.5 -35h-74
q4 68 32.5 99z" />
    <glyph glyph-name="uni1E4C" unicode="&#x1e4c;" horiz-adv-x="699" 
d="M176 23q-65 29 -98 110t-33 236t33.5 236.5t98.5 111.5t173 30q109 0 173.5 -30t97.5 -111.5t33 -236.5t-33 -236t-97.5 -110t-173.5 -29t-174 29zM445.5 145.5q32.5 18.5 46.5 70t14 153.5q0 106 -14 157.5t-46.5 69.5t-95.5 18q-62 0 -94.5 -18t-47.5 -70t-15 -157
q0 -103 14 -154t46.5 -69.5t96.5 -18.5q63 0 95.5 18.5zM194.5 888q28.5 31 72.5 31q25 0 44 -7t43 -20q22 -11 33.5 -15.5t25.5 -4.5q20 0 31 13.5t12 38.5h74q-3 -66 -29.5 -100t-73.5 -34q-24 0 -44 7t-46 20q-18 10 -31 15t-26 5q-19 0 -30.5 -13t-13.5 -35h-74
q4 68 32.5 99zM373 1096h119l-115 -140h-87z" />
    <glyph glyph-name="uni1E4E" unicode="&#x1e4e;" horiz-adv-x="699" 
d="M176 23q-65 29 -98 110t-33 236t33.5 236.5t98.5 111.5t173 30q109 0 173.5 -30t97.5 -111.5t33 -236.5t-33 -236t-97.5 -110t-173.5 -29t-174 29zM445.5 145.5q32.5 18.5 46.5 70t14 153.5q0 106 -14 157.5t-46.5 69.5t-95.5 18q-62 0 -94.5 -18t-47.5 -70t-15 -157
q0 -103 14 -154t46.5 -69.5t96.5 -18.5q63 0 95.5 18.5zM194.5 888q28.5 31 72.5 31q25 0 44 -7t43 -20q22 -11 33.5 -15.5t25.5 -4.5q20 0 31 13.5t12 38.5h74q-3 -66 -29.5 -100t-73.5 -34q-24 0 -44 7t-46 20q-18 10 -31 15t-26 5q-19 0 -30.5 -13t-13.5 -35h-74
q4 68 32.5 99zM190 967.5q-6 5.5 -6 15.5v97q0 10 5.5 16t15.5 6h69q9 0 14.5 -6.5t5.5 -15.5v-97q0 -21 -20 -21h-69q-9 0 -15 5.5zM402.5 967.5q-5.5 5.5 -5.5 15.5v97q0 10 5 16t15 6h69q9 0 14.5 -6.5t5.5 -15.5v-97q0 -21 -20 -21h-69q-9 0 -14.5 5.5z" />
    <glyph glyph-name="uni022C" unicode="&#x22c;" horiz-adv-x="699" 
d="M176 23q-65 29 -98 110t-33 236t33.5 236.5t98.5 111.5t173 30q109 0 173.5 -30t97.5 -111.5t33 -236.5t-33 -236t-97.5 -110t-173.5 -29t-174 29zM445.5 145.5q32.5 18.5 46.5 70t14 153.5q0 106 -14 157.5t-46.5 69.5t-95.5 18q-62 0 -94.5 -18t-47.5 -70t-15 -157
q0 -103 14 -154t46.5 -69.5t96.5 -18.5q63 0 95.5 18.5zM216 1060h281v-88h-281v88zM194.5 888q28.5 31 72.5 31q25 0 44 -7t43 -20q22 -11 33.5 -15.5t25.5 -4.5q20 0 31 13.5t12 38.5h74q-3 -66 -29.5 -100t-73.5 -34q-24 0 -44 7t-46 20q-18 10 -31 15t-26 5
q-19 0 -30.5 -13t-13.5 -35h-74q4 68 32.5 99z" />
    <glyph glyph-name="OE" unicode="&#x152;" horiz-adv-x="1039" 
d="M654 542v-107l293 -8v-117l-293 -8v-102q0 -66 62 -66h279v-124q-133 -15 -309 -15q-40 0 -75.5 8.5t-62.5 33.5q-35 -24 -83.5 -33.5t-114.5 -9.5q-109 0 -174 29t-98 110t-33 236t33.5 236.5t98.5 111.5t173 30q69 0 118.5 -11t85.5 -37q45 41 121 41q153 0 320 -13
v-124h-276q-65 0 -65 -61zM445.5 145.5q32.5 18.5 46.5 70t14 153.5q0 106 -14 157.5t-46.5 69.5t-95.5 18q-62 0 -94.5 -18t-47.5 -70t-15 -157q0 -103 14 -154t46.5 -69.5t96.5 -18.5q63 0 95.5 18.5z" />
    <glyph glyph-name="P" unicode="P" horiz-adv-x="621" 
d="M64 740h312q93 0 153 -52t60 -202q0 -260 -207 -260q-32 0 -83 5.5t-87 10.5v-242h-148v740zM359 359q40 0 60.5 30t20.5 96q0 122 -78 122h-150v-248h147z" />
    <glyph glyph-name="uni1E56" unicode="&#x1e56;" horiz-adv-x="621" 
d="M64 740h312q93 0 153 -52t60 -202q0 -260 -207 -260q-32 0 -83 5.5t-87 10.5v-242h-148v740zM359 359q40 0 60.5 30t20.5 96q0 122 -78 122h-150v-248h147zM252 809.5q-6 5.5 -6 15.5v97q0 10 5.5 16t15.5 6h69q9 0 14.5 -6.5t5.5 -15.5v-97q0 -21 -20 -21h-69
q-9 0 -15 5.5z" />
    <glyph glyph-name="Thorn" unicode="&#xde;" horiz-adv-x="586" 
d="M64 740h148v-120h129q93 0 153 -49t60 -192q0 -145 -60 -196.5t-148 -51.5q-31 0 -79 7.5t-55 8.5v-147h-148v740zM324 264q40 0 60.5 27t20.5 87q0 109 -79 109h-114v-223h112z" />
    <glyph glyph-name="Q" unicode="Q" horiz-adv-x="699" 
d="M176 23q-65 29 -98 110t-33 236t33.5 236.5t98.5 111.5t173 30q109 0 173.5 -30t97.5 -111.5t33 -236.5t-33 -236t-97.5 -110t-173.5 -29t-174 29zM445.5 145.5q32.5 18.5 46.5 70t14 153.5q0 106 -14 157.5t-46.5 69.5t-95.5 18q-62 0 -94.5 -18t-47.5 -70t-15 -157
q0 -103 14 -154t46.5 -69.5t96.5 -18.5q63 0 95.5 18.5zM420.5 -179.5q-43.5 17.5 -72 54t-30.5 88.5h102q6 -27 30.5 -40.5t56.5 -13.5q18 0 37 4.5t24 5.5v-109q-5 -1 -22.5 -4t-31.5 -3q-50 0 -93.5 17.5z" />
    <glyph glyph-name="R" unicode="R" horiz-adv-x="627" 
d="M64 740h306q98 0 154.5 -52.5t56.5 -184.5q0 -93 -31.5 -138t-85.5 -68l138 -297h-151l-119 274q-48 0 -120 2v-276h-148v740zM344 393q43 0 66 24.5t23 85.5q0 59 -23 81.5t-66 22.5h-132v-214h132z" />
    <glyph glyph-name="Racute" unicode="&#x154;" horiz-adv-x="627" 
d="M64 740h306q98 0 154.5 -52.5t56.5 -184.5q0 -93 -31.5 -138t-85.5 -68l138 -297h-151l-119 274q-48 0 -120 2v-276h-148v740zM344 393q43 0 66 24.5t23 85.5q0 59 -23 81.5t-66 22.5h-132v-214h132zM345 931h119l-115 -140h-87z" />
    <glyph glyph-name="Rcaron" unicode="&#x158;" horiz-adv-x="627" 
d="M64 740h306q98 0 154.5 -52.5t56.5 -184.5q0 -93 -31.5 -138t-85.5 -68l138 -297h-151l-119 274q-48 0 -120 2v-276h-148v740zM344 393q43 0 66 24.5t23 85.5q0 59 -23 81.5t-66 22.5h-132v-214h132zM148 933h86l66 -76l70 76h86l-108 -142h-101z" />
    <glyph glyph-name="Rcommaaccent" unicode="&#x156;" horiz-adv-x="627" 
d="M64 740h306q98 0 154.5 -52.5t56.5 -184.5q0 -93 -31.5 -138t-85.5 -68l138 -297h-151l-119 274q-48 0 -120 2v-276h-148v740zM344 393q43 0 66 24.5t23 85.5q0 59 -23 81.5t-66 22.5h-132v-214h132zM218 -155l27 7q21 5 31.5 11.5t15 21t4.5 42.5h90q0 -78 -25 -110.5
t-91 -32.5h-52v61z" />
    <glyph glyph-name="uni0210" unicode="&#x210;" horiz-adv-x="627" 
d="M64 740h306q98 0 154.5 -52.5t56.5 -184.5q0 -93 -31.5 -138t-85.5 -68l138 -297h-151l-119 274q-48 0 -120 2v-276h-148v740zM344 393q43 0 66 24.5t23 85.5q0 59 -23 81.5t-66 22.5h-132v-214h132zM68 931h120l82 -140h-87zM247 931h119l83 -140h-88z" />
    <glyph glyph-name="uni1E5A" unicode="&#x1e5a;" horiz-adv-x="627" 
d="M64 740h306q98 0 154.5 -52.5t56.5 -184.5q0 -93 -31.5 -138t-85.5 -68l138 -297h-151l-119 274q-48 0 -120 2v-276h-148v740zM344 393q43 0 66 24.5t23 85.5q0 59 -23 81.5t-66 22.5h-132v-214h132zM255 -220.5q-6 5.5 -6 15.5v97q0 10 5.5 16t15.5 6h69q9 0 14.5 -6.5
t5.5 -15.5v-97q0 -21 -20 -21h-69q-9 0 -15 5.5z" />
    <glyph glyph-name="uni0212" unicode="&#x212;" horiz-adv-x="627" 
d="M64 740h306q98 0 154.5 -52.5t56.5 -184.5q0 -93 -31.5 -138t-85.5 -68l138 -297h-151l-119 274q-48 0 -120 2v-276h-148v740zM344 393q43 0 66 24.5t23 85.5q0 59 -23 81.5t-66 22.5h-132v-214h132zM403.5 899.5q36.5 -37.5 36.5 -113.5h-69q0 44 -20 63.5t-50 19.5
q-70 0 -70 -83h-70q0 77 36.5 114t103.5 37q66 0 102.5 -37.5z" />
    <glyph glyph-name="uni1E5E" unicode="&#x1e5e;" horiz-adv-x="627" 
d="M64 740h306q98 0 154.5 -52.5t56.5 -184.5q0 -93 -31.5 -138t-85.5 -68l138 -297h-151l-119 274q-48 0 -120 2v-276h-148v740zM344 393q43 0 66 24.5t23 85.5q0 59 -23 81.5t-66 22.5h-132v-214h132zM165 -125h281v-88h-281v88z" />
    <glyph glyph-name="S" unicode="S" horiz-adv-x="589" 
d="M165 1q-65 7 -110 18v117q89 -9 225 -9q61 0 92 16.5t31 58.5v27q0 33 -19.5 50.5t-55.5 17.5h-63q-110 0 -164.5 48t-54.5 157v36q0 208 239 208q56 0 116 -7.5t108 -17.5v-117q-137 9 -207 9q-57 0 -86 -17.5t-29 -64.5v-20q0 -38 21.5 -55.5t65.5 -17.5h73
q96 0 146.5 -52.5t50.5 -137.5v-42q0 -84 -31 -130.5t-87 -64t-139 -17.5q-57 0 -122 7z" />
    <glyph glyph-name="Sacute" unicode="&#x15a;" horiz-adv-x="589" 
d="M165 1q-65 7 -110 18v117q89 -9 225 -9q61 0 92 16.5t31 58.5v27q0 33 -19.5 50.5t-55.5 17.5h-63q-110 0 -164.5 48t-54.5 157v36q0 208 239 208q56 0 116 -7.5t108 -17.5v-117q-137 9 -207 9q-57 0 -86 -17.5t-29 -64.5v-20q0 -38 21.5 -55.5t65.5 -17.5h73
q96 0 146.5 -52.5t50.5 -137.5v-42q0 -84 -31 -130.5t-87 -64t-139 -17.5q-57 0 -122 7zM335 931h119l-115 -140h-87z" />
    <glyph glyph-name="uni1E64" unicode="&#x1e64;" horiz-adv-x="589" 
d="M165 1q-65 7 -110 18v117q89 -9 225 -9q61 0 92 16.5t31 58.5v27q0 33 -19.5 50.5t-55.5 17.5h-63q-110 0 -164.5 48t-54.5 157v36q0 208 239 208q56 0 116 -7.5t108 -17.5v-117q-137 9 -207 9q-57 0 -86 -17.5t-29 -64.5v-20q0 -38 21.5 -55.5t65.5 -17.5h73
q96 0 146.5 -52.5t50.5 -137.5v-42q0 -84 -31 -130.5t-87 -64t-139 -17.5q-57 0 -122 7zM309 931h119l-115 -140h-87zM282 966.5q-6 5.5 -6 15.5v97q0 10 5.5 16t15.5 6h69q9 0 14.5 -6.5t5.5 -15.5v-97q0 -21 -20 -21h-69q-9 0 -15 5.5z" />
    <glyph glyph-name="Scaron" unicode="&#x160;" horiz-adv-x="589" 
d="M165 1q-65 7 -110 18v117q89 -9 225 -9q61 0 92 16.5t31 58.5v27q0 33 -19.5 50.5t-55.5 17.5h-63q-110 0 -164.5 48t-54.5 157v36q0 208 239 208q56 0 116 -7.5t108 -17.5v-117q-137 9 -207 9q-57 0 -86 -17.5t-29 -64.5v-20q0 -38 21.5 -55.5t65.5 -17.5h73
q96 0 146.5 -52.5t50.5 -137.5v-42q0 -84 -31 -130.5t-87 -64t-139 -17.5q-57 0 -122 7zM138 933h86l66 -76l70 76h86l-108 -142h-101z" />
    <glyph glyph-name="uni1E66" unicode="&#x1e66;" horiz-adv-x="589" 
d="M165 1q-65 7 -110 18v117q89 -9 225 -9q61 0 92 16.5t31 58.5v27q0 33 -19.5 50.5t-55.5 17.5h-63q-110 0 -164.5 48t-54.5 157v36q0 208 239 208q56 0 116 -7.5t108 -17.5v-117q-137 9 -207 9q-57 0 -86 -17.5t-29 -64.5v-20q0 -38 21.5 -55.5t65.5 -17.5h73
q96 0 146.5 -52.5t50.5 -137.5v-42q0 -84 -31 -130.5t-87 -64t-139 -17.5q-57 0 -122 7zM138 933h86l66 -76l70 76h86l-108 -142h-101zM238 973.5q-6 5.5 -6 15.5v97q0 10 5.5 16t15.5 6h69q9 0 14.5 -6.5t5.5 -15.5v-97q0 -21 -20 -21h-69q-9 0 -15 5.5z" />
    <glyph glyph-name="Scedilla" unicode="&#x15e;" horiz-adv-x="589" 
d="M493.5 385.5q50.5 -52.5 50.5 -137.5v-42q0 -110 -54 -157t-158 -54l-29 -46q31 -3 49 -20t18 -47q0 -38 -27 -59t-80 -21h-48v61l18 3q41 4 41 34t-46 36l37 58q-56 2 -113 8.5t-97 16.5v117q89 -9 225 -9q61 0 92 16.5t31 58.5v27q0 33 -19.5 50.5t-55.5 17.5h-63
q-110 0 -164.5 48t-54.5 157v36q0 208 239 208q56 0 116 -7.5t108 -17.5v-117q-137 9 -207 9q-57 0 -86 -17.5t-29 -64.5v-20q0 -38 21.5 -55.5t65.5 -17.5h73q96 0 146.5 -52.5z" />
    <glyph glyph-name="Scircumflex" unicode="&#x15c;" horiz-adv-x="589" 
d="M165 1q-65 7 -110 18v117q89 -9 225 -9q61 0 92 16.5t31 58.5v27q0 33 -19.5 50.5t-55.5 17.5h-63q-110 0 -164.5 48t-54.5 157v36q0 208 239 208q56 0 116 -7.5t108 -17.5v-117q-137 9 -207 9q-57 0 -86 -17.5t-29 -64.5v-20q0 -38 21.5 -55.5t65.5 -17.5h73
q96 0 146.5 -52.5t50.5 -137.5v-42q0 -84 -31 -130.5t-87 -64t-139 -17.5q-57 0 -122 7zM242 933h102l98 -142h-86l-66 76l-70 -76h-86z" />
    <glyph glyph-name="Scommaaccent" unicode="&#x218;" horiz-adv-x="589" 
d="M165 1q-65 7 -110 18v117q89 -9 225 -9q61 0 92 16.5t31 58.5v27q0 33 -19.5 50.5t-55.5 17.5h-63q-110 0 -164.5 48t-54.5 157v36q0 208 239 208q56 0 116 -7.5t108 -17.5v-117q-137 9 -207 9q-57 0 -86 -17.5t-29 -64.5v-20q0 -38 21.5 -55.5t65.5 -17.5h73
q96 0 146.5 -52.5t50.5 -137.5v-42q0 -84 -31 -130.5t-87 -64t-139 -17.5q-57 0 -122 7zM203 -155l27 7q21 5 31.5 11.5t15 21t4.5 42.5h90q0 -78 -25 -110.5t-91 -32.5h-52v61z" />
    <glyph glyph-name="uni1E60" unicode="&#x1e60;" horiz-adv-x="589" 
d="M165 1q-65 7 -110 18v117q89 -9 225 -9q61 0 92 16.5t31 58.5v27q0 33 -19.5 50.5t-55.5 17.5h-63q-110 0 -164.5 48t-54.5 157v36q0 208 239 208q56 0 116 -7.5t108 -17.5v-117q-137 9 -207 9q-57 0 -86 -17.5t-29 -64.5v-20q0 -38 21.5 -55.5t65.5 -17.5h73
q96 0 146.5 -52.5t50.5 -137.5v-42q0 -84 -31 -130.5t-87 -64t-139 -17.5q-57 0 -122 7zM238 809.5q-6 5.5 -6 15.5v97q0 10 5.5 16t15.5 6h69q9 0 14.5 -6.5t5.5 -15.5v-97q0 -21 -20 -21h-69q-9 0 -15 5.5z" />
    <glyph glyph-name="uni1E62" unicode="&#x1e62;" horiz-adv-x="589" 
d="M165 1q-65 7 -110 18v117q89 -9 225 -9q61 0 92 16.5t31 58.5v27q0 33 -19.5 50.5t-55.5 17.5h-63q-110 0 -164.5 48t-54.5 157v36q0 208 239 208q56 0 116 -7.5t108 -17.5v-117q-137 9 -207 9q-57 0 -86 -17.5t-29 -64.5v-20q0 -38 21.5 -55.5t65.5 -17.5h73
q96 0 146.5 -52.5t50.5 -137.5v-42q0 -84 -31 -130.5t-87 -64t-139 -17.5q-57 0 -122 7zM241 -220.5q-6 5.5 -6 15.5v97q0 10 5.5 16t15.5 6h69q9 0 14.5 -6.5t5.5 -15.5v-97q0 -21 -20 -21h-69q-9 0 -15 5.5z" />
    <glyph glyph-name="uni1E68" unicode="&#x1e68;" horiz-adv-x="589" 
d="M165 1q-65 7 -110 18v117q89 -9 225 -9q61 0 92 16.5t31 58.5v27q0 33 -19.5 50.5t-55.5 17.5h-63q-110 0 -164.5 48t-54.5 157v36q0 208 239 208q56 0 116 -7.5t108 -17.5v-117q-137 9 -207 9q-57 0 -86 -17.5t-29 -64.5v-20q0 -38 21.5 -55.5t65.5 -17.5h73
q96 0 146.5 -52.5t50.5 -137.5v-42q0 -84 -31 -130.5t-87 -64t-139 -17.5q-57 0 -122 7zM241 -220.5q-6 5.5 -6 15.5v97q0 10 5.5 16t15.5 6h69q9 0 14.5 -6.5t5.5 -15.5v-97q0 -21 -20 -21h-69q-9 0 -15 5.5zM238 809.5q-6 5.5 -6 15.5v97q0 10 5.5 16t15.5 6h69
q9 0 14.5 -6.5t5.5 -15.5v-97q0 -21 -20 -21h-69q-9 0 -15 5.5z" />
    <glyph glyph-name="uni1E9E" unicode="&#x1e9e;" horiz-adv-x="723" 
d="M625.5 367.5q51.5 -44.5 51.5 -132.5v-42q0 -79 -28.5 -122.5t-79.5 -60t-127 -16.5q-39 0 -83 5t-77 13v117q41 -1 138 -1q54 0 81.5 16t27.5 58v23q0 37 -21.5 52.5t-68.5 15.5h-122v119h108l-47 89l88 106h-179q-37 0 -56 -18t-19 -51v-538h-148v536q0 106 60.5 155
t156.5 49q179 0 349 -11l-4 -7l4 3l-60 -199l-96 -114h6q94 0 145.5 -44.5z" />
    <glyph glyph-name="uni018F" unicode="&#x18f;" horiz-adv-x="625" 
d="M107 72.5q-68 78.5 -68 254.5v96h392q-2 76 -22.5 117t-61 57.5t-110.5 16.5q-79 0 -164 -11v115q83 29 201 29q103 0 168.5 -29t101.5 -109t36 -227q0 -153 -34 -238t-94 -117.5t-148 -32.5q-129 0 -197 78.5zM393 165.5q31 38.5 35 138.5h-239q2 -66 13 -104
t35.5 -55.5t67.5 -17.5q57 0 88 38.5z" />
    <glyph glyph-name="T" unicode="T" horiz-adv-x="587" 
d="M219 607h-203v133h555v-133h-204v-607h-148v607z" />
    <glyph glyph-name="Tbar" unicode="&#x166;" horiz-adv-x="587" 
d="M367 607v-186h169v-75h-169v-346h-148v346h-169v75h169v186h-203v133h555v-133h-204z" />
    <glyph glyph-name="Tcaron" unicode="&#x164;" horiz-adv-x="587" 
d="M219 607h-203v133h555v-133h-204v-607h-148v607zM141 933h86l66 -76l70 76h86l-108 -142h-101z" />
    <glyph glyph-name="uni0162" unicode="&#x162;" horiz-adv-x="587" 
d="M338 0l-32 -51q31 -3 49 -20t18 -47q0 -38 -27 -59t-80 -21h-48v61l18 3q41 4 41 34t-46 36l40 64h-52v607h-203v133h555v-133h-204v-607h-29z" />
    <glyph glyph-name="uni021A" unicode="&#x21a;" horiz-adv-x="587" 
d="M219 607h-203v133h555v-133h-204v-607h-148v607zM175 -155l27 7q21 5 31.5 11.5t15 21t4.5 42.5h90q0 -78 -25 -110.5t-91 -32.5h-52v61z" />
    <glyph glyph-name="uni1E6A" unicode="&#x1e6a;" horiz-adv-x="587" 
d="M219 607h-203v133h555v-133h-204v-607h-148v607zM241 809.5q-6 5.5 -6 15.5v97q0 10 5.5 16t15.5 6h69q9 0 14.5 -6.5t5.5 -15.5v-97q0 -21 -20 -21h-69q-9 0 -15 5.5z" />
    <glyph glyph-name="uni1E6C" unicode="&#x1e6c;" horiz-adv-x="587" 
d="M219 607h-203v133h555v-133h-204v-607h-148v607zM244 -220.5q-6 5.5 -6 15.5v97q0 10 5.5 16t15.5 6h69q9 0 14.5 -6.5t5.5 -15.5v-97q0 -21 -20 -21h-69q-9 0 -15 5.5z" />
    <glyph glyph-name="uni1E6E" unicode="&#x1e6e;" horiz-adv-x="587" 
d="M219 607h-203v133h555v-133h-204v-607h-148v607zM154 -125h281v-88h-281v88z" />
    <glyph glyph-name="U" unicode="U" horiz-adv-x="686" 
d="M129 47.5q-75 52.5 -75 190.5v502h148v-501q0 -59 35.5 -85t105.5 -26t105 26t35 85v501h149v-502q0 -138 -75.5 -190.5t-213.5 -52.5q-139 0 -214 52.5z" />
    <glyph glyph-name="Uacute" unicode="&#xda;" horiz-adv-x="686" 
d="M129 47.5q-75 52.5 -75 190.5v502h148v-501q0 -59 35.5 -85t105.5 -26t105 26t35 85v501h149v-502q0 -138 -75.5 -190.5t-213.5 -52.5q-139 0 -214 52.5zM379 931h119l-115 -140h-87z" />
    <glyph glyph-name="Ubreve" unicode="&#x16c;" horiz-adv-x="686" 
d="M129 47.5q-75 52.5 -75 190.5v502h148v-501q0 -59 35.5 -85t105.5 -26t105 26t35 85v501h149v-502q0 -138 -75.5 -190.5t-213.5 -52.5q-139 0 -214 52.5zM224.5 820.5q-36.5 37.5 -36.5 113.5h69q0 -44 20 -63.5t50 -19.5q70 0 70 83h70q0 -77 -36.5 -114t-103.5 -37
q-66 0 -102.5 37.5z" />
    <glyph glyph-name="Ucircumflex" unicode="&#xdb;" horiz-adv-x="686" 
d="M129 47.5q-75 52.5 -75 190.5v502h148v-501q0 -59 35.5 -85t105.5 -26t105 26t35 85v501h149v-502q0 -138 -75.5 -190.5t-213.5 -52.5q-139 0 -214 52.5zM286 933h102l98 -142h-86l-66 76l-70 -76h-86z" />
    <glyph glyph-name="uni0214" unicode="&#x214;" horiz-adv-x="686" 
d="M129 47.5q-75 52.5 -75 190.5v502h148v-501q0 -59 35.5 -85t105.5 -26t105 26t35 85v501h149v-502q0 -138 -75.5 -190.5t-213.5 -52.5q-139 0 -214 52.5zM102 931h120l82 -140h-87zM281 931h119l83 -140h-88z" />
    <glyph glyph-name="Udieresis" unicode="&#xdc;" horiz-adv-x="686" 
d="M129 47.5q-75 52.5 -75 190.5v502h148v-501q0 -59 35.5 -85t105.5 -26t105 26t35 85v501h149v-502q0 -138 -75.5 -190.5t-213.5 -52.5q-139 0 -214 52.5zM172 802.5q-6 5.5 -6 15.5v97q0 10 5.5 16t15.5 6h69q9 0 14.5 -6.5t5.5 -15.5v-97q0 -21 -20 -21h-69
q-9 0 -15 5.5zM384.5 802.5q-5.5 5.5 -5.5 15.5v97q0 10 5 16t15 6h69q9 0 14.5 -6.5t5.5 -15.5v-97q0 -21 -20 -21h-69q-9 0 -14.5 5.5z" />
    <glyph glyph-name="uni1EE4" unicode="&#x1ee4;" horiz-adv-x="686" 
d="M129 47.5q-75 52.5 -75 190.5v502h148v-501q0 -59 35.5 -85t105.5 -26t105 26t35 85v501h149v-502q0 -138 -75.5 -190.5t-213.5 -52.5q-139 0 -214 52.5zM285 -220.5q-6 5.5 -6 15.5v97q0 10 5.5 16t15.5 6h69q9 0 14.5 -6.5t5.5 -15.5v-97q0 -21 -20 -21h-69
q-9 0 -15 5.5z" />
    <glyph glyph-name="Ugrave" unicode="&#xd9;" horiz-adv-x="686" 
d="M129 47.5q-75 52.5 -75 190.5v502h148v-501q0 -59 35.5 -85t105.5 -26t105 26t35 85v501h149v-502q0 -138 -75.5 -190.5t-213.5 -52.5q-139 0 -214 52.5zM193 931h120l82 -140h-87z" />
    <glyph glyph-name="uni1EE6" unicode="&#x1ee6;" horiz-adv-x="686" 
d="M129 47.5q-75 52.5 -75 190.5v502h148v-501q0 -59 35.5 -85t105.5 -26t105 26t35 85v501h149v-502q0 -138 -75.5 -190.5t-213.5 -52.5q-139 0 -214 52.5zM304 834q40 11 40 40q0 28 -33 28q-11 0 -33 -6v58q24 8 52 8q46 0 69 -21.5t23 -61.5t-28.5 -66.5t-89.5 -43.5v65
z" />
    <glyph glyph-name="Uhorn" unicode="&#x1af;" horiz-adv-x="686" 
d="M697.5 734.5q-23.5 -45.5 -65.5 -63.5v-433q0 -138 -75.5 -190.5t-213.5 -52.5q-139 0 -214 52.5t-75 190.5v502h148v-501q0 -59 35.5 -85t105.5 -26t105 26t35 85v501h64q35 0 53 25.5t18 84.5h103q0 -70 -23.5 -115.5z" />
    <glyph glyph-name="uni1EE8" unicode="&#x1ee8;" horiz-adv-x="686" 
d="M697.5 734.5q-23.5 -45.5 -65.5 -63.5v-433q0 -138 -75.5 -190.5t-213.5 -52.5q-139 0 -214 52.5t-75 190.5v502h148v-501q0 -59 35.5 -85t105.5 -26t105 26t35 85v501h64q35 0 53 25.5t18 84.5h103q0 -70 -23.5 -115.5zM373 931h119l-115 -140h-87z" />
    <glyph glyph-name="uni1EF0" unicode="&#x1ef0;" horiz-adv-x="686" 
d="M697.5 734.5q-23.5 -45.5 -65.5 -63.5v-433q0 -138 -75.5 -190.5t-213.5 -52.5q-139 0 -214 52.5t-75 190.5v502h148v-501q0 -59 35.5 -85t105.5 -26t105 26t35 85v501h64q35 0 53 25.5t18 84.5h103q0 -70 -23.5 -115.5zM281 -220.5q-6 5.5 -6 15.5v97q0 10 5.5 16
t15.5 6h69q9 0 14.5 -6.5t5.5 -15.5v-97q0 -21 -20 -21h-69q-9 0 -15 5.5z" />
    <glyph glyph-name="uni1EEA" unicode="&#x1eea;" horiz-adv-x="686" 
d="M697.5 734.5q-23.5 -45.5 -65.5 -63.5v-433q0 -138 -75.5 -190.5t-213.5 -52.5q-139 0 -214 52.5t-75 190.5v502h148v-501q0 -59 35.5 -85t105.5 -26t105 26t35 85v501h64q35 0 53 25.5t18 84.5h103q0 -70 -23.5 -115.5zM193 931h120l82 -140h-87z" />
    <glyph glyph-name="uni1EEC" unicode="&#x1eec;" horiz-adv-x="686" 
d="M697.5 734.5q-23.5 -45.5 -65.5 -63.5v-433q0 -138 -75.5 -190.5t-213.5 -52.5q-139 0 -214 52.5t-75 190.5v502h148v-501q0 -59 35.5 -85t105.5 -26t105 26t35 85v501h64q35 0 53 25.5t18 84.5h103q0 -70 -23.5 -115.5zM316 834q40 11 40 40q0 28 -33 28q-11 0 -33 -6
v58q24 8 52 8q46 0 69 -21.5t23 -61.5t-28.5 -66.5t-89.5 -43.5v65z" />
    <glyph glyph-name="uni1EEE" unicode="&#x1eee;" horiz-adv-x="686" 
d="M697.5 734.5q-23.5 -45.5 -65.5 -63.5v-433q0 -138 -75.5 -190.5t-213.5 -52.5q-139 0 -214 52.5t-75 190.5v502h148v-501q0 -59 35.5 -85t105.5 -26t105 26t35 85v501h64q35 0 53 25.5t18 84.5h103q0 -70 -23.5 -115.5zM197.5 888q28.5 31 72.5 31q25 0 44 -7t43 -20
q22 -11 33.5 -15.5t25.5 -4.5q20 0 31 13.5t12 38.5h74q-3 -66 -29.5 -100t-73.5 -34q-24 0 -44 7t-46 20q-18 10 -31 15t-26 5q-19 0 -30.5 -13t-13.5 -35h-74q4 68 32.5 99z" />
    <glyph glyph-name="Uhungarumlaut" unicode="&#x170;" horiz-adv-x="686" 
d="M129 47.5q-75 52.5 -75 190.5v502h148v-501q0 -59 35.5 -85t105.5 -26t105 26t35 85v501h149v-502q0 -138 -75.5 -190.5t-213.5 -52.5q-139 0 -214 52.5zM271 931h113l-101 -140h-87zM435 931h112l-100 -140h-87z" />
    <glyph glyph-name="uni0216" unicode="&#x216;" horiz-adv-x="686" 
d="M129 47.5q-75 52.5 -75 190.5v502h148v-501q0 -59 35.5 -85t105.5 -26t105 26t35 85v501h149v-502q0 -138 -75.5 -190.5t-213.5 -52.5q-139 0 -214 52.5zM437.5 899.5q36.5 -37.5 36.5 -113.5h-69q0 44 -20 63.5t-50 19.5q-70 0 -70 -83h-70q0 77 36.5 114t103.5 37
q66 0 102.5 -37.5z" />
    <glyph glyph-name="Umacron" unicode="&#x16a;" horiz-adv-x="686" 
d="M129 47.5q-75 52.5 -75 190.5v502h148v-501q0 -59 35.5 -85t105.5 -26t105 26t35 85v501h149v-502q0 -138 -75.5 -190.5t-213.5 -52.5q-139 0 -214 52.5zM188 895h281v-88h-281v88z" />
    <glyph glyph-name="uni1E7A" unicode="&#x1e7a;" horiz-adv-x="686" 
d="M129 47.5q-75 52.5 -75 190.5v502h148v-501q0 -59 35.5 -85t105.5 -26t105 26t35 85v501h149v-502q0 -138 -75.5 -190.5t-213.5 -52.5q-139 0 -214 52.5zM188 895h281v-88h-281v88zM172 944.5q-6 5.5 -6 15.5v97q0 10 5.5 16t15.5 6h69q9 0 14.5 -6.5t5.5 -15.5v-97
q0 -21 -20 -21h-69q-9 0 -15 5.5zM384.5 944.5q-5.5 5.5 -5.5 15.5v97q0 10 5 16t15 6h69q9 0 14.5 -6.5t5.5 -15.5v-97q0 -21 -20 -21h-69q-9 0 -14.5 5.5z" />
    <glyph glyph-name="Uogonek" unicode="&#x172;" horiz-adv-x="686" 
d="M632 740v-502q0 -115 -53.5 -170t-151.5 -68h1q-26 -16 -37.5 -32t-11.5 -36q0 -24 16 -37.5t42 -13.5h9v-69q-9 -4 -32 -4q-54 0 -80.5 26.5t-26.5 63.5q0 62 59 97h-23q-139 0 -214 52.5t-75 190.5v502h148v-501q0 -59 35.5 -85t105.5 -26t105 26t35 85v501h149z" />
    <glyph glyph-name="Uring" unicode="&#x16e;" horiz-adv-x="686" 
d="M129 47.5q-75 52.5 -75 190.5v502h148v-501q0 -59 35.5 -85t105.5 -26t105 26t35 85v501h149v-502q0 -138 -75.5 -190.5t-213.5 -52.5q-139 0 -214 52.5zM241.5 792.5q-30.5 25.5 -30.5 87.5t31 88t93 26t92 -26t30 -88t-30 -87.5t-92 -25.5q-63 0 -93.5 25.5zM376.5 835
q12.5 13 12.5 45q0 33 -13 46.5t-41 13.5q-29 0 -42.5 -13.5t-13.5 -46.5q0 -32 13.5 -45t42.5 -13t41.5 13z" />
    <glyph glyph-name="Utilde" unicode="&#x168;" horiz-adv-x="686" 
d="M129 47.5q-75 52.5 -75 190.5v502h148v-501q0 -59 35.5 -85t105.5 -26t105 26t35 85v501h149v-502q0 -138 -75.5 -190.5t-213.5 -52.5q-139 0 -214 52.5zM178.5 888q28.5 31 72.5 31q25 0 44 -7t43 -20q22 -11 33.5 -15.5t25.5 -4.5q20 0 31 13.5t12 38.5h74
q-3 -66 -29.5 -100t-73.5 -34q-24 0 -44 7t-46 20q-18 10 -31 15t-26 5q-19 0 -30.5 -13t-13.5 -35h-74q4 68 32.5 99z" />
    <glyph glyph-name="uni1E78" unicode="&#x1e78;" horiz-adv-x="686" 
d="M129 47.5q-75 52.5 -75 190.5v502h148v-501q0 -59 35.5 -85t105.5 -26t105 26t35 85v501h149v-502q0 -138 -75.5 -190.5t-213.5 -52.5q-139 0 -214 52.5zM178.5 888q28.5 31 72.5 31q25 0 44 -7t43 -20q22 -11 33.5 -15.5t25.5 -4.5q20 0 31 13.5t12 38.5h74
q-3 -66 -29.5 -100t-73.5 -34q-24 0 -44 7t-46 20q-18 10 -31 15t-26 5q-19 0 -30.5 -13t-13.5 -35h-74q4 68 32.5 99zM379 1081h119l-115 -140h-87z" />
    <glyph glyph-name="V" unicode="V" horiz-adv-x="685" 
d="M17 740h153l173 -580l173 580h152l-232 -740h-187z" />
    <glyph glyph-name="W" unicode="W" horiz-adv-x="991" 
d="M17 740h153l119 -522l139 522h136l138 -522l119 522h153l-177 -740h-151l-150 522l-151 -522h-151z" />
    <glyph glyph-name="Wacute" unicode="&#x1e82;" horiz-adv-x="991" 
d="M17 740h153l119 -522l139 522h136l138 -522l119 522h153l-177 -740h-151l-150 522l-151 -522h-151zM568 931h119l-115 -140h-87z" />
    <glyph glyph-name="Wcircumflex" unicode="&#x174;" horiz-adv-x="991" 
d="M17 740h153l119 -522l139 522h136l138 -522l119 522h153l-177 -740h-151l-150 522l-151 -522h-151zM475 933h102l98 -142h-86l-66 76l-70 -76h-86z" />
    <glyph glyph-name="Wdieresis" unicode="&#x1e84;" horiz-adv-x="991" 
d="M17 740h153l119 -522l139 522h136l138 -522l119 522h153l-177 -740h-151l-150 522l-151 -522h-151zM361 802.5q-6 5.5 -6 15.5v97q0 10 5.5 16t15.5 6h69q9 0 14.5 -6.5t5.5 -15.5v-97q0 -21 -20 -21h-69q-9 0 -15 5.5zM573.5 802.5q-5.5 5.5 -5.5 15.5v97q0 10 5 16
t15 6h69q9 0 14.5 -6.5t5.5 -15.5v-97q0 -21 -20 -21h-69q-9 0 -14.5 5.5z" />
    <glyph glyph-name="Wgrave" unicode="&#x1e80;" horiz-adv-x="991" 
d="M17 740h153l119 -522l139 522h136l138 -522l119 522h153l-177 -740h-151l-150 522l-151 -522h-151zM382 931h120l82 -140h-87z" />
    <glyph glyph-name="X" unicode="X" horiz-adv-x="663" 
d="M416 363l227 -363h-164l-154 246l-141 -246h-164l228 371l-231 369h164l158 -253l144 253h163z" />
    <glyph glyph-name="Y" unicode="Y" horiz-adv-x="628" 
d="M240 224l-223 516h154l146 -365l145 365h148l-222 -516v-224h-148v224z" />
    <glyph glyph-name="Yacute" unicode="&#xdd;" horiz-adv-x="628" 
d="M240 224l-223 516h154l146 -365l145 365h148l-222 -516v-224h-148v224zM362 931h119l-115 -140h-87z" />
    <glyph glyph-name="Ycircumflex" unicode="&#x176;" horiz-adv-x="628" 
d="M240 224l-223 516h154l146 -365l145 365h148l-222 -516v-224h-148v224zM269 933h102l98 -142h-86l-66 76l-70 -76h-86z" />
    <glyph glyph-name="Ydieresis" unicode="&#x178;" horiz-adv-x="628" 
d="M240 224l-223 516h154l146 -365l145 365h148l-222 -516v-224h-148v224zM155 802.5q-6 5.5 -6 15.5v97q0 10 5.5 16t15.5 6h69q9 0 14.5 -6.5t5.5 -15.5v-97q0 -21 -20 -21h-69q-9 0 -15 5.5zM367.5 802.5q-5.5 5.5 -5.5 15.5v97q0 10 5 16t15 6h69q9 0 14.5 -6.5
t5.5 -15.5v-97q0 -21 -20 -21h-69q-9 0 -14.5 5.5z" />
    <glyph glyph-name="uni1E8E" unicode="&#x1e8e;" horiz-adv-x="628" 
d="M240 224l-223 516h154l146 -365l145 365h148l-222 -516v-224h-148v224zM268 -220.5q-6 5.5 -6 15.5v97q0 10 5.5 16t15.5 6h69q9 0 14.5 -6.5t5.5 -15.5v-97q0 -21 -20 -21h-69q-9 0 -15 5.5z" />
    <glyph glyph-name="uni1EF4" unicode="&#x1ef4;" horiz-adv-x="628" 
d="M240 224l-223 516h154l146 -365l145 365h148l-222 -516v-224h-148v224zM268 -220.5q-6 5.5 -6 15.5v97q0 10 5.5 16t15.5 6h69q9 0 14.5 -6.5t5.5 -15.5v-97q0 -21 -20 -21h-69q-9 0 -15 5.5z" />
    <glyph glyph-name="Ygrave" unicode="&#x1ef2;" horiz-adv-x="628" 
d="M240 224l-223 516h154l146 -365l145 365h148l-222 -516v-224h-148v224zM176 931h120l82 -140h-87z" />
    <glyph glyph-name="uni1EF6" unicode="&#x1ef6;" horiz-adv-x="628" 
d="M240 224l-223 516h154l146 -365l145 365h148l-222 -516v-224h-148v224zM287 834q40 11 40 40q0 28 -33 28q-11 0 -33 -6v58q24 8 52 8q46 0 69 -21.5t23 -61.5t-28.5 -66.5t-89.5 -43.5v65z" />
    <glyph glyph-name="uni0232" unicode="&#x232;" horiz-adv-x="628" 
d="M240 224l-223 516h154l146 -365l145 365h148l-222 -516v-224h-148v224zM171 895h281v-88h-281v88z" />
    <glyph glyph-name="uni1EF8" unicode="&#x1ef8;" horiz-adv-x="628" 
d="M240 224l-223 516h154l146 -365l145 365h148l-222 -516v-224h-148v224zM161.5 888q28.5 31 72.5 31q25 0 44 -7t43 -20q22 -11 33.5 -15.5t25.5 -4.5q20 0 31 13.5t12 38.5h74q-3 -66 -29.5 -100t-73.5 -34q-24 0 -44 7t-46 20q-18 10 -31 15t-26 5q-19 0 -30.5 -13
t-13.5 -35h-74q4 68 32.5 99z" />
    <glyph glyph-name="Z" unicode="Z" horiz-adv-x="574" 
d="M38 119l319 488h-319v133h500v-118l-319 -489h319v-133h-500v119z" />
    <glyph glyph-name="Zacute" unicode="&#x179;" horiz-adv-x="574" 
d="M38 119l319 488h-319v133h500v-118l-319 -489h319v-133h-500v119zM327 931h119l-115 -140h-87z" />
    <glyph glyph-name="Zcaron" unicode="&#x17d;" horiz-adv-x="574" 
d="M38 119l319 488h-319v133h500v-118l-319 -489h319v-133h-500v119zM130 933h86l66 -76l70 76h86l-108 -142h-101z" />
    <glyph glyph-name="Zdotaccent" unicode="&#x17b;" horiz-adv-x="574" 
d="M38 119l319 488h-319v133h500v-118l-319 -489h319v-133h-500v119zM230 809.5q-6 5.5 -6 15.5v97q0 10 5.5 16t15.5 6h69q9 0 14.5 -6.5t5.5 -15.5v-97q0 -21 -20 -21h-69q-9 0 -15 5.5z" />
    <glyph glyph-name="uni1E92" unicode="&#x1e92;" horiz-adv-x="574" 
d="M38 119l319 488h-319v133h500v-118l-319 -489h319v-133h-500v119zM233 -220.5q-6 5.5 -6 15.5v97q0 10 5.5 16t15.5 6h69q9 0 14.5 -6.5t5.5 -15.5v-97q0 -21 -20 -21h-69q-9 0 -15 5.5z" />
    <glyph glyph-name="M.salt" horiz-adv-x="880" 
d="M125 719.5q41 34.5 101 34.5q59 0 95 -30.5t47 -106.5l56 -285q5 -25 22 -25q19 0 22 25l52 285q10 77 46.5 107t94.5 30q59 0 97.5 -34t42.5 -111l38 -609h-143l-33 577q-3 30 -19 30q-14 0 -19 -27l-62 -324q-8 -55 -40.5 -80t-77.5 -25t-77 25t-41 80l-63 325
q-5 26 -21 26q-21 0 -24 -33l-32 -574h-143l36 607q4 78 45 112.5z" />
    <glyph glyph-name="uni1E40.salt" horiz-adv-x="880" 
d="M125 719.5q41 34.5 101 34.5q59 0 95 -30.5t47 -106.5l56 -285q5 -25 22 -25q19 0 22 25l52 285q10 77 46.5 107t94.5 30q59 0 97.5 -34t42.5 -111l38 -609h-143l-33 577q-3 30 -19 30q-14 0 -19 -27l-62 -324q-8 -55 -40.5 -80t-77.5 -25t-77 25t-41 80l-63 325
q-5 26 -21 26q-21 0 -24 -33l-32 -574h-143l36 607q4 78 45 112.5zM382 809.5q-6 5.5 -6 15.5v97q0 10 5.5 16t15.5 6h69q9 0 14.5 -6.5t5.5 -15.5v-97q0 -21 -20 -21h-69q-9 0 -15 5.5z" />
    <glyph glyph-name="uni1E42.salt" horiz-adv-x="880" 
d="M125 719.5q41 34.5 101 34.5q59 0 95 -30.5t47 -106.5l56 -285q5 -25 22 -25q19 0 22 25l52 285q10 77 46.5 107t94.5 30q59 0 97.5 -34t42.5 -111l38 -609h-143l-33 577q-3 30 -19 30q-14 0 -19 -27l-62 -324q-8 -55 -40.5 -80t-77.5 -25t-77 25t-41 80l-63 325
q-5 26 -21 26q-21 0 -24 -33l-32 -574h-143l36 607q4 78 45 112.5zM385 -220.5q-6 5.5 -6 15.5v97q0 10 5.5 16t15.5 6h69q9 0 14.5 -6.5t5.5 -15.5v-97q0 -21 -20 -21h-69q-9 0 -15 5.5z" />
    <glyph glyph-name="N.salt" horiz-adv-x="790" 
d="M110.5 708.5q41.5 37.5 116.5 37.5q70 0 106.5 -35t57.5 -102l147 -448q7 -19 24 -19q21 0 21 26v572h148v-591q0 -83 -42 -119t-117 -36q-66 0 -102 31.5t-58 100.5l-150 454q-6 19 -22 19q-10 0 -16 -6.5t-6 -23.5v-569h-149v584q0 87 41.5 124.5z" />
    <glyph glyph-name="Nacute.salt" horiz-adv-x="790" 
d="M110.5 708.5q41.5 37.5 116.5 37.5q70 0 106.5 -35t57.5 -102l147 -448q7 -19 24 -19q21 0 21 26v572h148v-591q0 -83 -42 -119t-117 -36q-66 0 -102 31.5t-58 100.5l-150 454q-6 19 -22 19q-10 0 -16 -6.5t-6 -23.5v-569h-149v584q0 87 41.5 124.5zM471 931h119
l-115 -140h-87z" />
    <glyph glyph-name="Ncaron.salt" horiz-adv-x="790" 
d="M110.5 708.5q41.5 37.5 116.5 37.5q70 0 106.5 -35t57.5 -102l147 -448q7 -19 24 -19q21 0 21 26v572h148v-591q0 -83 -42 -119t-117 -36q-66 0 -102 31.5t-58 100.5l-150 454q-6 19 -22 19q-10 0 -16 -6.5t-6 -23.5v-569h-149v584q0 87 41.5 124.5zM274 933h86l66 -76
l70 76h86l-108 -142h-101z" />
    <glyph glyph-name="Ncommaaccent.salt" horiz-adv-x="790" 
d="M110.5 708.5q41.5 37.5 116.5 37.5q70 0 106.5 -35t57.5 -102l147 -448q7 -19 24 -19q21 0 21 26v572h148v-591q0 -83 -42 -119t-117 -36q-66 0 -102 31.5t-58 100.5l-150 454q-6 19 -22 19q-10 0 -16 -6.5t-6 -23.5v-569h-149v584q0 87 41.5 124.5zM325 -155l27 7
q21 5 31.5 11.5t15 21t4.5 42.5h90q0 -78 -25 -110.5t-91 -32.5h-52v61z" />
    <glyph glyph-name="uni1E44.salt" horiz-adv-x="790" 
d="M110.5 708.5q41.5 37.5 116.5 37.5q70 0 106.5 -35t57.5 -102l147 -448q7 -19 24 -19q21 0 21 26v572h148v-591q0 -83 -42 -119t-117 -36q-66 0 -102 31.5t-58 100.5l-150 454q-6 19 -22 19q-10 0 -16 -6.5t-6 -23.5v-569h-149v584q0 87 41.5 124.5zM362 -220.5
q-6 5.5 -6 15.5v97q0 10 5.5 16t15.5 6h69q9 0 14.5 -6.5t5.5 -15.5v-97q0 -21 -20 -21h-69q-9 0 -15 5.5z" />
    <glyph glyph-name="uni1E46.salt" horiz-adv-x="790" 
d="M110.5 708.5q41.5 37.5 116.5 37.5q70 0 106.5 -35t57.5 -102l147 -448q7 -19 24 -19q21 0 21 26v572h148v-591q0 -83 -42 -119t-117 -36q-66 0 -102 31.5t-58 100.5l-150 454q-6 19 -22 19q-10 0 -16 -6.5t-6 -23.5v-569h-149v584q0 87 41.5 124.5zM362 -220.5
q-6 5.5 -6 15.5v97q0 10 5.5 16t15.5 6h69q9 0 14.5 -6.5t5.5 -15.5v-97q0 -21 -20 -21h-69q-9 0 -15 5.5z" />
    <glyph glyph-name="uni1E48.salt" horiz-adv-x="790" 
d="M110.5 708.5q41.5 37.5 116.5 37.5q70 0 106.5 -35t57.5 -102l147 -448q7 -19 24 -19q21 0 21 26v572h148v-591q0 -83 -42 -119t-117 -36q-66 0 -102 31.5t-58 100.5l-150 454q-6 19 -22 19q-10 0 -16 -6.5t-6 -23.5v-569h-149v584q0 87 41.5 124.5zM272 -125h281v-88
h-281v88z" />
    <glyph glyph-name="Ntilde.salt" horiz-adv-x="790" 
d="M110.5 708.5q41.5 37.5 116.5 37.5q70 0 106.5 -35t57.5 -102l147 -448q7 -19 24 -19q21 0 21 26v572h148v-591q0 -83 -42 -119t-117 -36q-66 0 -102 31.5t-58 100.5l-150 454q-6 19 -22 19q-10 0 -16 -6.5t-6 -23.5v-569h-149v584q0 87 41.5 124.5zM270.5 888
q28.5 31 72.5 31q25 0 44 -7t43 -20q22 -11 33.5 -15.5t25.5 -4.5q20 0 31 13.5t12 38.5h74q-3 -66 -29.5 -100t-73.5 -34q-24 0 -44 7t-46 20q-18 10 -31 15t-26 5q-19 0 -30.5 -13t-13.5 -35h-74q4 68 32.5 99z" />
    <glyph glyph-name="W.salt" horiz-adv-x="1035" 
d="M334 168l160 572h153l-57 -218l121 -354l155 572h152l-201 -740h-193l-104 299l-102 -299h-193l-208 740h154z" />
    <glyph glyph-name="Wacute.salt" horiz-adv-x="1035" 
d="M334 168l160 572h153l-57 -218l121 -354l155 572h152l-201 -740h-193l-104 299l-102 -299h-193l-208 740h154zM576 931h119l-115 -140h-87z" />
    <glyph glyph-name="Wcircumflex.salt" horiz-adv-x="1035" 
d="M334 168l160 572h153l-57 -218l121 -354l155 572h152l-201 -740h-193l-104 299l-102 -299h-193l-208 740h154zM483 933h102l98 -142h-86l-66 76l-70 -76h-86z" />
    <glyph glyph-name="Wdieresis.salt" horiz-adv-x="1035" 
d="M334 168l160 572h153l-57 -218l121 -354l155 572h152l-201 -740h-193l-104 299l-102 -299h-193l-208 740h154zM369 802.5q-6 5.5 -6 15.5v97q0 10 5.5 16t15.5 6h69q9 0 14.5 -6.5t5.5 -15.5v-97q0 -21 -20 -21h-69q-9 0 -15 5.5zM581.5 802.5q-5.5 5.5 -5.5 15.5v97
q0 10 5 16t15 6h69q9 0 14.5 -6.5t5.5 -15.5v-97q0 -21 -20 -21h-69q-9 0 -14.5 5.5z" />
    <glyph glyph-name="Wgrave.salt" horiz-adv-x="1035" 
d="M334 168l160 572h153l-57 -218l121 -354l155 572h152l-201 -740h-193l-104 299l-102 -299h-193l-208 740h154zM390 931h120l82 -140h-87z" />
    <glyph glyph-name="X.salt" horiz-adv-x="689" 
d="M180 370q0 41 -26 93l-137 277h153l129 -243q32 -61 32 -125q0 -68 -29 -124l-124 -248h-160l138 282q24 50 24 88zM360 372q0 64 32 125l127 243h153l-135 -277q-27 -54 -27 -93q0 -40 23 -88l139 -282h-161l-123 248q-28 55 -28 124z" />
    <glyph glyph-name="a" unicode="a" horiz-adv-x="550" 
d="M71.5 30.5q-37.5 36.5 -37.5 99.5v48q0 64 44.5 102t132.5 38h137v37q0 27 -9 42.5t-34 23t-74 7.5h-161v86q99 30 215 30q106 0 158.5 -40t52.5 -139v-365h-117l-24 57q-11 -11 -39 -26t-66.5 -26t-78.5 -11q-62 0 -99.5 36.5zM305 107.5q34 10.5 43 15.5v125l-90 -6
q-76 -6 -76 -66v-22q0 -57 66 -57q23 0 57 10.5z" />
    <glyph glyph-name="aacute" unicode="&#xe1;" horiz-adv-x="550" 
d="M71.5 30.5q-37.5 36.5 -37.5 99.5v48q0 64 44.5 102t132.5 38h137v37q0 27 -9 42.5t-34 23t-74 7.5h-161v86q99 30 215 30q106 0 158.5 -40t52.5 -139v-365h-117l-24 57q-11 -11 -39 -26t-66.5 -26t-78.5 -11q-62 0 -99.5 36.5zM305 107.5q34 10.5 43 15.5v125l-90 -6
q-76 -6 -76 -66v-22q0 -57 66 -57q23 0 57 10.5zM310 771h119l-115 -140h-87z" />
    <glyph glyph-name="abreve" unicode="&#x103;" horiz-adv-x="550" 
d="M71.5 30.5q-37.5 36.5 -37.5 99.5v48q0 64 44.5 102t132.5 38h137v37q0 27 -9 42.5t-34 23t-74 7.5h-161v86q99 30 215 30q106 0 158.5 -40t52.5 -139v-365h-117l-24 57q-11 -11 -39 -26t-66.5 -26t-78.5 -11q-62 0 -99.5 36.5zM305 107.5q34 10.5 43 15.5v125l-90 -6
q-76 -6 -76 -66v-22q0 -57 66 -57q23 0 57 10.5zM160.5 660.5q-36.5 37.5 -36.5 113.5h69q0 -44 20 -63.5t50 -19.5q70 0 70 83h70q0 -77 -36.5 -114t-103.5 -37q-66 0 -102.5 37.5z" />
    <glyph glyph-name="uni1EAF" unicode="&#x1eaf;" horiz-adv-x="550" 
d="M71.5 30.5q-37.5 36.5 -37.5 99.5v48q0 64 44.5 102t132.5 38h137v37q0 27 -9 42.5t-34 23t-74 7.5h-161v86q99 30 215 30q106 0 158.5 -40t52.5 -139v-365h-117l-24 57q-11 -11 -39 -26t-66.5 -26t-78.5 -11q-62 0 -99.5 36.5zM305 107.5q34 10.5 43 15.5v125l-90 -6
q-76 -6 -76 -66v-22q0 -57 66 -57q23 0 57 10.5zM303 893h119l-115 -140h-87zM212.5 683q19.5 -14 50.5 -14q70 0 70 61h71q0 -62 -36.5 -91.5t-104.5 -29.5q-67 0 -103 30t-36 91h69q0 -33 19.5 -47z" />
    <glyph glyph-name="uni1EB7" unicode="&#x1eb7;" horiz-adv-x="550" 
d="M71.5 30.5q-37.5 36.5 -37.5 99.5v48q0 64 44.5 102t132.5 38h137v37q0 27 -9 42.5t-34 23t-74 7.5h-161v86q99 30 215 30q106 0 158.5 -40t52.5 -139v-365h-117l-24 57q-11 -11 -39 -26t-66.5 -26t-78.5 -11q-62 0 -99.5 36.5zM305 107.5q34 10.5 43 15.5v125l-90 -6
q-76 -6 -76 -66v-22q0 -57 66 -57q23 0 57 10.5zM160.5 660.5q-36.5 37.5 -36.5 113.5h69q0 -44 20 -63.5t50 -19.5q70 0 70 83h70q0 -77 -36.5 -114t-103.5 -37q-66 0 -102.5 37.5zM216.5 -220.5q-5.5 5.5 -5.5 15.5v97q0 22 20 22h69q9 0 14.5 -6.5t5.5 -15.5v-97
q0 -21 -20 -21h-69q-9 0 -14.5 5.5z" />
    <glyph glyph-name="uni1EB1" unicode="&#x1eb1;" horiz-adv-x="550" 
d="M71.5 30.5q-37.5 36.5 -37.5 99.5v48q0 64 44.5 102t132.5 38h137v37q0 27 -9 42.5t-34 23t-74 7.5h-161v86q99 30 215 30q106 0 158.5 -40t52.5 -139v-365h-117l-24 57q-11 -11 -39 -26t-66.5 -26t-78.5 -11q-62 0 -99.5 36.5zM305 107.5q34 10.5 43 15.5v125l-90 -6
q-76 -6 -76 -66v-22q0 -57 66 -57q23 0 57 10.5zM112 893h120l82 -140h-87zM212.5 683q19.5 -14 50.5 -14q70 0 70 61h71q0 -62 -36.5 -91.5t-104.5 -29.5q-67 0 -103 30t-36 91h69q0 -33 19.5 -47z" />
    <glyph glyph-name="uni1EB3" unicode="&#x1eb3;" horiz-adv-x="550" 
d="M71.5 30.5q-37.5 36.5 -37.5 99.5v48q0 64 44.5 102t132.5 38h137v37q0 27 -9 42.5t-34 23t-74 7.5h-161v86q99 30 215 30q106 0 158.5 -40t52.5 -139v-365h-117l-24 57q-11 -11 -39 -26t-66.5 -26t-78.5 -11q-62 0 -99.5 36.5zM305 107.5q34 10.5 43 15.5v125l-90 -6
q-76 -6 -76 -66v-22q0 -57 66 -57q23 0 57 10.5zM242 776q40 11 40 40q0 28 -33 28q-11 0 -33 -6v58q24 8 52 8q46 0 69 -21.5t23 -61.5t-28.5 -66.5t-89.5 -43.5v65zM160 639q-36 30 -36 91h69q0 -33 19.5 -47t50.5 -14q70 0 70 61h71q0 -62 -36.5 -91.5t-104.5 -29.5
q-67 0 -103 30z" />
    <glyph glyph-name="uni1EB5" unicode="&#x1eb5;" horiz-adv-x="550" 
d="M71.5 30.5q-37.5 36.5 -37.5 99.5v48q0 64 44.5 102t132.5 38h137v37q0 27 -9 42.5t-34 23t-74 7.5h-161v86q99 30 215 30q106 0 158.5 -40t52.5 -139v-365h-117l-24 57q-11 -11 -39 -26t-66.5 -26t-78.5 -11q-62 0 -99.5 36.5zM305 107.5q34 10.5 43 15.5v125l-90 -6
q-76 -6 -76 -66v-22q0 -57 66 -57q23 0 57 10.5zM262 851q12 -5 25 -8.5t23 -3.5q19 0 29 8.5t10 24.5h74q-5 -59 -25 -81.5t-61 -22.5q-22 0 -45.5 7.5t-26.5 8.5l-19.5 6.5t-27.5 5.5q-17 0 -27.5 -8t-12.5 -21h-74q5 58 27.5 79t60.5 21q28 0 70 -16zM212.5 683
q19.5 -14 50.5 -14q70 0 70 61h71q0 -62 -36.5 -91.5t-104.5 -29.5q-67 0 -103 30t-36 91h69q0 -33 19.5 -47z" />
    <glyph glyph-name="acircumflex" unicode="&#xe2;" horiz-adv-x="550" 
d="M71.5 30.5q-37.5 36.5 -37.5 99.5v48q0 64 44.5 102t132.5 38h137v37q0 27 -9 42.5t-34 23t-74 7.5h-161v86q99 30 215 30q106 0 158.5 -40t52.5 -139v-365h-117l-24 57q-11 -11 -39 -26t-66.5 -26t-78.5 -11q-62 0 -99.5 36.5zM305 107.5q34 10.5 43 15.5v125l-90 -6
q-76 -6 -76 -66v-22q0 -57 66 -57q23 0 57 10.5zM222 773h102l98 -142h-86l-66 76l-70 -76h-86z" />
    <glyph glyph-name="uni1EA5" unicode="&#x1ea5;" horiz-adv-x="550" 
d="M71.5 30.5q-37.5 36.5 -37.5 99.5v48q0 64 44.5 102t132.5 38h137v37q0 27 -9 42.5t-34 23t-74 7.5h-161v86q99 30 215 30q106 0 158.5 -40t52.5 -139v-365h-117l-24 57q-11 -11 -39 -26t-66.5 -26t-78.5 -11q-62 0 -99.5 36.5zM305 107.5q34 10.5 43 15.5v125l-90 -6
q-76 -6 -76 -66v-22q0 -57 66 -57q23 0 57 10.5zM529 841l-78 -125h-87l45 125h120zM324 740l98 -109h-86l-65 43l-70 -43h-87l109 109h101z" />
    <glyph glyph-name="uni1EAD" unicode="&#x1ead;" horiz-adv-x="550" 
d="M71.5 30.5q-37.5 36.5 -37.5 99.5v48q0 64 44.5 102t132.5 38h137v37q0 27 -9 42.5t-34 23t-74 7.5h-161v86q99 30 215 30q106 0 158.5 -40t52.5 -139v-365h-117l-24 57q-11 -11 -39 -26t-66.5 -26t-78.5 -11q-62 0 -99.5 36.5zM305 107.5q34 10.5 43 15.5v125l-90 -6
q-76 -6 -76 -66v-22q0 -57 66 -57q23 0 57 10.5zM222 773h102l98 -142h-86l-66 76l-70 -76h-86zM216.5 -220.5q-5.5 5.5 -5.5 15.5v97q0 22 20 22h69q9 0 14.5 -6.5t5.5 -15.5v-97q0 -21 -20 -21h-69q-9 0 -14.5 5.5z" />
    <glyph glyph-name="uni1EA7" unicode="&#x1ea7;" horiz-adv-x="550" 
d="M71.5 30.5q-37.5 36.5 -37.5 99.5v48q0 64 44.5 102t132.5 38h137v37q0 27 -9 42.5t-34 23t-74 7.5h-161v86q99 30 215 30q106 0 158.5 -40t52.5 -139v-365h-117l-24 57q-11 -11 -39 -26t-66.5 -26t-78.5 -11q-62 0 -99.5 36.5zM305 107.5q34 10.5 43 15.5v125l-90 -6
q-76 -6 -76 -66v-22q0 -57 66 -57q23 0 57 10.5zM132 841l46 -125h-87l-79 125h120zM324 740l98 -109h-86l-65 43l-70 -43h-87l109 109h101z" />
    <glyph glyph-name="uni1EA9" unicode="&#x1ea9;" horiz-adv-x="550" 
d="M71.5 30.5q-37.5 36.5 -37.5 99.5v48q0 64 44.5 102t132.5 38h137v37q0 27 -9 42.5t-34 23t-74 7.5h-161v86q99 30 215 30q106 0 158.5 -40t52.5 -139v-365h-117l-24 57q-11 -11 -39 -26t-66.5 -26t-78.5 -11q-62 0 -99.5 36.5zM305 107.5q34 10.5 43 15.5v125l-90 -6
q-76 -6 -76 -66v-22q0 -57 66 -57q23 0 57 10.5zM388 751q31 9 31 33q0 12 -5.5 17.5t-19.5 5.5q-17 0 -32 -6v51q24 8 52 8q37 0 56 -17.5t19 -48.5q0 -40 -24 -66.5t-77 -41.5v65zM223 740h101l98 -109h-86l-65 43l-70 -43h-87z" />
    <glyph glyph-name="uni1EAB" unicode="&#x1eab;" horiz-adv-x="550" 
d="M71.5 30.5q-37.5 36.5 -37.5 99.5v48q0 64 44.5 102t132.5 38h137v37q0 27 -9 42.5t-34 23t-74 7.5h-161v86q99 30 215 30q106 0 158.5 -40t52.5 -139v-365h-117l-24 57q-11 -11 -39 -26t-66.5 -26t-78.5 -11q-62 0 -99.5 36.5zM305 107.5q34 10.5 43 15.5v125l-90 -6
q-76 -6 -76 -66v-22q0 -57 66 -57q23 0 57 10.5zM261 866q4 -1 19.5 -6.5t29.5 -5.5q19 0 29 8.5t10 24.5h74q-5 -59 -25 -81.5t-61 -22.5q-23 0 -47.5 7.5t-29.5 8.5q-3 1 -20.5 6.5t-29.5 5.5q-14 0 -22 -8.5t-10 -21.5h-74q5 58 27.5 79.5t60.5 21.5q29 0 69 -16z
M422 631h-86l-65 43l-70 -43h-87l109 109h101z" />
    <glyph glyph-name="uni0201" unicode="&#x201;" horiz-adv-x="550" 
d="M71.5 30.5q-37.5 36.5 -37.5 99.5v48q0 64 44.5 102t132.5 38h137v37q0 27 -9 42.5t-34 23t-74 7.5h-161v86q99 30 215 30q106 0 158.5 -40t52.5 -139v-365h-117l-24 57q-11 -11 -39 -26t-66.5 -26t-78.5 -11q-62 0 -99.5 36.5zM305 107.5q34 10.5 43 15.5v125l-90 -6
q-76 -6 -76 -66v-22q0 -57 66 -57q23 0 57 10.5zM40 771h119l83 -140h-87zM218 771h120l82 -140h-87z" />
    <glyph glyph-name="adieresis" unicode="&#xe4;" horiz-adv-x="550" 
d="M71.5 30.5q-37.5 36.5 -37.5 99.5v48q0 64 44.5 102t132.5 38h137v37q0 27 -9 42.5t-34 23t-74 7.5h-161v86q99 30 215 30q106 0 158.5 -40t52.5 -139v-365h-117l-24 57q-11 -11 -39 -26t-66.5 -26t-78.5 -11q-62 0 -99.5 36.5zM305 107.5q34 10.5 43 15.5v125l-90 -6
q-76 -6 -76 -66v-22q0 -57 66 -57q23 0 57 10.5zM119 642.5q-6 5.5 -6 15.5v97q0 10 5.5 16t15.5 6h68q10 0 15 -6t5 -16v-97q0 -21 -20 -21h-68q-9 0 -15 5.5zM315 642.5q-6 5.5 -6 15.5v97q0 10 5.5 16t15.5 6h69q9 0 14.5 -6.5t5.5 -15.5v-97q0 -21 -20 -21h-69
q-9 0 -15 5.5z" />
    <glyph glyph-name="uni1EA1" unicode="&#x1ea1;" horiz-adv-x="550" 
d="M71.5 30.5q-37.5 36.5 -37.5 99.5v48q0 64 44.5 102t132.5 38h137v37q0 27 -9 42.5t-34 23t-74 7.5h-161v86q99 30 215 30q106 0 158.5 -40t52.5 -139v-365h-117l-24 57q-11 -11 -39 -26t-66.5 -26t-78.5 -11q-62 0 -99.5 36.5zM305 107.5q34 10.5 43 15.5v125l-90 -6
q-76 -6 -76 -66v-22q0 -57 66 -57q23 0 57 10.5zM216.5 -220.5q-5.5 5.5 -5.5 15.5v97q0 22 20 22h69q9 0 14.5 -6.5t5.5 -15.5v-97q0 -21 -20 -21h-69q-9 0 -14.5 5.5z" />
    <glyph glyph-name="agrave" unicode="&#xe0;" horiz-adv-x="550" 
d="M71.5 30.5q-37.5 36.5 -37.5 99.5v48q0 64 44.5 102t132.5 38h137v37q0 27 -9 42.5t-34 23t-74 7.5h-161v86q99 30 215 30q106 0 158.5 -40t52.5 -139v-365h-117l-24 57q-11 -11 -39 -26t-66.5 -26t-78.5 -11q-62 0 -99.5 36.5zM305 107.5q34 10.5 43 15.5v125l-90 -6
q-76 -6 -76 -66v-22q0 -57 66 -57q23 0 57 10.5zM134 771h120l82 -140h-87z" />
    <glyph glyph-name="uni1EA3" unicode="&#x1ea3;" horiz-adv-x="550" 
d="M71.5 30.5q-37.5 36.5 -37.5 99.5v48q0 64 44.5 102t132.5 38h137v37q0 27 -9 42.5t-34 23t-74 7.5h-161v86q99 30 215 30q106 0 158.5 -40t52.5 -139v-365h-117l-24 57q-11 -11 -39 -26t-66.5 -26t-78.5 -11q-62 0 -99.5 36.5zM305 107.5q34 10.5 43 15.5v125l-90 -6
q-76 -6 -76 -66v-22q0 -57 66 -57q23 0 57 10.5zM242 659q40 11 40 40q0 28 -33 28q-11 0 -33 -6v58q24 8 52 8q46 0 69 -21.5t23 -61.5t-28.5 -66.5t-89.5 -43.5v65z" />
    <glyph glyph-name="uni0203" unicode="&#x203;" horiz-adv-x="550" 
d="M71.5 30.5q-37.5 36.5 -37.5 99.5v48q0 64 44.5 102t132.5 38h137v37q0 27 -9 42.5t-34 23t-74 7.5h-161v86q99 30 215 30q106 0 158.5 -40t52.5 -139v-365h-117l-24 57q-11 -11 -39 -26t-66.5 -26t-78.5 -11q-62 0 -99.5 36.5zM305 107.5q34 10.5 43 15.5v125l-90 -6
q-76 -6 -76 -66v-22q0 -57 66 -57q23 0 57 10.5zM374.5 739.5q36.5 -37.5 36.5 -113.5h-69q0 44 -20 63.5t-50 19.5q-70 0 -70 -83h-70q0 77 36.5 114t103.5 37q66 0 102.5 -37.5z" />
    <glyph glyph-name="amacron" unicode="&#x101;" horiz-adv-x="550" 
d="M71.5 30.5q-37.5 36.5 -37.5 99.5v48q0 64 44.5 102t132.5 38h137v37q0 27 -9 42.5t-34 23t-74 7.5h-161v86q99 30 215 30q106 0 158.5 -40t52.5 -139v-365h-117l-24 57q-11 -11 -39 -26t-66.5 -26t-78.5 -11q-62 0 -99.5 36.5zM305 107.5q34 10.5 43 15.5v125l-90 -6
q-76 -6 -76 -66v-22q0 -57 66 -57q23 0 57 10.5zM126 735h281v-88h-281v88z" />
    <glyph glyph-name="aogonek" unicode="&#x105;" horiz-adv-x="550" 
d="M515 -119v-69q-9 -4 -32 -4q-54 0 -80.5 26.5t-26.5 63.5q0 67 67 102h-64l-24 57q-11 -11 -39 -26t-66.5 -26t-78.5 -11q-62 0 -99.5 36.5t-37.5 99.5v48q0 64 44.5 102t132.5 38h137v37q0 27 -9 42.5t-34 23t-74 7.5h-161v86q99 30 215 30q106 0 158.5 -40t52.5 -139
v-365h1q-26 -16 -37.5 -32t-11.5 -36q0 -24 16 -37.5t42 -13.5h9zM348 248l-90 -6q-76 -6 -76 -66v-22q0 -57 66 -57q23 0 57 10.5t43 15.5v125z" />
    <glyph glyph-name="aring" unicode="&#xe5;" horiz-adv-x="550" 
d="M71.5 30.5q-37.5 36.5 -37.5 99.5v48q0 64 44.5 102t132.5 38h137v37q0 27 -9 42.5t-34 23t-74 7.5h-161v86q99 30 215 30q106 0 158.5 -40t52.5 -139v-365h-117l-24 57q-11 -11 -39 -26t-66.5 -26t-78.5 -11q-62 0 -99.5 36.5zM305 107.5q34 10.5 43 15.5v125l-90 -6
q-76 -6 -76 -66v-22q0 -57 66 -57q23 0 57 10.5zM177.5 610.5q-30.5 25.5 -30.5 87.5t31 88t93 26t92 -26t30 -88t-30 -87.5t-92 -25.5q-63 0 -93.5 25.5zM312.5 653q12.5 13 12.5 45q0 33 -13 46.5t-41 13.5q-29 0 -42.5 -13.5t-13.5 -46.5q0 -32 13.5 -45t42.5 -13
t41.5 13z" />
    <glyph glyph-name="aringacute" unicode="&#x1fb;" horiz-adv-x="550" 
d="M177.5 610.5q-30.5 25.5 -30.5 87.5q0 54 23.5 80.5t71.5 31.5l71 121h119l-104 -126q33 -10 49 -35.5t16 -71.5q0 -62 -30 -87.5t-92 -25.5q-63 0 -93.5 25.5zM228.5 744.5q-13.5 -13.5 -13.5 -46.5q0 -32 13.5 -45t42.5 -13t41.5 13t12.5 45q0 33 -13 46.5t-41 13.5
q-29 0 -42.5 -13.5zM443.5 504q52.5 -40 52.5 -139v-365h-117l-24 57q-11 -11 -39 -26t-66.5 -26t-78.5 -11q-62 0 -99.5 36.5t-37.5 99.5v48q0 64 44.5 102t132.5 38h137v37q0 27 -9 42.5t-34 23t-74 7.5h-161v86q99 30 215 30q106 0 158.5 -40zM348 248l-90 -6
q-76 -6 -76 -66v-22q0 -57 66 -57q23 0 57 10.5t43 15.5v125z" />
    <glyph glyph-name="atilde" unicode="&#xe3;" horiz-adv-x="550" 
d="M71.5 30.5q-37.5 36.5 -37.5 99.5v48q0 64 44.5 102t132.5 38h137v37q0 27 -9 42.5t-34 23t-74 7.5h-161v86q99 30 215 30q106 0 158.5 -40t52.5 -139v-365h-117l-24 57q-11 -11 -39 -26t-66.5 -26t-78.5 -11q-62 0 -99.5 36.5zM305 107.5q34 10.5 43 15.5v125l-90 -6
q-76 -6 -76 -66v-22q0 -57 66 -57q23 0 57 10.5zM123.5 728q28.5 31 72.5 31q25 0 44 -7t43 -20q22 -11 33.5 -15.5t25.5 -4.5q20 0 31 13.5t12 38.5h74q-3 -66 -29.5 -100t-73.5 -34q-24 0 -44 7t-46 20q-18 10 -31 15t-26 5q-19 0 -30.5 -13t-13.5 -35h-74q4 68 32.5 99z
" />
    <glyph glyph-name="ae" unicode="&#xe6;" horiz-adv-x="852" 
d="M71 33q-35 39 -35 99v44q0 63 44 101.5t134 38.5h137v42q0 37 -24 53.5t-82 16.5h-172v86q47 15 89.5 22.5t97.5 7.5q57 0 101.5 -17t67.5 -46q53 64 166 64q76 0 121 -17t66.5 -58.5t21.5 -115.5q0 -73 -45 -103.5t-137 -30.5h-127q0 -47 17.5 -72t48.5 -34t82 -9h143
v-87q-83 -24 -216 -24q-61 0 -109.5 25t-71.5 64q-35 -37 -91 -63t-120 -26q-72 0 -107 39zM618 313q27 0 40 11t13 34q0 43 -21 59.5t-67 16.5q-36 0 -54.5 -11t-25.5 -36.5t-8 -73.5h123zM307.5 110q29.5 13 52.5 35q-11 42 -11 100l-106 -9q-30 -2 -44 -18.5t-14 -40.5
v-20q0 -60 63 -60q30 0 59.5 13z" />
    <glyph glyph-name="aeacute" unicode="&#x1fd;" horiz-adv-x="852" 
d="M71 33q-35 39 -35 99v44q0 63 44 101.5t134 38.5h137v42q0 37 -24 53.5t-82 16.5h-172v86q47 15 89.5 22.5t97.5 7.5q57 0 101.5 -17t67.5 -46q53 64 166 64q76 0 121 -17t66.5 -58.5t21.5 -115.5q0 -73 -45 -103.5t-137 -30.5h-127q0 -47 17.5 -72t48.5 -34t82 -9h143
v-87q-83 -24 -216 -24q-61 0 -109.5 25t-71.5 64q-35 -37 -91 -63t-120 -26q-72 0 -107 39zM618 313q27 0 40 11t13 34q0 43 -21 59.5t-67 16.5q-36 0 -54.5 -11t-25.5 -36.5t-8 -73.5h123zM307.5 110q29.5 13 52.5 35q-11 42 -11 100l-106 -9q-30 -2 -44 -18.5t-14 -40.5
v-20q0 -60 63 -60q30 0 59.5 13zM468 771h119l-115 -140h-87z" />
    <glyph glyph-name="b" unicode="b" horiz-adv-x="585" 
d="M275.5 9q-36.5 15 -70.5 42l-24 -51h-124v763h148v-263q35 19 75 32t74 13q69 0 110.5 -28.5t60.5 -90t19 -163.5q0 -136 -45 -202.5t-138 -66.5q-49 0 -85.5 15zM372.5 150q23.5 35 23.5 120q0 65 -12 99.5t-31.5 45.5t-46.5 11q-49 0 -101 -30v-255q48 -26 101 -26
q43 0 66.5 35z" />
    <glyph glyph-name="uni1E03" unicode="&#x1e03;" horiz-adv-x="585" 
d="M275.5 9q-36.5 15 -70.5 42l-24 -51h-124v763h148v-263q35 19 75 32t74 13q69 0 110.5 -28.5t60.5 -90t19 -163.5q0 -136 -45 -202.5t-138 -66.5q-49 0 -85.5 15zM372.5 150q23.5 35 23.5 120q0 65 -12 99.5t-31.5 45.5t-46.5 11q-49 0 -101 -30v-255q48 -26 101 -26
q43 0 66.5 35zM80 849.5q-6 5.5 -6 15.5v97q0 10 5.5 16t15.5 6h69q9 0 14.5 -6.5t5.5 -15.5v-97q0 -21 -20 -21h-69q-9 0 -15 5.5z" />
    <glyph glyph-name="c" unicode="c" horiz-adv-x="490" 
d="M100 55q-59 61 -59 211q0 107 26 168t76 86t127 25q97 0 187 -25v-85h-141q-48 0 -75 -14t-39.5 -50t-12.5 -104q0 -67 12.5 -101.5t39.5 -47t77 -12.5h147v-84q-38 -12 -93 -20t-106 -8q-107 0 -166 61z" />
    <glyph glyph-name="cacute" unicode="&#x107;" horiz-adv-x="490" 
d="M100 55q-59 61 -59 211q0 107 26 168t76 86t127 25q97 0 187 -25v-85h-141q-48 0 -75 -14t-39.5 -50t-12.5 -104q0 -67 12.5 -101.5t39.5 -47t77 -12.5h147v-84q-38 -12 -93 -20t-106 -8q-107 0 -166 61zM310 771h119l-115 -140h-87z" />
    <glyph glyph-name="ccaron" unicode="&#x10d;" horiz-adv-x="490" 
d="M100 55q-59 61 -59 211q0 107 26 168t76 86t127 25q97 0 187 -25v-85h-141q-48 0 -75 -14t-39.5 -50t-12.5 -104q0 -67 12.5 -101.5t39.5 -47t77 -12.5h147v-84q-38 -12 -93 -20t-106 -8q-107 0 -166 61zM118 773h86l66 -76l70 76h86l-108 -142h-101z" />
    <glyph glyph-name="ccedilla" unicode="&#xe7;" horiz-adv-x="490" 
d="M313 -4l-30 -47q31 -3 49 -20t18 -47q0 -38 -27 -59t-80 -21h-48v61l18 3q41 4 41 34t-46 36l37 59q-97 5 -150.5 67t-53.5 204q0 107 26 168t76 86t127 25q97 0 187 -25v-85h-141q-48 0 -75 -14t-39.5 -50t-12.5 -104q0 -67 12.5 -101.5t39.5 -47t77 -12.5h147v-84
q-70 -22 -152 -26z" />
    <glyph glyph-name="uni1E09" unicode="&#x1e09;" horiz-adv-x="490" 
d="M314 631h-87l83 140h119zM313 -4l-30 -47q31 -3 49 -20t18 -47q0 -38 -27 -59t-80 -21h-48v61l18 3q41 4 41 34t-46 36l37 59q-97 5 -150.5 67t-53.5 204q0 107 26 168t76 86t127 25q97 0 187 -25v-85h-141q-48 0 -75 -14t-39.5 -50t-12.5 -104q0 -67 12.5 -101.5
t39.5 -47t77 -12.5h147v-84q-70 -22 -152 -26z" />
    <glyph glyph-name="ccircumflex" unicode="&#x109;" horiz-adv-x="490" 
d="M100 55q-59 61 -59 211q0 107 26 168t76 86t127 25q97 0 187 -25v-85h-141q-48 0 -75 -14t-39.5 -50t-12.5 -104q0 -67 12.5 -101.5t39.5 -47t77 -12.5h147v-84q-38 -12 -93 -20t-106 -8q-107 0 -166 61zM222 773h102l98 -142h-86l-66 76l-70 -76h-86z" />
    <glyph glyph-name="cdotaccent" unicode="&#x10b;" horiz-adv-x="490" 
d="M100 55q-59 61 -59 211q0 107 26 168t76 86t127 25q97 0 187 -25v-85h-141q-48 0 -75 -14t-39.5 -50t-12.5 -104q0 -67 12.5 -101.5t39.5 -47t77 -12.5h147v-84q-38 -12 -93 -20t-106 -8q-107 0 -166 61zM219 649.5q-6 5.5 -6 15.5v97q0 10 5.5 16t15.5 6h69
q9 0 14.5 -6.5t5.5 -15.5v-97q0 -21 -20 -21h-69q-9 0 -15 5.5z" />
    <glyph glyph-name="d" unicode="d" horiz-adv-x="583" 
d="M88.5 57q-47.5 63 -47.5 206q0 102 18.5 163t62.5 90t121 29q66 0 137 -25v243h149v-763h-125l-24 51q-28 -24 -68 -40.5t-79 -16.5q-97 0 -144.5 63zM380 143v270q-26 10 -46.5 15.5t-42.5 5.5q-39 0 -60.5 -13.5t-31.5 -49t-10 -101.5q0 -63 9.5 -96.5t30 -47
t56.5 -13.5q48 0 95 30z" />
    <glyph glyph-name="eth" unicode="&#xf0;" horiz-adv-x="575" 
d="M510 509.5q24 -94.5 24 -239.5q0 -108 -24 -167t-77 -83.5t-146 -24.5q-91 0 -144 25t-77.5 82.5t-24.5 159.5q0 104 26 162t75 81t125 23q70 0 115 -24q-20 73 -65 113l-161 -62l-18 47l125 48q-53 23 -136 26v89q87 -2 152 -18t111 -48l118 46l19 -48l-93 -36
q52 -57 76 -151.5zM346 123q20 10 30 42t10 98t-10 97.5t-30 41.5t-59 10q-38 0 -58 -10t-30 -41.5t-10 -97.5t10 -98t30 -42t58 -10q39 0 59 10z" />
    <glyph glyph-name="dcaron" unicode="&#x10f;" horiz-adv-x="583" 
d="M88.5 57q-47.5 63 -47.5 206q0 102 18.5 163t62.5 90t121 29q66 0 137 -25v243h149v-763h-125l-24 51q-28 -24 -68 -40.5t-79 -16.5q-97 0 -144.5 63zM380 143v270q-26 10 -46.5 15.5t-42.5 5.5q-39 0 -60.5 -13.5t-31.5 -49t-10 -101.5q0 -63 9.5 -96.5t30 -47
t56.5 -13.5q48 0 95 30zM580 719v64h134v-64l-8 -137h-117z" />
    <glyph glyph-name="dcroat" unicode="&#x111;" horiz-adv-x="583" 
d="M587 615h-58v-615h-125l-24 51q-28 -24 -68 -40.5t-79 -16.5q-97 0 -144.5 63t-47.5 206q0 102 18.5 163t62.5 90t121 29q66 0 137 -25v95h-117v59h117v89h149v-89h58v-59zM380 413q-26 10 -46.5 15.5t-42.5 5.5q-39 0 -60.5 -13.5t-31.5 -49t-10 -101.5q0 -63 9.5 -96.5
t30 -47t56.5 -13.5q48 0 95 30v270z" />
    <glyph glyph-name="uni1E0B" unicode="&#x1e0b;" horiz-adv-x="583" 
d="M88.5 57q-47.5 63 -47.5 206q0 102 18.5 163t62.5 90t121 29q66 0 137 -25v243h149v-763h-125l-24 51q-28 -24 -68 -40.5t-79 -16.5q-97 0 -144.5 63zM380 143v270q-26 10 -46.5 15.5t-42.5 5.5q-39 0 -60.5 -13.5t-31.5 -49t-10 -101.5q0 -63 9.5 -96.5t30 -47
t56.5 -13.5q48 0 95 30zM403 849.5q-6 5.5 -6 15.5v97q0 10 5.5 16t15.5 6h69q9 0 14.5 -6.5t5.5 -15.5v-97q0 -21 -20 -21h-69q-9 0 -15 5.5z" />
    <glyph glyph-name="uni1E0D" unicode="&#x1e0d;" horiz-adv-x="583" 
d="M88.5 57q-47.5 63 -47.5 206q0 102 18.5 163t62.5 90t121 29q66 0 137 -25v243h149v-763h-125l-24 51q-28 -24 -68 -40.5t-79 -16.5q-97 0 -144.5 63zM380 143v270q-26 10 -46.5 15.5t-42.5 5.5q-39 0 -60.5 -13.5t-31.5 -49t-10 -101.5q0 -63 9.5 -96.5t30 -47
t56.5 -13.5q48 0 95 30zM229.5 -220.5q-5.5 5.5 -5.5 15.5v97q0 22 20 22h69q9 0 14.5 -6.5t5.5 -15.5v-97q0 -21 -20 -21h-69q-9 0 -14.5 5.5z" />
    <glyph glyph-name="uni1E0F" unicode="&#x1e0f;" horiz-adv-x="583" 
d="M88.5 57q-47.5 63 -47.5 206q0 102 18.5 163t62.5 90t121 29q66 0 137 -25v243h149v-763h-125l-24 51q-28 -24 -68 -40.5t-79 -16.5q-97 0 -144.5 63zM380 143v270q-26 10 -46.5 15.5t-42.5 5.5q-39 0 -60.5 -13.5t-31.5 -49t-10 -101.5q0 -63 9.5 -96.5t30 -47
t56.5 -13.5q48 0 95 30zM144 -125h281v-88h-281v88z" />
    <glyph glyph-name="e" unicode="e" horiz-adv-x="537" 
d="M140 19q-52 24 -75.5 83t-23.5 166q0 110 22 169.5t72.5 83.5t142.5 24q82 0 129 -16t68.5 -56t21.5 -113q0 -78 -44.5 -111t-129.5 -33h-135q2 -43 13 -66.5t39 -34t82 -10.5h157v-87q-53 -11 -96 -17t-100 -6q-91 0 -143 24zM308 304q31 0 44.5 12.5t13.5 42.5
q0 44 -20 61.5t-68 17.5q-35 0 -54.5 -11.5t-28.5 -40.5t-9 -82h122z" />
    <glyph glyph-name="eacute" unicode="&#xe9;" horiz-adv-x="537" 
d="M140 19q-52 24 -75.5 83t-23.5 166q0 110 22 169.5t72.5 83.5t142.5 24q82 0 129 -16t68.5 -56t21.5 -113q0 -78 -44.5 -111t-129.5 -33h-135q2 -43 13 -66.5t39 -34t82 -10.5h157v-87q-53 -11 -96 -17t-100 -6q-91 0 -143 24zM308 304q31 0 44.5 12.5t13.5 42.5
q0 44 -20 61.5t-68 17.5q-35 0 -54.5 -11.5t-28.5 -40.5t-9 -82h122zM310 771h119l-115 -140h-87z" />
    <glyph glyph-name="ebreve" unicode="&#x115;" horiz-adv-x="537" 
d="M140 19q-52 24 -75.5 83t-23.5 166q0 110 22 169.5t72.5 83.5t142.5 24q82 0 129 -16t68.5 -56t21.5 -113q0 -78 -44.5 -111t-129.5 -33h-135q2 -43 13 -66.5t39 -34t82 -10.5h157v-87q-53 -11 -96 -17t-100 -6q-91 0 -143 24zM308 304q31 0 44.5 12.5t13.5 42.5
q0 44 -20 61.5t-68 17.5q-35 0 -54.5 -11.5t-28.5 -40.5t-9 -82h122zM160.5 660.5q-36.5 37.5 -36.5 113.5h69q0 -44 20 -63.5t50 -19.5q70 0 70 83h70q0 -77 -36.5 -114t-103.5 -37q-66 0 -102.5 37.5z" />
    <glyph glyph-name="ecaron" unicode="&#x11b;" horiz-adv-x="537" 
d="M140 19q-52 24 -75.5 83t-23.5 166q0 110 22 169.5t72.5 83.5t142.5 24q82 0 129 -16t68.5 -56t21.5 -113q0 -78 -44.5 -111t-129.5 -33h-135q2 -43 13 -66.5t39 -34t82 -10.5h157v-87q-53 -11 -96 -17t-100 -6q-91 0 -143 24zM308 304q31 0 44.5 12.5t13.5 42.5
q0 44 -20 61.5t-68 17.5q-35 0 -54.5 -11.5t-28.5 -40.5t-9 -82h122zM118 773h86l66 -76l70 76h86l-108 -142h-101z" />
    <glyph glyph-name="uni1E1D" unicode="&#x1e1d;" horiz-adv-x="537" 
d="M160.5 660.5q-36.5 37.5 -36.5 113.5h69q0 -44 20 -63.5t50 -19.5q70 0 70 83h70q0 -77 -36.5 -114t-103.5 -37q-66 0 -102.5 37.5zM201 149.5q11 -23.5 39 -34t82 -10.5h157v-87q-44 -9 -81.5 -15t-85.5 -8l-29 -46q31 -3 49 -20t18 -47q0 -38 -27 -59t-80 -21h-48v61
l18 3q41 4 41 34t-46 36l38 60q-76 5 -120.5 31.5t-64.5 83.5t-20 157q0 110 22 169.5t72.5 83.5t142.5 24q82 0 129 -16t68.5 -56t21.5 -113q0 -78 -44.5 -111t-129.5 -33h-135q2 -43 13 -66.5zM223.5 426.5q-19.5 -11.5 -28.5 -40.5t-9 -82h122q31 0 44.5 12.5t13.5 42.5
q0 44 -20 61.5t-68 17.5q-35 0 -54.5 -11.5z" />
    <glyph glyph-name="ecircumflex" unicode="&#xea;" horiz-adv-x="537" 
d="M140 19q-52 24 -75.5 83t-23.5 166q0 110 22 169.5t72.5 83.5t142.5 24q82 0 129 -16t68.5 -56t21.5 -113q0 -78 -44.5 -111t-129.5 -33h-135q2 -43 13 -66.5t39 -34t82 -10.5h157v-87q-53 -11 -96 -17t-100 -6q-91 0 -143 24zM308 304q31 0 44.5 12.5t13.5 42.5
q0 44 -20 61.5t-68 17.5q-35 0 -54.5 -11.5t-28.5 -40.5t-9 -82h122zM222 773h102l98 -142h-86l-66 76l-70 -76h-86z" />
    <glyph glyph-name="uni1EBF" unicode="&#x1ebf;" horiz-adv-x="537" 
d="M140 19q-52 24 -75.5 83t-23.5 166q0 110 22 169.5t72.5 83.5t142.5 24q82 0 129 -16t68.5 -56t21.5 -113q0 -78 -44.5 -111t-129.5 -33h-135q2 -43 13 -66.5t39 -34t82 -10.5h157v-87q-53 -11 -96 -17t-100 -6q-91 0 -143 24zM308 304q31 0 44.5 12.5t13.5 42.5
q0 44 -20 61.5t-68 17.5q-35 0 -54.5 -11.5t-28.5 -40.5t-9 -82h122zM529 841l-78 -125h-87l45 125h120zM324 740l98 -109h-86l-65 43l-70 -43h-87l109 109h101z" />
    <glyph glyph-name="uni1EC7" unicode="&#x1ec7;" horiz-adv-x="537" 
d="M140 19q-52 24 -75.5 83t-23.5 166q0 110 22 169.5t72.5 83.5t142.5 24q82 0 129 -16t68.5 -56t21.5 -113q0 -78 -44.5 -111t-129.5 -33h-135q2 -43 13 -66.5t39 -34t82 -10.5h157v-87q-53 -11 -96 -17t-100 -6q-91 0 -143 24zM308 304q31 0 44.5 12.5t13.5 42.5
q0 44 -20 61.5t-68 17.5q-35 0 -54.5 -11.5t-28.5 -40.5t-9 -82h122zM222 773h102l98 -142h-86l-66 76l-70 -76h-86zM216.5 -220.5q-5.5 5.5 -5.5 15.5v97q0 22 20 22h69q9 0 14.5 -6.5t5.5 -15.5v-97q0 -21 -20 -21h-69q-9 0 -14.5 5.5z" />
    <glyph glyph-name="uni1EC1" unicode="&#x1ec1;" horiz-adv-x="537" 
d="M140 19q-52 24 -75.5 83t-23.5 166q0 110 22 169.5t72.5 83.5t142.5 24q82 0 129 -16t68.5 -56t21.5 -113q0 -78 -44.5 -111t-129.5 -33h-135q2 -43 13 -66.5t39 -34t82 -10.5h157v-87q-53 -11 -96 -17t-100 -6q-91 0 -143 24zM308 304q31 0 44.5 12.5t13.5 42.5
q0 44 -20 61.5t-68 17.5q-35 0 -54.5 -11.5t-28.5 -40.5t-9 -82h122zM132 841l46 -125h-87l-79 125h120zM324 740l98 -109h-86l-65 43l-70 -43h-87l109 109h101z" />
    <glyph glyph-name="uni1EC3" unicode="&#x1ec3;" horiz-adv-x="537" 
d="M140 19q-52 24 -75.5 83t-23.5 166q0 110 22 169.5t72.5 83.5t142.5 24q82 0 129 -16t68.5 -56t21.5 -113q0 -78 -44.5 -111t-129.5 -33h-135q2 -43 13 -66.5t39 -34t82 -10.5h157v-87q-53 -11 -96 -17t-100 -6q-91 0 -143 24zM308 304q31 0 44.5 12.5t13.5 42.5
q0 44 -20 61.5t-68 17.5q-35 0 -54.5 -11.5t-28.5 -40.5t-9 -82h122zM388 751q31 9 31 33q0 12 -5.5 17.5t-19.5 5.5q-17 0 -32 -6v51q24 8 52 8q37 0 56 -17.5t19 -48.5q0 -40 -24 -66.5t-77 -41.5v65zM223 740h101l98 -109h-86l-65 43l-70 -43h-87z" />
    <glyph glyph-name="uni1EC5" unicode="&#x1ec5;" horiz-adv-x="537" 
d="M140 19q-52 24 -75.5 83t-23.5 166q0 110 22 169.5t72.5 83.5t142.5 24q82 0 129 -16t68.5 -56t21.5 -113q0 -78 -44.5 -111t-129.5 -33h-135q2 -43 13 -66.5t39 -34t82 -10.5h157v-87q-53 -11 -96 -17t-100 -6q-91 0 -143 24zM308 304q31 0 44.5 12.5t13.5 42.5
q0 44 -20 61.5t-68 17.5q-35 0 -54.5 -11.5t-28.5 -40.5t-9 -82h122zM261 866q4 -1 19.5 -6.5t29.5 -5.5q19 0 29 8.5t10 24.5h74q-5 -59 -25 -81.5t-61 -22.5q-23 0 -47.5 7.5t-29.5 8.5q-3 1 -20.5 6.5t-29.5 5.5q-14 0 -22 -8.5t-10 -21.5h-74q5 58 27.5 79.5t60.5 21.5
q29 0 69 -16zM422 631h-86l-65 43l-70 -43h-87l109 109h101z" />
    <glyph glyph-name="uni0205" unicode="&#x205;" horiz-adv-x="537" 
d="M140 19q-52 24 -75.5 83t-23.5 166q0 110 22 169.5t72.5 83.5t142.5 24q82 0 129 -16t68.5 -56t21.5 -113q0 -78 -44.5 -111t-129.5 -33h-135q2 -43 13 -66.5t39 -34t82 -10.5h157v-87q-53 -11 -96 -17t-100 -6q-91 0 -143 24zM308 304q31 0 44.5 12.5t13.5 42.5
q0 44 -20 61.5t-68 17.5q-35 0 -54.5 -11.5t-28.5 -40.5t-9 -82h122zM40 771h119l83 -140h-87zM218 771h120l82 -140h-87z" />
    <glyph glyph-name="edieresis" unicode="&#xeb;" horiz-adv-x="537" 
d="M140 19q-52 24 -75.5 83t-23.5 166q0 110 22 169.5t72.5 83.5t142.5 24q82 0 129 -16t68.5 -56t21.5 -113q0 -78 -44.5 -111t-129.5 -33h-135q2 -43 13 -66.5t39 -34t82 -10.5h157v-87q-53 -11 -96 -17t-100 -6q-91 0 -143 24zM308 304q31 0 44.5 12.5t13.5 42.5
q0 44 -20 61.5t-68 17.5q-35 0 -54.5 -11.5t-28.5 -40.5t-9 -82h122zM119 642.5q-6 5.5 -6 15.5v97q0 10 5.5 16t15.5 6h68q10 0 15 -6t5 -16v-97q0 -21 -20 -21h-68q-9 0 -15 5.5zM315 642.5q-6 5.5 -6 15.5v97q0 10 5.5 16t15.5 6h69q9 0 14.5 -6.5t5.5 -15.5v-97
q0 -21 -20 -21h-69q-9 0 -15 5.5z" />
    <glyph glyph-name="edotaccent" unicode="&#x117;" horiz-adv-x="537" 
d="M140 19q-52 24 -75.5 83t-23.5 166q0 110 22 169.5t72.5 83.5t142.5 24q82 0 129 -16t68.5 -56t21.5 -113q0 -78 -44.5 -111t-129.5 -33h-135q2 -43 13 -66.5t39 -34t82 -10.5h157v-87q-53 -11 -96 -17t-100 -6q-91 0 -143 24zM308 304q31 0 44.5 12.5t13.5 42.5
q0 44 -20 61.5t-68 17.5q-35 0 -54.5 -11.5t-28.5 -40.5t-9 -82h122zM219 649.5q-6 5.5 -6 15.5v97q0 10 5.5 16t15.5 6h69q9 0 14.5 -6.5t5.5 -15.5v-97q0 -21 -20 -21h-69q-9 0 -15 5.5z" />
    <glyph glyph-name="uni1EB9" unicode="&#x1eb9;" horiz-adv-x="537" 
d="M140 19q-52 24 -75.5 83t-23.5 166q0 110 22 169.5t72.5 83.5t142.5 24q82 0 129 -16t68.5 -56t21.5 -113q0 -78 -44.5 -111t-129.5 -33h-135q2 -43 13 -66.5t39 -34t82 -10.5h157v-87q-53 -11 -96 -17t-100 -6q-91 0 -143 24zM308 304q31 0 44.5 12.5t13.5 42.5
q0 44 -20 61.5t-68 17.5q-35 0 -54.5 -11.5t-28.5 -40.5t-9 -82h122zM216.5 -220.5q-5.5 5.5 -5.5 15.5v97q0 22 20 22h69q9 0 14.5 -6.5t5.5 -15.5v-97q0 -21 -20 -21h-69q-9 0 -14.5 5.5z" />
    <glyph glyph-name="egrave" unicode="&#xe8;" horiz-adv-x="537" 
d="M140 19q-52 24 -75.5 83t-23.5 166q0 110 22 169.5t72.5 83.5t142.5 24q82 0 129 -16t68.5 -56t21.5 -113q0 -78 -44.5 -111t-129.5 -33h-135q2 -43 13 -66.5t39 -34t82 -10.5h157v-87q-53 -11 -96 -17t-100 -6q-91 0 -143 24zM308 304q31 0 44.5 12.5t13.5 42.5
q0 44 -20 61.5t-68 17.5q-35 0 -54.5 -11.5t-28.5 -40.5t-9 -82h122zM134 771h120l82 -140h-87z" />
    <glyph glyph-name="uni1EBB" unicode="&#x1ebb;" horiz-adv-x="537" 
d="M140 19q-52 24 -75.5 83t-23.5 166q0 110 22 169.5t72.5 83.5t142.5 24q82 0 129 -16t68.5 -56t21.5 -113q0 -78 -44.5 -111t-129.5 -33h-135q2 -43 13 -66.5t39 -34t82 -10.5h157v-87q-53 -11 -96 -17t-100 -6q-91 0 -143 24zM308 304q31 0 44.5 12.5t13.5 42.5
q0 44 -20 61.5t-68 17.5q-35 0 -54.5 -11.5t-28.5 -40.5t-9 -82h122zM242 659q40 11 40 40q0 28 -33 28q-11 0 -33 -6v58q24 8 52 8q46 0 69 -21.5t23 -61.5t-28.5 -66.5t-89.5 -43.5v65z" />
    <glyph glyph-name="uni0207" unicode="&#x207;" horiz-adv-x="537" 
d="M140 19q-52 24 -75.5 83t-23.5 166q0 110 22 169.5t72.5 83.5t142.5 24q82 0 129 -16t68.5 -56t21.5 -113q0 -78 -44.5 -111t-129.5 -33h-135q2 -43 13 -66.5t39 -34t82 -10.5h157v-87q-53 -11 -96 -17t-100 -6q-91 0 -143 24zM308 304q31 0 44.5 12.5t13.5 42.5
q0 44 -20 61.5t-68 17.5q-35 0 -54.5 -11.5t-28.5 -40.5t-9 -82h122zM374.5 739.5q36.5 -37.5 36.5 -113.5h-69q0 44 -20 63.5t-50 19.5q-70 0 -70 -83h-70q0 77 36.5 114t103.5 37q66 0 102.5 -37.5z" />
    <glyph glyph-name="emacron" unicode="&#x113;" horiz-adv-x="537" 
d="M140 19q-52 24 -75.5 83t-23.5 166q0 110 22 169.5t72.5 83.5t142.5 24q82 0 129 -16t68.5 -56t21.5 -113q0 -78 -44.5 -111t-129.5 -33h-135q2 -43 13 -66.5t39 -34t82 -10.5h157v-87q-53 -11 -96 -17t-100 -6q-91 0 -143 24zM308 304q31 0 44.5 12.5t13.5 42.5
q0 44 -20 61.5t-68 17.5q-35 0 -54.5 -11.5t-28.5 -40.5t-9 -82h122zM126 735h281v-88h-281v88z" />
    <glyph glyph-name="uni1E17" unicode="&#x1e17;" horiz-adv-x="537" 
d="M140 19q-52 24 -75.5 83t-23.5 166q0 110 22 169.5t72.5 83.5t142.5 24q82 0 129 -16t68.5 -56t21.5 -113q0 -78 -44.5 -111t-129.5 -33h-135q2 -43 13 -66.5t39 -34t82 -10.5h157v-87q-53 -11 -96 -17t-100 -6q-91 0 -143 24zM308 304q31 0 44.5 12.5t13.5 42.5
q0 44 -20 61.5t-68 17.5q-35 0 -54.5 -11.5t-28.5 -40.5t-9 -82h122zM126 735h281v-88h-281v88zM303 906h119l-115 -140h-87z" />
    <glyph glyph-name="uni1E15" unicode="&#x1e15;" horiz-adv-x="537" 
d="M140 19q-52 24 -75.5 83t-23.5 166q0 110 22 169.5t72.5 83.5t142.5 24q82 0 129 -16t68.5 -56t21.5 -113q0 -78 -44.5 -111t-129.5 -33h-135q2 -43 13 -66.5t39 -34t82 -10.5h157v-87q-53 -11 -96 -17t-100 -6q-91 0 -143 24zM308 304q31 0 44.5 12.5t13.5 42.5
q0 44 -20 61.5t-68 17.5q-35 0 -54.5 -11.5t-28.5 -40.5t-9 -82h122zM126 735h281v-88h-281v88zM112 906h120l82 -140h-87z" />
    <glyph glyph-name="eogonek" unicode="&#x119;" horiz-adv-x="537" 
d="M498 -95v-69q-9 -4 -32 -4q-54 0 -80.5 26.5t-26.5 63.5q0 48 36 81q-51 -8 -112 -8q-91 0 -143 24t-75.5 83t-23.5 166q0 110 22 169.5t72.5 83.5t142.5 24q82 0 129 -16t68.5 -56t21.5 -113q0 -78 -44.5 -111t-129.5 -33h-135q2 -43 13 -66.5t39 -34t82 -10.5h157v-81
h1h-0.5t-0.5 -1v-5l-12 -3q-36 -25 -36 -59q0 -24 16 -37.5t42 -13.5h9zM223.5 426.5q-19.5 -11.5 -28.5 -40.5t-9 -82h122q31 0 44.5 12.5t13.5 42.5q0 44 -20 61.5t-68 17.5q-35 0 -54.5 -11.5z" />
    <glyph glyph-name="uni1EBD" unicode="&#x1ebd;" horiz-adv-x="537" 
d="M140 19q-52 24 -75.5 83t-23.5 166q0 110 22 169.5t72.5 83.5t142.5 24q82 0 129 -16t68.5 -56t21.5 -113q0 -78 -44.5 -111t-129.5 -33h-135q2 -43 13 -66.5t39 -34t82 -10.5h157v-87q-53 -11 -96 -17t-100 -6q-91 0 -143 24zM308 304q31 0 44.5 12.5t13.5 42.5
q0 44 -20 61.5t-68 17.5q-35 0 -54.5 -11.5t-28.5 -40.5t-9 -82h122zM123.5 728q28.5 31 72.5 31q25 0 44 -7t43 -20q22 -11 33.5 -15.5t25.5 -4.5q20 0 31 13.5t12 38.5h74q-3 -66 -29.5 -100t-73.5 -34q-24 0 -44 7t-46 20q-18 10 -31 15t-26 5q-19 0 -30.5 -13t-13.5 -35
h-74q4 68 32.5 99z" />
    <glyph glyph-name="uni0259" unicode="&#x259;" horiz-adv-x="537" 
d="M397 520q52 -24 75.5 -83t23.5 -166q0 -110 -22 -169.5t-72.5 -83.5t-142.5 -24q-82 0 -129 16t-68.5 56t-21.5 113q0 78 44.5 111t129.5 33h135q-2 43 -13 66.5t-39 34t-82 10.5h-157v87q53 11 96 17t100 6q91 0 143 -24zM229 235q-31 0 -44.5 -12.5t-13.5 -42.5
q0 -44 20 -61.5t68 -17.5q35 0 54.5 11.5t28.5 40.5t9 82h-122z" />
    <glyph glyph-name="f" unicode="f" horiz-adv-x="393" 
d="M94 418h-76v95l76 24v36q0 103 42 149.5t137 46.5q57 0 111 -15v-106h-82q-34 0 -46.5 -15.5t-12.5 -51.5v-44h136v-119h-136v-418h-149v418z" />
    <glyph glyph-name="uni1E1F" unicode="&#x1e1f;" horiz-adv-x="393" 
d="M94 418h-76v95l76 24v36q0 103 42 149.5t137 46.5q57 0 111 -15v-106h-82q-34 0 -46.5 -15.5t-12.5 -51.5v-44h136v-119h-136v-418h-149v418zM221 871.5q-6 5.5 -6 15.5v97q0 10 5.5 16t15.5 6h69q9 0 14.5 -6.5t5.5 -15.5v-97q0 -21 -20 -21h-69q-9 0 -15 5.5z" />
    <glyph glyph-name="g" unicode="g" horiz-adv-x="582" 
d="M564 456l-82 -15q18 -19 29 -44t11 -68q0 -75 -47 -119.5t-147 -44.5h-95q-61 0 -61 -37q0 -16 13.5 -23t33.5 -7h148q96 0 145 -38.5t49 -122.5v-15q0 -81 -51 -125.5t-153 -44.5h-161q-78 0 -127 34t-49 95v16q0 40 22 70t59 47q-54 32 -54 89q0 40 23.5 67.5
t65.5 37.5q-45 24 -65.5 64t-20.5 90q0 89 55 132t168 43h291v-81zM371 295q17 19 17 55q0 41 -18 58.5t-55 17.5h-56q-39 0 -57.5 -17t-18.5 -57q0 -39 17.5 -57.5t53.5 -18.5h57q43 0 60 19zM235 -13q-34 0 -54.5 -16t-20.5 -45v-11q0 -29 19.5 -44t57.5 -15h102
q38 0 60 14.5t22 43.5v16q0 27 -19.5 42t-58.5 15h-108z" />
    <glyph glyph-name="gbreve" unicode="&#x11f;" horiz-adv-x="582" 
d="M564 456l-82 -15q18 -19 29 -44t11 -68q0 -75 -47 -119.5t-147 -44.5h-95q-61 0 -61 -37q0 -16 13.5 -23t33.5 -7h148q96 0 145 -38.5t49 -122.5v-15q0 -81 -51 -125.5t-153 -44.5h-161q-78 0 -127 34t-49 95v16q0 40 22 70t59 47q-54 32 -54 89q0 40 23.5 67.5
t65.5 37.5q-45 24 -65.5 64t-20.5 90q0 89 55 132t168 43h291v-81zM371 295q17 19 17 55q0 41 -18 58.5t-55 17.5h-56q-39 0 -57.5 -17t-18.5 -57q0 -39 17.5 -57.5t53.5 -18.5h57q43 0 60 19zM235 -13q-34 0 -54.5 -16t-20.5 -45v-11q0 -29 19.5 -44t57.5 -15h102
q38 0 60 14.5t22 43.5v16q0 27 -19.5 42t-58.5 15h-108zM180.5 660.5q-36.5 37.5 -36.5 113.5h69q0 -44 20 -63.5t50 -19.5q70 0 70 83h70q0 -77 -36.5 -114t-103.5 -37q-66 0 -102.5 37.5z" />
    <glyph glyph-name="gcaron" unicode="&#x1e7;" horiz-adv-x="582" 
d="M564 456l-82 -15q18 -19 29 -44t11 -68q0 -75 -47 -119.5t-147 -44.5h-95q-61 0 -61 -37q0 -16 13.5 -23t33.5 -7h148q96 0 145 -38.5t49 -122.5v-15q0 -81 -51 -125.5t-153 -44.5h-161q-78 0 -127 34t-49 95v16q0 40 22 70t59 47q-54 32 -54 89q0 40 23.5 67.5
t65.5 37.5q-45 24 -65.5 64t-20.5 90q0 89 55 132t168 43h291v-81zM371 295q17 19 17 55q0 41 -18 58.5t-55 17.5h-56q-39 0 -57.5 -17t-18.5 -57q0 -39 17.5 -57.5t53.5 -18.5h57q43 0 60 19zM235 -13q-34 0 -54.5 -16t-20.5 -45v-11q0 -29 19.5 -44t57.5 -15h102
q38 0 60 14.5t22 43.5v16q0 27 -19.5 42t-58.5 15h-108zM138 773h86l66 -76l70 76h86l-108 -142h-101z" />
    <glyph glyph-name="gcircumflex" unicode="&#x11d;" horiz-adv-x="582" 
d="M564 456l-82 -15q18 -19 29 -44t11 -68q0 -75 -47 -119.5t-147 -44.5h-95q-61 0 -61 -37q0 -16 13.5 -23t33.5 -7h148q96 0 145 -38.5t49 -122.5v-15q0 -81 -51 -125.5t-153 -44.5h-161q-78 0 -127 34t-49 95v16q0 40 22 70t59 47q-54 32 -54 89q0 40 23.5 67.5
t65.5 37.5q-45 24 -65.5 64t-20.5 90q0 89 55 132t168 43h291v-81zM371 295q17 19 17 55q0 41 -18 58.5t-55 17.5h-56q-39 0 -57.5 -17t-18.5 -57q0 -39 17.5 -57.5t53.5 -18.5h57q43 0 60 19zM235 -13q-34 0 -54.5 -16t-20.5 -45v-11q0 -29 19.5 -44t57.5 -15h102
q38 0 60 14.5t22 43.5v16q0 27 -19.5 42t-58.5 15h-108zM242 773h102l98 -142h-86l-66 76l-70 -76h-86z" />
    <glyph glyph-name="gcommaaccent" unicode="&#x123;" horiz-adv-x="582" 
d="M564 456l-82 -15q18 -19 29 -44t11 -68q0 -75 -47 -119.5t-147 -44.5h-95q-61 0 -61 -37q0 -16 13.5 -23t33.5 -7h148q96 0 145 -38.5t49 -122.5v-15q0 -81 -51 -125.5t-153 -44.5h-161q-78 0 -127 34t-49 95v16q0 40 22 70t59 47q-54 32 -54 89q0 40 23.5 67.5
t65.5 37.5q-45 24 -65.5 64t-20.5 90q0 89 55 132t168 43h291v-81zM371 295q17 19 17 55q0 41 -18 58.5t-55 17.5h-56q-39 0 -57.5 -17t-18.5 -57q0 -39 17.5 -57.5t53.5 -18.5h57q43 0 60 19zM235 -13q-34 0 -54.5 -16t-20.5 -45v-11q0 -29 19.5 -44t57.5 -15h102
q38 0 60 14.5t22 43.5v16q0 27 -19.5 42t-58.5 15h-108zM247 731.5q25 32.5 91 32.5h52v-60l-28 -8q-21 -5 -31 -11.5t-14.5 -21t-4.5 -42.5h-90q0 78 25 110.5z" />
    <glyph glyph-name="gdotaccent" unicode="&#x121;" horiz-adv-x="582" 
d="M564 456l-82 -15q18 -19 29 -44t11 -68q0 -75 -47 -119.5t-147 -44.5h-95q-61 0 -61 -37q0 -16 13.5 -23t33.5 -7h148q96 0 145 -38.5t49 -122.5v-15q0 -81 -51 -125.5t-153 -44.5h-161q-78 0 -127 34t-49 95v16q0 40 22 70t59 47q-54 32 -54 89q0 40 23.5 67.5
t65.5 37.5q-45 24 -65.5 64t-20.5 90q0 89 55 132t168 43h291v-81zM371 295q17 19 17 55q0 41 -18 58.5t-55 17.5h-56q-39 0 -57.5 -17t-18.5 -57q0 -39 17.5 -57.5t53.5 -18.5h57q43 0 60 19zM235 -13q-34 0 -54.5 -16t-20.5 -45v-11q0 -29 19.5 -44t57.5 -15h102
q38 0 60 14.5t22 43.5v16q0 27 -19.5 42t-58.5 15h-108zM239 649.5q-6 5.5 -6 15.5v97q0 10 5.5 16t15.5 6h69q9 0 14.5 -6.5t5.5 -15.5v-97q0 -21 -20 -21h-69q-9 0 -15 5.5z" />
    <glyph glyph-name="uni1E21" unicode="&#x1e21;" horiz-adv-x="582" 
d="M564 456l-82 -15q18 -19 29 -44t11 -68q0 -75 -47 -119.5t-147 -44.5h-95q-61 0 -61 -37q0 -16 13.5 -23t33.5 -7h148q96 0 145 -38.5t49 -122.5v-15q0 -81 -51 -125.5t-153 -44.5h-161q-78 0 -127 34t-49 95v16q0 40 22 70t59 47q-54 32 -54 89q0 40 23.5 67.5
t65.5 37.5q-45 24 -65.5 64t-20.5 90q0 89 55 132t168 43h291v-81zM371 295q17 19 17 55q0 41 -18 58.5t-55 17.5h-56q-39 0 -57.5 -17t-18.5 -57q0 -39 17.5 -57.5t53.5 -18.5h57q43 0 60 19zM235 -13q-34 0 -54.5 -16t-20.5 -45v-11q0 -29 19.5 -44t57.5 -15h102
q38 0 60 14.5t22 43.5v16q0 27 -19.5 42t-58.5 15h-108zM146 735h281v-88h-281v88z" />
    <glyph glyph-name="h" unicode="h" horiz-adv-x="595" 
d="M57 762h148v-280q30 26 77.5 45t93.5 19q165 0 165 -191v-355h-148v336q0 37 -21 57t-56 20q-55 0 -111 -40v-373h-148v762z" />
    <glyph glyph-name="hbar" unicode="&#x127;" horiz-adv-x="595" 
d="M541 355v-355h-148v336q0 37 -21 57t-56 20q-55 0 -111 -40v-373h-148v615h-62v59h62v88h148v-88h114v-59h-114v-133q30 26 77.5 45t93.5 19q165 0 165 -191z" />
    <glyph glyph-name="uni1E2B" unicode="&#x1e2b;" horiz-adv-x="595" 
d="M57 762h148v-280q30 26 77.5 45t93.5 19q165 0 165 -191v-355h-148v336q0 37 -21 57t-56 20q-55 0 -111 -40v-373h-148v762zM195.5 -189.5q-36.5 37.5 -36.5 113.5h69q0 -44 20 -63.5t50 -19.5q70 0 70 83h70q0 -77 -36.5 -114t-103.5 -37q-66 0 -102.5 37.5z" />
    <glyph glyph-name="hcircumflex" unicode="&#x125;" horiz-adv-x="595" 
d="M57 762h148v-280q30 26 77.5 45t93.5 19q165 0 165 -191v-355h-148v336q0 37 -21 57t-56 20q-55 0 -111 -40v-373h-148v762zM102 965h102l98 -142h-86l-66 76l-70 -76h-86z" />
    <glyph glyph-name="uni1E25" unicode="&#x1e25;" horiz-adv-x="595" 
d="M57 762h148v-280q30 26 77.5 45t93.5 19q165 0 165 -191v-355h-148v336q0 37 -21 57t-56 20q-55 0 -111 -40v-373h-148v762zM243.5 -220.5q-5.5 5.5 -5.5 15.5v97q0 22 20 22h69q9 0 14.5 -6.5t5.5 -15.5v-97q0 -21 -20 -21h-69q-9 0 -14.5 5.5z" />
    <glyph glyph-name="i" unicode="i" horiz-adv-x="262" 
d="M59.5 621.5q-5.5 5.5 -5.5 14.5v98q0 21 21 21h114q9 0 14 -6t5 -15v-98q0 -20 -19 -20h-114q-10 0 -15.5 5.5zM57 537h148v-537h-148v537z" />
    <glyph glyph-name="dotlessi" unicode="&#x131;" horiz-adv-x="261" 
d="M57 537h148v-537h-148v537z" />
    <glyph glyph-name="iacute" unicode="&#xed;" horiz-adv-x="261" 
d="M57 537h148v-537h-148v537zM171 771h119l-115 -140h-87z" />
    <glyph glyph-name="ibreve" unicode="&#x12d;" horiz-adv-x="261" 
d="M57 537h148v-537h-148v537zM21.5 660.5q-36.5 37.5 -36.5 113.5h69q0 -44 20 -63.5t50 -19.5q70 0 70 83h70q0 -77 -36.5 -114t-103.5 -37q-66 0 -102.5 37.5z" />
    <glyph glyph-name="icircumflex" unicode="&#xee;" horiz-adv-x="261" 
d="M57 537h148v-537h-148v537zM83 773h102l98 -142h-86l-66 76l-70 -76h-86z" />
    <glyph glyph-name="uni0209" unicode="&#x209;" horiz-adv-x="261" 
d="M57 537h148v-537h-148v537zM-99 771h119l83 -140h-87zM79 771h120l82 -140h-87z" />
    <glyph glyph-name="idieresis" unicode="&#xef;" horiz-adv-x="261" 
d="M57 537h148v-537h-148v537zM-20 642.5q-6 5.5 -6 15.5v97q0 10 5.5 16t15.5 6h68q10 0 15 -6t5 -16v-97q0 -21 -20 -21h-68q-9 0 -15 5.5zM176 642.5q-6 5.5 -6 15.5v97q0 10 5.5 16t15.5 6h69q9 0 14.5 -6.5t5.5 -15.5v-97q0 -21 -20 -21h-69q-9 0 -15 5.5z" />
    <glyph glyph-name="uni1E2F" unicode="&#x1e2f;" horiz-adv-x="261" 
d="M57 537h148v-537h-148v537zM-20 642.5q-6 5.5 -6 15.5v97q0 10 5.5 16t15.5 6h68q10 0 15 -6t5 -16v-97q0 -21 -20 -21h-68q-9 0 -15 5.5zM176 642.5q-6 5.5 -6 15.5v97q0 10 5.5 16t15.5 6h69q9 0 14.5 -6.5t5.5 -15.5v-97q0 -21 -20 -21h-69q-9 0 -15 5.5zM163 958h119
l-115 -140h-87z" />
    <glyph glyph-name="i.loclTRK" horiz-adv-x="261" 
d="M57 537h148v-537h-148v537zM80 649.5q-6 5.5 -6 15.5v97q0 10 5.5 16t15.5 6h69q9 0 14.5 -6.5t5.5 -15.5v-97q0 -21 -20 -21h-69q-9 0 -15 5.5z" />
    <glyph glyph-name="uni1ECB" unicode="&#x1ecb;" horiz-adv-x="262" 
d="M59.5 621.5q-5.5 5.5 -5.5 14.5v98q0 21 21 21h114q9 0 14 -6t5 -15v-98q0 -20 -19 -20h-114q-10 0 -15.5 5.5zM57 537h148v-537h-148v537zM77.5 -220.5q-5.5 5.5 -5.5 15.5v97q0 22 20 22h69q9 0 14.5 -6.5t5.5 -15.5v-97q0 -21 -20 -21h-69q-9 0 -14.5 5.5z" />
    <glyph glyph-name="igrave" unicode="&#xec;" horiz-adv-x="261" 
d="M57 537h148v-537h-148v537zM-5 771h120l82 -140h-87z" />
    <glyph glyph-name="uni1EC9" unicode="&#x1ec9;" horiz-adv-x="261" 
d="M57 537h148v-537h-148v537zM103 659q40 11 40 40q0 28 -33 28q-11 0 -33 -6v58q24 8 52 8q46 0 69 -21.5t23 -61.5t-28.5 -66.5t-89.5 -43.5v65z" />
    <glyph glyph-name="uni020B" unicode="&#x20b;" horiz-adv-x="261" 
d="M57 537h148v-537h-148v537zM235.5 739.5q36.5 -37.5 36.5 -113.5h-69q0 44 -20 63.5t-50 19.5q-70 0 -70 -83h-70q0 77 36.5 114t103.5 37q66 0 102.5 -37.5z" />
    <glyph glyph-name="imacron" unicode="&#x12b;" horiz-adv-x="261" 
d="M57 537h148v-537h-148v537zM-13 735h281v-88h-281v88z" />
    <glyph glyph-name="iogonek" unicode="&#x12f;" horiz-adv-x="262" 
d="M59.5 621.5q-5.5 5.5 -5.5 14.5v98q0 21 21 21h114q9 0 14 -6t5 -15v-98q0 -20 -19 -20h-114q-10 0 -15.5 5.5zM57 537h148v-537h-148v537zM110.5 -165.5q-26.5 26.5 -26.5 63.5q0 67 67 102h54q-26 -16 -37.5 -32t-11.5 -36q0 -24 16 -37.5t42 -13.5h9v-69q-9 -4 -32 -4
q-54 0 -80.5 26.5z" />
    <glyph glyph-name="itilde" unicode="&#x129;" horiz-adv-x="261" 
d="M57 537h148v-537h-148v537zM-15.5 728q28.5 31 72.5 31q25 0 44 -7t43 -20q22 -11 33.5 -15.5t25.5 -4.5q20 0 31 13.5t12 38.5h74q-3 -66 -29.5 -100t-73.5 -34q-24 0 -44 7t-46 20q-18 10 -31 15t-26 5q-19 0 -30.5 -13t-13.5 -35h-74q4 68 32.5 99z" />
    <glyph glyph-name="j" unicode="j" horiz-adv-x="262" 
d="M59 621.5q-6 5.5 -6 14.5v98q0 21 21 21h114q9 0 14 -6t5 -15v-98q0 -20 -19 -20h-114q-9 0 -15 5.5zM57 537h148v-533q0 -63 -10 -129t-26 -112h-112v774z" />
    <glyph glyph-name="uni0237" unicode="&#x237;" horiz-adv-x="262" 
d="M57 537h148v-533q0 -63 -10 -129t-26 -112h-112v774z" />
    <glyph glyph-name="jcircumflex" unicode="&#x135;" horiz-adv-x="262" 
d="M57 537h148v-533q0 -63 -10 -129t-26 -112h-112v774zM83 773h102l98 -142h-86l-66 76l-70 -76h-86z" />
    <glyph glyph-name="k" unicode="k" horiz-adv-x="554" 
d="M57 763h148v-412h63l118 186h150l-158 -253l174 -284h-150l-136 218h-61v-218h-148v763z" />
    <glyph glyph-name="kcommaaccent" unicode="&#x137;" horiz-adv-x="554" 
d="M57 763h148v-412h63l118 186h150l-158 -253l174 -284h-150l-136 218h-61v-218h-148v763zM190 -155l27 7q21 5 31.5 11.5t15 21t4.5 42.5h90q0 -78 -25 -110.5t-91 -32.5h-52v61z" />
    <glyph glyph-name="kgreenlandic" unicode="&#x138;" horiz-adv-x="554" 
d="M57 540h148v-200h58l118 197h155l-158 -263l174 -274h-151l-134 207h-62v-207h-148v540z" />
    <glyph glyph-name="l" unicode="l" horiz-adv-x="313" 
d="M98.5 40.5q-41.5 42.5 -41.5 132.5v590h148v-568q0 -43 13 -61.5t43 -22.5l41 -6v-107h-77q-85 0 -126.5 42.5z" />
    <glyph glyph-name="lacute" unicode="&#x13a;" horiz-adv-x="313" 
d="M98.5 40.5q-41.5 42.5 -41.5 132.5v590h148v-568q0 -43 13 -61.5t43 -22.5l41 -6v-107h-77q-85 0 -126.5 42.5zM171 984h119l-115 -140h-87z" />
    <glyph glyph-name="lcaron" unicode="&#x13e;" horiz-adv-x="313" 
d="M98.5 40.5q-41.5 42.5 -41.5 132.5v590h148v-568q0 -43 13 -61.5t43 -22.5l41 -6v-107h-77q-85 0 -126.5 42.5zM256 719v64h134v-64l-8 -137h-117z" />
    <glyph glyph-name="lcommaaccent" unicode="&#x13c;" horiz-adv-x="313" 
d="M98.5 40.5q-41.5 42.5 -41.5 132.5v590h148v-568q0 -43 13 -61.5t43 -22.5l41 -6v-107h-77q-85 0 -126.5 42.5zM99 -155l27 7q21 5 31.5 11.5t15 21t4.5 42.5h90q0 -78 -25 -110.5t-91 -32.5h-52v61z" />
    <glyph glyph-name="ldot" unicode="&#x140;" horiz-adv-x="376" 
d="M98.5 40.5q-41.5 42.5 -41.5 132.5v590h148v-568q0 -43 13 -61.5t43 -22.5l41 -6v-107h-77q-85 0 -126.5 42.5zM264 312.5q-6 5.5 -6 14.5v88q0 22 21 22h85q22 0 22 -22v-88q0 -20 -22 -20h-85q-9 0 -15 5.5z" />
    <glyph glyph-name="uni1E37" unicode="&#x1e37;" horiz-adv-x="313" 
d="M98.5 40.5q-41.5 42.5 -41.5 132.5v590h148v-568q0 -43 13 -61.5t43 -22.5l41 -6v-107h-77q-85 0 -126.5 42.5zM131.5 -220.5q-5.5 5.5 -5.5 15.5v97q0 22 20 22h69q9 0 14.5 -6.5t5.5 -15.5v-97q0 -21 -20 -21h-69q-9 0 -14.5 5.5z" />
    <glyph glyph-name="uni1E3B" unicode="&#x1e3b;" horiz-adv-x="313" 
d="M98.5 40.5q-41.5 42.5 -41.5 132.5v590h148v-568q0 -43 13 -61.5t43 -22.5l41 -6v-107h-77q-85 0 -126.5 42.5zM46 -125h281v-88h-281v88z" />
    <glyph glyph-name="lslash" unicode="&#x142;" horiz-adv-x="313" 
d="M302 105v-107h-77q-85 0 -126.5 42.5t-41.5 132.5v189l-60 -24v80l60 24v321h148v-273l88 35v-80l-88 -34v-216q0 -43 13 -61.5t43 -22.5z" />
    <glyph glyph-name="m" unicode="m" horiz-adv-x="931" 
d="M57 537h122l26 -55q41 31 82 47.5t97 16.5q49 0 83 -20.5t52 -55.5q41 31 91 53.5t97 22.5q92 0 131 -51t39 -147v-348h-148v335q0 38 -20.5 58t-56.5 20q-29 0 -59.5 -12t-55.5 -30q4 -26 4 -39v-332h-148v335q0 38 -20.5 58t-56.5 20q-55 0 -111 -40v-373h-148v537z
" />
    <glyph glyph-name="uni1E41" unicode="&#x1e41;" horiz-adv-x="931" 
d="M57 537h122l26 -55q41 31 82 47.5t97 16.5q49 0 83 -20.5t52 -55.5q41 31 91 53.5t97 22.5q92 0 131 -51t39 -147v-348h-148v335q0 38 -20.5 58t-56.5 20q-29 0 -59.5 -12t-55.5 -30q4 -26 4 -39v-332h-148v335q0 38 -20.5 58t-56.5 20q-55 0 -111 -40v-373h-148v537z
M430 649.5q-6 5.5 -6 15.5v97q0 10 5.5 16t15.5 6h69q9 0 14.5 -6.5t5.5 -15.5v-97q0 -21 -20 -21h-69q-9 0 -15 5.5z" />
    <glyph glyph-name="uni1E43" unicode="&#x1e43;" horiz-adv-x="931" 
d="M57 537h122l26 -55q41 31 82 47.5t97 16.5q49 0 83 -20.5t52 -55.5q41 31 91 53.5t97 22.5q92 0 131 -51t39 -147v-348h-148v335q0 38 -20.5 58t-56.5 20q-29 0 -59.5 -12t-55.5 -30q4 -26 4 -39v-332h-148v335q0 38 -20.5 58t-56.5 20q-55 0 -111 -40v-373h-148v537z
M412.5 -220.5q-5.5 5.5 -5.5 15.5v97q0 22 20 22h69q9 0 14.5 -6.5t5.5 -15.5v-97q0 -21 -20 -21h-69q-9 0 -14.5 5.5z" />
    <glyph glyph-name="n" unicode="n" horiz-adv-x="595" 
d="M57 537h122l26 -55q33 27 79 45.5t90 18.5q91 0 129 -52t38 -140v-354h-148v335q0 38 -20.5 58t-56.5 20q-55 0 -111 -40v-373h-148v537z" />
    <glyph glyph-name="nacute" unicode="&#x144;" horiz-adv-x="595" 
d="M57 537h122l26 -55q33 27 79 45.5t90 18.5q91 0 129 -52t38 -140v-354h-148v335q0 38 -20.5 58t-56.5 20q-55 0 -111 -40v-373h-148v537zM337 771h119l-115 -140h-87z" />
    <glyph glyph-name="ncaron" unicode="&#x148;" horiz-adv-x="595" 
d="M57 537h122l26 -55q33 27 79 45.5t90 18.5q91 0 129 -52t38 -140v-354h-148v335q0 38 -20.5 58t-56.5 20q-55 0 -111 -40v-373h-148v537zM145 773h86l66 -76l70 76h86l-108 -142h-101z" />
    <glyph glyph-name="ncommaaccent" unicode="&#x146;" horiz-adv-x="595" 
d="M57 537h122l26 -55q33 27 79 45.5t90 18.5q91 0 129 -52t38 -140v-354h-148v335q0 38 -20.5 58t-56.5 20q-55 0 -111 -40v-373h-148v537zM211 -155l27 7q21 5 31.5 11.5t15 21t4.5 42.5h90q0 -78 -25 -110.5t-91 -32.5h-52v61z" />
    <glyph glyph-name="uni1E45" unicode="&#x1e45;" horiz-adv-x="595" 
d="M57 537h122l26 -55q33 27 79 45.5t90 18.5q91 0 129 -52t38 -140v-354h-148v335q0 38 -20.5 58t-56.5 20q-55 0 -111 -40v-373h-148v537zM243.5 -220.5q-5.5 5.5 -5.5 15.5v97q0 22 20 22h69q9 0 14.5 -6.5t5.5 -15.5v-97q0 -21 -20 -21h-69q-9 0 -14.5 5.5z" />
    <glyph glyph-name="uni1E47" unicode="&#x1e47;" horiz-adv-x="595" 
d="M57 537h122l26 -55q33 27 79 45.5t90 18.5q91 0 129 -52t38 -140v-354h-148v335q0 38 -20.5 58t-56.5 20q-55 0 -111 -40v-373h-148v537zM243.5 -220.5q-5.5 5.5 -5.5 15.5v97q0 22 20 22h69q9 0 14.5 -6.5t5.5 -15.5v-97q0 -21 -20 -21h-69q-9 0 -14.5 5.5z" />
    <glyph glyph-name="eng" unicode="&#x14b;" horiz-adv-x="595" 
d="M503 494q38 -52 38 -140v-382q0 -78 -31 -130t-82 -79h-118q37 33 60 81t23 125v366q0 38 -20.5 58t-56.5 20q-55 0 -111 -40v-373h-148v537h122l26 -55q33 27 79 45.5t90 18.5q91 0 129 -52z" />
    <glyph glyph-name="uni1E49" unicode="&#x1e49;" horiz-adv-x="595" 
d="M57 537h122l26 -55q33 27 79 45.5t90 18.5q91 0 129 -52t38 -140v-354h-148v335q0 38 -20.5 58t-56.5 20q-55 0 -111 -40v-373h-148v537zM158 -125h281v-88h-281v88z" />
    <glyph glyph-name="ntilde" unicode="&#xf1;" horiz-adv-x="595" 
d="M57 537h122l26 -55q33 27 79 45.5t90 18.5q91 0 129 -52t38 -140v-354h-148v335q0 38 -20.5 58t-56.5 20q-55 0 -111 -40v-373h-148v537zM151.5 728q28.5 31 72.5 31q25 0 44 -7t43 -20q22 -11 33.5 -15.5t25.5 -4.5q20 0 31 13.5t12 38.5h74q-3 -66 -29.5 -100
t-73.5 -34q-24 0 -44 7t-46 20q-18 10 -31 15t-26 5q-19 0 -30.5 -13t-13.5 -35h-74q4 68 32.5 99z" />
    <glyph glyph-name="o" unicode="o" horiz-adv-x="575" 
d="M143 20.5q-53 25.5 -77.5 85t-24.5 164.5q0 109 24.5 168.5t77.5 83t144 23.5q92 0 145 -24.5t77.5 -84t24.5 -166.5t-24 -166.5t-77 -84t-146 -24.5q-91 0 -144 25.5zM346 123.5q20 10.5 30 44t10 102.5t-10 102.5t-30 44t-59 10.5q-38 0 -58 -10.5t-30 -44t-10 -102.5
t10 -102.5t30 -44t58 -10.5q39 0 59 10.5z" />
    <glyph glyph-name="oacute" unicode="&#xf3;" horiz-adv-x="575" 
d="M143 20.5q-53 25.5 -77.5 85t-24.5 164.5q0 109 24.5 168.5t77.5 83t144 23.5q92 0 145 -24.5t77.5 -84t24.5 -166.5t-24 -166.5t-77 -84t-146 -24.5q-91 0 -144 25.5zM346 123.5q20 10.5 30 44t10 102.5t-10 102.5t-30 44t-59 10.5q-38 0 -58 -10.5t-30 -44t-10 -102.5
t10 -102.5t30 -44t58 -10.5q39 0 59 10.5zM327 771h119l-115 -140h-87z" />
    <glyph glyph-name="obreve" unicode="&#x14f;" horiz-adv-x="575" 
d="M143 20.5q-53 25.5 -77.5 85t-24.5 164.5q0 109 24.5 168.5t77.5 83t144 23.5q92 0 145 -24.5t77.5 -84t24.5 -166.5t-24 -166.5t-77 -84t-146 -24.5q-91 0 -144 25.5zM346 123.5q20 10.5 30 44t10 102.5t-10 102.5t-30 44t-59 10.5q-38 0 -58 -10.5t-30 -44t-10 -102.5
t10 -102.5t30 -44t58 -10.5q39 0 59 10.5zM177.5 660.5q-36.5 37.5 -36.5 113.5h69q0 -44 20 -63.5t50 -19.5q70 0 70 83h70q0 -77 -36.5 -114t-103.5 -37q-66 0 -102.5 37.5z" />
    <glyph glyph-name="ocircumflex" unicode="&#xf4;" horiz-adv-x="575" 
d="M143 20.5q-53 25.5 -77.5 85t-24.5 164.5q0 109 24.5 168.5t77.5 83t144 23.5q92 0 145 -24.5t77.5 -84t24.5 -166.5t-24 -166.5t-77 -84t-146 -24.5q-91 0 -144 25.5zM346 123.5q20 10.5 30 44t10 102.5t-10 102.5t-30 44t-59 10.5q-38 0 -58 -10.5t-30 -44t-10 -102.5
t10 -102.5t30 -44t58 -10.5q39 0 59 10.5zM239 773h102l98 -142h-86l-66 76l-70 -76h-86z" />
    <glyph glyph-name="uni1ED1" unicode="&#x1ed1;" horiz-adv-x="575" 
d="M143 20.5q-53 25.5 -77.5 85t-24.5 164.5q0 109 24.5 168.5t77.5 83t144 23.5q92 0 145 -24.5t77.5 -84t24.5 -166.5t-24 -166.5t-77 -84t-146 -24.5q-91 0 -144 25.5zM346 123.5q20 10.5 30 44t10 102.5t-10 102.5t-30 44t-59 10.5q-38 0 -58 -10.5t-30 -44t-10 -102.5
t10 -102.5t30 -44t58 -10.5q39 0 59 10.5zM546 841l-78 -125h-87l45 125h120zM341 740l98 -109h-86l-65 43l-70 -43h-87l109 109h101z" />
    <glyph glyph-name="uni1ED9" unicode="&#x1ed9;" horiz-adv-x="575" 
d="M143 20.5q-53 25.5 -77.5 85t-24.5 164.5q0 109 24.5 168.5t77.5 83t144 23.5q92 0 145 -24.5t77.5 -84t24.5 -166.5t-24 -166.5t-77 -84t-146 -24.5q-91 0 -144 25.5zM346 123.5q20 10.5 30 44t10 102.5t-10 102.5t-30 44t-59 10.5q-38 0 -58 -10.5t-30 -44t-10 -102.5
t10 -102.5t30 -44t58 -10.5q39 0 59 10.5zM239 773h102l98 -142h-86l-66 76l-70 -76h-86zM233.5 -220.5q-5.5 5.5 -5.5 15.5v97q0 22 20 22h69q9 0 14.5 -6.5t5.5 -15.5v-97q0 -21 -20 -21h-69q-9 0 -14.5 5.5z" />
    <glyph glyph-name="uni1ED3" unicode="&#x1ed3;" horiz-adv-x="575" 
d="M143 20.5q-53 25.5 -77.5 85t-24.5 164.5q0 109 24.5 168.5t77.5 83t144 23.5q92 0 145 -24.5t77.5 -84t24.5 -166.5t-24 -166.5t-77 -84t-146 -24.5q-91 0 -144 25.5zM346 123.5q20 10.5 30 44t10 102.5t-10 102.5t-30 44t-59 10.5q-38 0 -58 -10.5t-30 -44t-10 -102.5
t10 -102.5t30 -44t58 -10.5q39 0 59 10.5zM149 841l46 -125h-87l-79 125h120zM341 740l98 -109h-86l-65 43l-70 -43h-87l109 109h101z" />
    <glyph glyph-name="uni1ED5" unicode="&#x1ed5;" horiz-adv-x="575" 
d="M143 20.5q-53 25.5 -77.5 85t-24.5 164.5q0 109 24.5 168.5t77.5 83t144 23.5q92 0 145 -24.5t77.5 -84t24.5 -166.5t-24 -166.5t-77 -84t-146 -24.5q-91 0 -144 25.5zM346 123.5q20 10.5 30 44t10 102.5t-10 102.5t-30 44t-59 10.5q-38 0 -58 -10.5t-30 -44t-10 -102.5
t10 -102.5t30 -44t58 -10.5q39 0 59 10.5zM405 751q31 9 31 33q0 12 -5.5 17.5t-19.5 5.5q-17 0 -32 -6v51q24 8 52 8q37 0 56 -17.5t19 -48.5q0 -40 -24 -66.5t-77 -41.5v65zM240 740h101l98 -109h-86l-65 43l-70 -43h-87z" />
    <glyph glyph-name="uni1ED7" unicode="&#x1ed7;" horiz-adv-x="575" 
d="M143 20.5q-53 25.5 -77.5 85t-24.5 164.5q0 109 24.5 168.5t77.5 83t144 23.5q92 0 145 -24.5t77.5 -84t24.5 -166.5t-24 -166.5t-77 -84t-146 -24.5q-91 0 -144 25.5zM346 123.5q20 10.5 30 44t10 102.5t-10 102.5t-30 44t-59 10.5q-38 0 -58 -10.5t-30 -44t-10 -102.5
t10 -102.5t30 -44t58 -10.5q39 0 59 10.5zM278 866q4 -1 19.5 -6.5t29.5 -5.5q19 0 29 8.5t10 24.5h74q-5 -59 -25 -81.5t-61 -22.5q-23 0 -47.5 7.5t-29.5 8.5q-3 1 -20.5 6.5t-29.5 5.5q-14 0 -22 -8.5t-10 -21.5h-74q5 58 27.5 79.5t60.5 21.5q29 0 69 -16zM439 631h-86
l-65 43l-70 -43h-87l109 109h101z" />
    <glyph glyph-name="uni020D" unicode="&#x20d;" horiz-adv-x="575" 
d="M143 20.5q-53 25.5 -77.5 85t-24.5 164.5q0 109 24.5 168.5t77.5 83t144 23.5q92 0 145 -24.5t77.5 -84t24.5 -166.5t-24 -166.5t-77 -84t-146 -24.5q-91 0 -144 25.5zM346 123.5q20 10.5 30 44t10 102.5t-10 102.5t-30 44t-59 10.5q-38 0 -58 -10.5t-30 -44t-10 -102.5
t10 -102.5t30 -44t58 -10.5q39 0 59 10.5zM58 771h119l83 -140h-87zM236 771h120l82 -140h-87z" />
    <glyph glyph-name="odieresis" unicode="&#xf6;" horiz-adv-x="575" 
d="M143 20.5q-53 25.5 -77.5 85t-24.5 164.5q0 109 24.5 168.5t77.5 83t144 23.5q92 0 145 -24.5t77.5 -84t24.5 -166.5t-24 -166.5t-77 -84t-146 -24.5q-91 0 -144 25.5zM346 123.5q20 10.5 30 44t10 102.5t-10 102.5t-30 44t-59 10.5q-38 0 -58 -10.5t-30 -44t-10 -102.5
t10 -102.5t30 -44t58 -10.5q39 0 59 10.5zM136 642.5q-6 5.5 -6 15.5v97q0 10 5.5 16t15.5 6h68q10 0 15 -6t5 -16v-97q0 -21 -20 -21h-68q-9 0 -15 5.5zM332 642.5q-6 5.5 -6 15.5v97q0 10 5.5 16t15.5 6h69q9 0 14.5 -6.5t5.5 -15.5v-97q0 -21 -20 -21h-69q-9 0 -15 5.5z
" />
    <glyph glyph-name="uni022B" unicode="&#x22b;" horiz-adv-x="575" 
d="M143 20.5q-53 25.5 -77.5 85t-24.5 164.5q0 109 24.5 168.5t77.5 83t144 23.5q92 0 145 -24.5t77.5 -84t24.5 -166.5t-24 -166.5t-77 -84t-146 -24.5q-91 0 -144 25.5zM346 123.5q20 10.5 30 44t10 102.5t-10 102.5t-30 44t-59 10.5q-38 0 -58 -10.5t-30 -44t-10 -102.5
t10 -102.5t30 -44t58 -10.5q39 0 59 10.5zM136 642.5q-6 5.5 -6 15.5v97q0 10 5.5 16t15.5 6h68q10 0 15 -6t5 -16v-97q0 -21 -20 -21h-68q-9 0 -15 5.5zM332 642.5q-6 5.5 -6 15.5v97q0 10 5.5 16t15.5 6h69q9 0 14.5 -6.5t5.5 -15.5v-97q0 -21 -20 -21h-69q-9 0 -15 5.5z
M143 922h281v-88h-281v88z" />
    <glyph glyph-name="uni0231" unicode="&#x231;" horiz-adv-x="575" 
d="M143 20.5q-53 25.5 -77.5 85t-24.5 164.5q0 109 24.5 168.5t77.5 83t144 23.5q92 0 145 -24.5t77.5 -84t24.5 -166.5t-24 -166.5t-77 -84t-146 -24.5q-91 0 -144 25.5zM346 123.5q20 10.5 30 44t10 102.5t-10 102.5t-30 44t-59 10.5q-38 0 -58 -10.5t-30 -44t-10 -102.5
t10 -102.5t30 -44t58 -10.5q39 0 59 10.5zM236 649.5q-6 5.5 -6 15.5v97q0 10 5.5 16t15.5 6h69q9 0 14.5 -6.5t5.5 -15.5v-97q0 -21 -20 -21h-69q-9 0 -15 5.5zM143 919h281v-88h-281v88z" />
    <glyph glyph-name="uni1ECD" unicode="&#x1ecd;" horiz-adv-x="575" 
d="M143 20.5q-53 25.5 -77.5 85t-24.5 164.5q0 109 24.5 168.5t77.5 83t144 23.5q92 0 145 -24.5t77.5 -84t24.5 -166.5t-24 -166.5t-77 -84t-146 -24.5q-91 0 -144 25.5zM346 123.5q20 10.5 30 44t10 102.5t-10 102.5t-30 44t-59 10.5q-38 0 -58 -10.5t-30 -44t-10 -102.5
t10 -102.5t30 -44t58 -10.5q39 0 59 10.5zM233.5 -220.5q-5.5 5.5 -5.5 15.5v97q0 22 20 22h69q9 0 14.5 -6.5t5.5 -15.5v-97q0 -21 -20 -21h-69q-9 0 -14.5 5.5z" />
    <glyph glyph-name="ograve" unicode="&#xf2;" horiz-adv-x="575" 
d="M143 20.5q-53 25.5 -77.5 85t-24.5 164.5q0 109 24.5 168.5t77.5 83t144 23.5q92 0 145 -24.5t77.5 -84t24.5 -166.5t-24 -166.5t-77 -84t-146 -24.5q-91 0 -144 25.5zM346 123.5q20 10.5 30 44t10 102.5t-10 102.5t-30 44t-59 10.5q-38 0 -58 -10.5t-30 -44t-10 -102.5
t10 -102.5t30 -44t58 -10.5q39 0 59 10.5zM151 771h120l82 -140h-87z" />
    <glyph glyph-name="uni1ECF" unicode="&#x1ecf;" horiz-adv-x="575" 
d="M143 20.5q-53 25.5 -77.5 85t-24.5 164.5q0 109 24.5 168.5t77.5 83t144 23.5q92 0 145 -24.5t77.5 -84t24.5 -166.5t-24 -166.5t-77 -84t-146 -24.5q-91 0 -144 25.5zM346 123.5q20 10.5 30 44t10 102.5t-10 102.5t-30 44t-59 10.5q-38 0 -58 -10.5t-30 -44t-10 -102.5
t10 -102.5t30 -44t58 -10.5q39 0 59 10.5zM259 659q40 11 40 40q0 28 -33 28q-11 0 -33 -6v58q24 8 52 8q46 0 69 -21.5t23 -61.5t-28.5 -66.5t-89.5 -43.5v65z" />
    <glyph glyph-name="ohorn" unicode="&#x1a1;" horiz-adv-x="575" 
d="M545 538.5q-20 -43.5 -57 -64.5q24 -31 35 -81t11 -123q0 -107 -24 -166.5t-77 -84t-146 -24.5q-91 0 -144 25.5t-77.5 85t-24.5 164.5q0 109 24.5 168.5t77.5 83t144 23.5q58 0 94 -8h10q35 0 53 25t18 85h103q0 -65 -20 -108.5zM346 123.5q20 10.5 30 44t10 102.5
t-10 102.5t-30 44t-59 10.5q-38 0 -58 -10.5t-30 -44t-10 -102.5t10 -102.5t30 -44t58 -10.5q39 0 59 10.5z" />
    <glyph glyph-name="uni1EDB" unicode="&#x1edb;" horiz-adv-x="575" 
d="M545 538.5q-20 -43.5 -57 -64.5q24 -31 35 -81t11 -123q0 -107 -24 -166.5t-77 -84t-146 -24.5q-91 0 -144 25.5t-77.5 85t-24.5 164.5q0 109 24.5 168.5t77.5 83t144 23.5q58 0 94 -8h10q35 0 53 25t18 85h103q0 -65 -20 -108.5zM346 123.5q20 10.5 30 44t10 102.5
t-10 102.5t-30 44t-59 10.5q-38 0 -58 -10.5t-30 -44t-10 -102.5t10 -102.5t30 -44t58 -10.5q39 0 59 10.5zM314 771h119l-115 -140h-87z" />
    <glyph glyph-name="uni1EE3" unicode="&#x1ee3;" horiz-adv-x="575" 
d="M545 538.5q-20 -43.5 -57 -64.5q24 -31 35 -81t11 -123q0 -107 -24 -166.5t-77 -84t-146 -24.5q-91 0 -144 25.5t-77.5 85t-24.5 164.5q0 109 24.5 168.5t77.5 83t144 23.5q58 0 94 -8h10q35 0 53 25t18 85h103q0 -65 -20 -108.5zM346 123.5q20 10.5 30 44t10 102.5
t-10 102.5t-30 44t-59 10.5q-38 0 -58 -10.5t-30 -44t-10 -102.5t10 -102.5t30 -44t58 -10.5q39 0 59 10.5zM240.5 -220.5q-5.5 5.5 -5.5 15.5v97q0 22 20 22h69q9 0 14.5 -6.5t5.5 -15.5v-97q0 -21 -20 -21h-69q-9 0 -14.5 5.5z" />
    <glyph glyph-name="uni1EDD" unicode="&#x1edd;" horiz-adv-x="575" 
d="M545 538.5q-20 -43.5 -57 -64.5q24 -31 35 -81t11 -123q0 -107 -24 -166.5t-77 -84t-146 -24.5q-91 0 -144 25.5t-77.5 85t-24.5 164.5q0 109 24.5 168.5t77.5 83t144 23.5q58 0 94 -8h10q35 0 53 25t18 85h103q0 -65 -20 -108.5zM346 123.5q20 10.5 30 44t10 102.5
t-10 102.5t-30 44t-59 10.5q-38 0 -58 -10.5t-30 -44t-10 -102.5t10 -102.5t30 -44t58 -10.5q39 0 59 10.5zM133 771h120l82 -140h-87z" />
    <glyph glyph-name="uni1EDF" unicode="&#x1edf;" horiz-adv-x="575" 
d="M545 538.5q-20 -43.5 -57 -64.5q24 -31 35 -81t11 -123q0 -107 -24 -166.5t-77 -84t-146 -24.5q-91 0 -144 25.5t-77.5 85t-24.5 164.5q0 109 24.5 168.5t77.5 83t144 23.5q58 0 94 -8h10q35 0 53 25t18 85h103q0 -65 -20 -108.5zM346 123.5q20 10.5 30 44t10 102.5
t-10 102.5t-30 44t-59 10.5q-38 0 -58 -10.5t-30 -44t-10 -102.5t10 -102.5t30 -44t58 -10.5q39 0 59 10.5zM262 659q40 11 40 40q0 28 -33 28q-11 0 -33 -6v58q24 8 52 8q46 0 69 -21.5t23 -61.5t-28.5 -66.5t-89.5 -43.5v65z" />
    <glyph glyph-name="uni1EE1" unicode="&#x1ee1;" horiz-adv-x="575" 
d="M545 538.5q-20 -43.5 -57 -64.5q24 -31 35 -81t11 -123q0 -107 -24 -166.5t-77 -84t-146 -24.5q-91 0 -144 25.5t-77.5 85t-24.5 164.5q0 109 24.5 168.5t77.5 83t144 23.5q58 0 94 -8h10q35 0 53 25t18 85h103q0 -65 -20 -108.5zM346 123.5q20 10.5 30 44t10 102.5
t-10 102.5t-30 44t-59 10.5q-38 0 -58 -10.5t-30 -44t-10 -102.5t10 -102.5t30 -44t58 -10.5q39 0 59 10.5zM118.5 728q28.5 31 72.5 31q25 0 44 -7t43 -20q22 -11 33.5 -15.5t25.5 -4.5q20 0 31 13.5t12 38.5h74q-3 -66 -29.5 -100t-73.5 -34q-24 0 -44 7t-46 20
q-18 10 -31 15t-26 5q-19 0 -30.5 -13t-13.5 -35h-74q4 68 32.5 99z" />
    <glyph glyph-name="ohungarumlaut" unicode="&#x151;" horiz-adv-x="575" 
d="M143 20.5q-53 25.5 -77.5 85t-24.5 164.5q0 109 24.5 168.5t77.5 83t144 23.5q92 0 145 -24.5t77.5 -84t24.5 -166.5t-24 -166.5t-77 -84t-146 -24.5q-91 0 -144 25.5zM346 123.5q20 10.5 30 44t10 102.5t-10 102.5t-30 44t-59 10.5q-38 0 -58 -10.5t-30 -44t-10 -102.5
t10 -102.5t30 -44t58 -10.5q39 0 59 10.5zM224 771h113l-101 -140h-87zM388 771h112l-100 -140h-87z" />
    <glyph glyph-name="uni020F" unicode="&#x20f;" horiz-adv-x="575" 
d="M143 20.5q-53 25.5 -77.5 85t-24.5 164.5q0 109 24.5 168.5t77.5 83t144 23.5q92 0 145 -24.5t77.5 -84t24.5 -166.5t-24 -166.5t-77 -84t-146 -24.5q-91 0 -144 25.5zM346 123.5q20 10.5 30 44t10 102.5t-10 102.5t-30 44t-59 10.5q-38 0 -58 -10.5t-30 -44t-10 -102.5
t10 -102.5t30 -44t58 -10.5q39 0 59 10.5zM391.5 739.5q36.5 -37.5 36.5 -113.5h-69q0 44 -20 63.5t-50 19.5q-70 0 -70 -83h-70q0 77 36.5 114t103.5 37q66 0 102.5 -37.5z" />
    <glyph glyph-name="omacron" unicode="&#x14d;" horiz-adv-x="575" 
d="M143 20.5q-53 25.5 -77.5 85t-24.5 164.5q0 109 24.5 168.5t77.5 83t144 23.5q92 0 145 -24.5t77.5 -84t24.5 -166.5t-24 -166.5t-77 -84t-146 -24.5q-91 0 -144 25.5zM346 123.5q20 10.5 30 44t10 102.5t-10 102.5t-30 44t-59 10.5q-38 0 -58 -10.5t-30 -44t-10 -102.5
t10 -102.5t30 -44t58 -10.5q39 0 59 10.5zM143 735h281v-88h-281v88z" />
    <glyph glyph-name="uni1E53" unicode="&#x1e53;" horiz-adv-x="575" 
d="M143 20.5q-53 25.5 -77.5 85t-24.5 164.5q0 109 24.5 168.5t77.5 83t144 23.5q92 0 145 -24.5t77.5 -84t24.5 -166.5t-24 -166.5t-77 -84t-146 -24.5q-91 0 -144 25.5zM346 123.5q20 10.5 30 44t10 102.5t-10 102.5t-30 44t-59 10.5q-38 0 -58 -10.5t-30 -44t-10 -102.5
t10 -102.5t30 -44t58 -10.5q39 0 59 10.5zM143 735h281v-88h-281v88zM320 906h119l-115 -140h-87z" />
    <glyph glyph-name="uni1E51" unicode="&#x1e51;" horiz-adv-x="575" 
d="M143 20.5q-53 25.5 -77.5 85t-24.5 164.5q0 109 24.5 168.5t77.5 83t144 23.5q92 0 145 -24.5t77.5 -84t24.5 -166.5t-24 -166.5t-77 -84t-146 -24.5q-91 0 -144 25.5zM346 123.5q20 10.5 30 44t10 102.5t-10 102.5t-30 44t-59 10.5q-38 0 -58 -10.5t-30 -44t-10 -102.5
t10 -102.5t30 -44t58 -10.5q39 0 59 10.5zM143 735h281v-88h-281v88zM137 906h120l82 -140h-87z" />
    <glyph glyph-name="uni01EB" unicode="&#x1eb;" horiz-adv-x="575" 
d="M302 -68q0 -24 16 -37.5t42 -13.5h9v-69q-9 -4 -32 -4q-54 0 -80.5 26.5t-26.5 63.5q0 63 58 97h-1q-91 0 -144 25.5t-77.5 85t-24.5 164.5q0 109 24.5 168.5t77.5 83t144 23.5q92 0 145 -24.5t77.5 -84t24.5 -166.5q0 -94 -18.5 -151t-58.5 -85.5t-109 -35.5
q-46 -28 -46 -66zM199 167.5q10 -33.5 30 -44t58 -10.5q39 0 59 10.5t30 44t10 102.5t-10 102.5t-30 44t-59 10.5q-38 0 -58 -10.5t-30 -44t-10 -102.5t10 -102.5z" />
    <glyph glyph-name="oslash" unicode="&#xf8;" horiz-adv-x="575" 
d="M491 470q22 -31 32.5 -80t10.5 -120q0 -107 -24 -166.5t-77 -84t-146 -24.5q-109 0 -163 37l-27 -32h-69l58 69q-45 62 -45 201q0 109 24.5 168.5t77.5 83t144 23.5q56 0 97 -8.5t70 -28.5l24 29h69zM193 197l170 203q-11 16 -28.5 21.5t-47.5 5.5q-38 0 -58 -10.5
t-30 -44t-10 -102.5q0 -48 4 -73zM382 341l-169 -203q11 -15 28.5 -20t45.5 -5q39 0 59 10.5t30 44t10 102.5q0 44 -4 71z" />
    <glyph glyph-name="oslashacute" unicode="&#x1ff;" horiz-adv-x="575" 
d="M491 470q22 -31 32.5 -80t10.5 -120q0 -107 -24 -166.5t-77 -84t-146 -24.5q-109 0 -163 37l-27 -32h-69l58 69q-45 62 -45 201q0 109 24.5 168.5t77.5 83t144 23.5q56 0 97 -8.5t70 -28.5l24 29h69zM193 197l170 203q-11 16 -28.5 21.5t-47.5 5.5q-38 0 -58 -10.5
t-30 -44t-10 -102.5q0 -48 4 -73zM382 341l-169 -203q11 -15 28.5 -20t45.5 -5q39 0 59 10.5t30 44t10 102.5q0 44 -4 71zM327 771h119l-115 -140h-87z" />
    <glyph glyph-name="otilde" unicode="&#xf5;" horiz-adv-x="575" 
d="M143 20.5q-53 25.5 -77.5 85t-24.5 164.5q0 109 24.5 168.5t77.5 83t144 23.5q92 0 145 -24.5t77.5 -84t24.5 -166.5t-24 -166.5t-77 -84t-146 -24.5q-91 0 -144 25.5zM346 123.5q20 10.5 30 44t10 102.5t-10 102.5t-30 44t-59 10.5q-38 0 -58 -10.5t-30 -44t-10 -102.5
t10 -102.5t30 -44t58 -10.5q39 0 59 10.5zM141.5 728q28.5 31 72.5 31q25 0 44 -7t43 -20q22 -11 33.5 -15.5t25.5 -4.5q20 0 31 13.5t12 38.5h74q-3 -66 -29.5 -100t-73.5 -34q-24 0 -44 7t-46 20q-18 10 -31 15t-26 5q-19 0 -30.5 -13t-13.5 -35h-74q4 68 32.5 99z" />
    <glyph glyph-name="uni1E4D" unicode="&#x1e4d;" horiz-adv-x="575" 
d="M143 20.5q-53 25.5 -77.5 85t-24.5 164.5q0 109 24.5 168.5t77.5 83t144 23.5q92 0 145 -24.5t77.5 -84t24.5 -166.5t-24 -166.5t-77 -84t-146 -24.5q-91 0 -144 25.5zM346 123.5q20 10.5 30 44t10 102.5t-10 102.5t-30 44t-59 10.5q-38 0 -58 -10.5t-30 -44t-10 -102.5
t10 -102.5t30 -44t58 -10.5q39 0 59 10.5zM141.5 728q28.5 31 72.5 31q25 0 44 -7t43 -20q22 -11 33.5 -15.5t25.5 -4.5q20 0 31 13.5t12 38.5h74q-3 -66 -29.5 -100t-73.5 -34q-24 0 -44 7t-46 20q-18 10 -31 15t-26 5q-19 0 -30.5 -13t-13.5 -35h-74q4 68 32.5 99z
M320 928h119l-115 -140h-87z" />
    <glyph glyph-name="uni1E4F" unicode="&#x1e4f;" horiz-adv-x="575" 
d="M143 20.5q-53 25.5 -77.5 85t-24.5 164.5q0 109 24.5 168.5t77.5 83t144 23.5q92 0 145 -24.5t77.5 -84t24.5 -166.5t-24 -166.5t-77 -84t-146 -24.5q-91 0 -144 25.5zM346 123.5q20 10.5 30 44t10 102.5t-10 102.5t-30 44t-59 10.5q-38 0 -58 -10.5t-30 -44t-10 -102.5
t10 -102.5t30 -44t58 -10.5q39 0 59 10.5zM141.5 728q28.5 31 72.5 31q25 0 44 -7t43 -20q22 -11 33.5 -15.5t25.5 -4.5q20 0 31 13.5t12 38.5h74q-3 -66 -29.5 -100t-73.5 -34q-24 0 -44 7t-46 20q-18 10 -31 15t-26 5q-19 0 -30.5 -13t-13.5 -35h-74q4 68 32.5 99z
M146 807.5q-6 5.5 -6 15.5v97q0 10 5.5 16t15.5 6h68q10 0 15 -6t5 -16v-97q0 -21 -20 -21h-68q-9 0 -15 5.5zM342 807.5q-6 5.5 -6 15.5v97q0 10 5.5 16t15.5 6h69q9 0 14.5 -6.5t5.5 -15.5v-97q0 -21 -20 -21h-69q-9 0 -15 5.5z" />
    <glyph glyph-name="uni022D" unicode="&#x22d;" horiz-adv-x="575" 
d="M143 20.5q-53 25.5 -77.5 85t-24.5 164.5q0 109 24.5 168.5t77.5 83t144 23.5q92 0 145 -24.5t77.5 -84t24.5 -166.5t-24 -166.5t-77 -84t-146 -24.5q-91 0 -144 25.5zM346 123.5q20 10.5 30 44t10 102.5t-10 102.5t-30 44t-59 10.5q-38 0 -58 -10.5t-30 -44t-10 -102.5
t10 -102.5t30 -44t58 -10.5q39 0 59 10.5zM143 922h281v-88h-281v88zM124.5 728q28.5 31 72.5 31q25 0 44 -7t43 -20q22 -11 33.5 -15.5t25.5 -4.5q20 0 31 13.5t12 38.5h74q-3 -66 -29.5 -100t-73.5 -34q-24 0 -44 7t-46 20q-18 10 -31 15t-26 5q-19 0 -30.5 -13t-13.5 -35
h-74q4 68 32.5 99z" />
    <glyph glyph-name="oe" unicode="&#x153;" horiz-adv-x="876" 
d="M557 130q29 -25 97 -25h164v-87q-105 -23 -208 -23q-101 0 -151 57q-26 -31 -67.5 -44t-105.5 -13q-91 0 -143.5 25.5t-77 85.5t-24.5 164q0 109 25 168.5t77.5 83t143.5 23.5q61 0 103 -13t68 -43q49 56 156 56q83 0 130.5 -16.5t69.5 -59.5t22 -124q0 -64 -44 -96.5
t-114 -32.5h-152q2 -61 31 -86zM545 408q-20 -30 -20 -104h124q29 0 42.5 13t13.5 44q0 43 -21 60t-69 17q-50 0 -70 -30zM346 117q20 11 30 45.5t10 107.5t-10 107.5t-30 45.5t-59 11q-38 0 -58 -11t-30 -45.5t-10 -107.5t10 -107.5t30 -45.5t58 -11q39 0 59 11z" />
    <glyph glyph-name="p" unicode="p" horiz-adv-x="585" 
d="M57 537h124l24 -51q75 59 149 59q97 0 143.5 -72t46.5 -205q0 -138 -42.5 -206.5t-147.5 -68.5q-38 0 -77.5 9t-71.5 26v-265h-148v774zM371.5 148.5q24.5 33.5 24.5 119.5t-24 122t-66 36q-50 0 -101 -30v-255q19 -12 46.5 -19t54.5 -7q41 0 65.5 33.5z" />
    <glyph glyph-name="uni1E57" unicode="&#x1e57;" horiz-adv-x="585" 
d="M57 537h124l24 -51q75 59 149 59q97 0 143.5 -72t46.5 -205q0 -138 -42.5 -206.5t-147.5 -68.5q-38 0 -77.5 9t-71.5 26v-265h-148v774zM371.5 148.5q24.5 33.5 24.5 119.5t-24 122t-66 36q-50 0 -101 -30v-255q19 -12 46.5 -19t54.5 -7q41 0 65.5 33.5zM231 649.5
q-6 5.5 -6 15.5v97q0 10 5.5 16t15.5 6h69q9 0 14.5 -6.5t5.5 -15.5v-97q0 -21 -20 -21h-69q-9 0 -15 5.5z" />
    <glyph glyph-name="thorn" unicode="&#xfe;" horiz-adv-x="585" 
d="M57 763h148v-277q75 59 149 59q93 0 141.5 -73t48.5 -204q0 -135 -45 -205t-145 -70q-38 0 -77.5 9t-71.5 26v-265h-148v1000zM396 261q0 89 -24 127t-66 38q-50 0 -101 -30v-255q19 -12 46.5 -19t54.5 -7q90 0 90 146z" />
    <glyph glyph-name="q" unicode="q" horiz-adv-x="583" 
d="M380 51q-30 -25 -69 -41t-74 -16q-73 0 -116 29t-61.5 88.5t-18.5 156.5q0 102 22 163t66.5 87.5t116.5 26.5q67 0 145 -6.5t138 -14.5v-761h-149v288zM331.5 122q28.5 9 48.5 21v291h-89q-56 0 -79 -38t-23 -123q0 -64 9 -98.5t28.5 -48t53.5 -13.5q23 0 51.5 9z" />
    <glyph glyph-name="r" unicode="r" horiz-adv-x="423" 
d="M57 537h114l34 -82q32 42 68.5 65.5t83.5 23.5q26 0 44 -5v-152q-52 5 -63 5q-43 0 -74 -14t-59 -44v-334h-148v537z" />
    <glyph glyph-name="racute" unicode="&#x155;" horiz-adv-x="423" 
d="M57 537h114l34 -82q32 42 68.5 65.5t83.5 23.5q26 0 44 -5v-152q-52 5 -63 5q-43 0 -74 -14t-59 -44v-334h-148v537zM262 771h119l-115 -140h-87z" />
    <glyph glyph-name="rcaron" unicode="&#x159;" horiz-adv-x="423" 
d="M57 537h114l34 -82q32 42 68.5 65.5t83.5 23.5q26 0 44 -5v-152q-52 5 -63 5q-43 0 -74 -14t-59 -44v-334h-148v537zM70 773h86l66 -76l70 76h86l-108 -142h-101z" />
    <glyph glyph-name="rcommaaccent" unicode="&#x157;" horiz-adv-x="423" 
d="M57 537h114l34 -82q32 42 68.5 65.5t83.5 23.5q26 0 44 -5v-152q-52 5 -63 5q-43 0 -74 -14t-59 -44v-334h-148v537zM44 -155l27 7q21 5 31.5 11.5t15 21t4.5 42.5h90q0 -78 -25 -110.5t-91 -32.5h-52v61z" />
    <glyph glyph-name="uni0211" unicode="&#x211;" horiz-adv-x="423" 
d="M57 537h114l34 -82q32 42 68.5 65.5t83.5 23.5q26 0 44 -5v-152q-52 5 -63 5q-43 0 -74 -14t-59 -44v-334h-148v537zM-8 771h119l83 -140h-87zM170 771h120l82 -140h-87z" />
    <glyph glyph-name="uni1E5B" unicode="&#x1e5b;" horiz-adv-x="423" 
d="M57 537h114l34 -82q32 42 68.5 65.5t83.5 23.5q26 0 44 -5v-152q-52 5 -63 5q-43 0 -74 -14t-59 -44v-334h-148v537zM77.5 -220.5q-5.5 5.5 -5.5 15.5v97q0 22 20 22h69q9 0 14.5 -6.5t5.5 -15.5v-97q0 -21 -20 -21h-69q-9 0 -14.5 5.5z" />
    <glyph glyph-name="uni0213" unicode="&#x213;" horiz-adv-x="423" 
d="M57 537h114l34 -82q32 42 68.5 65.5t83.5 23.5q26 0 44 -5v-152q-52 5 -63 5q-43 0 -74 -14t-59 -44v-334h-148v537zM326.5 739.5q36.5 -37.5 36.5 -113.5h-69q0 44 -20 63.5t-50 19.5q-70 0 -70 -83h-70q0 77 36.5 114t103.5 37q66 0 102.5 -37.5z" />
    <glyph glyph-name="uni1E5F" unicode="&#x1e5f;" horiz-adv-x="423" 
d="M57 537h114l34 -82q32 42 68.5 65.5t83.5 23.5q26 0 44 -5v-152q-52 5 -63 5q-43 0 -74 -14t-59 -44v-334h-148v537zM-8 -125h281v-88h-281v88z" />
    <glyph glyph-name="s" unicode="s" horiz-adv-x="505" 
d="M136.5 0.5q-60.5 6.5 -92.5 17.5v87h238q33 0 47 9t14 35v17q0 21 -13.5 31.5t-47.5 10.5h-84q-75 0 -119 34.5t-44 111.5v31q0 80 48.5 118.5t167.5 38.5q49 0 107 -7.5t88 -17.5v-87h-225q-31 0 -45 -10t-14 -35v-16q0 -25 15 -33.5t50 -8.5h86q80 0 118.5 -36.5
t38.5 -104.5v-48q0 -79 -54 -111.5t-164 -32.5q-55 0 -115.5 6.5z" />
    <glyph glyph-name="sacute" unicode="&#x15b;" horiz-adv-x="505" 
d="M136.5 0.5q-60.5 6.5 -92.5 17.5v87h238q33 0 47 9t14 35v17q0 21 -13.5 31.5t-47.5 10.5h-84q-75 0 -119 34.5t-44 111.5v31q0 80 48.5 118.5t167.5 38.5q49 0 107 -7.5t88 -17.5v-87h-225q-31 0 -45 -10t-14 -35v-16q0 -25 15 -33.5t50 -8.5h86q80 0 118.5 -36.5
t38.5 -104.5v-48q0 -79 -54 -111.5t-164 -32.5q-55 0 -115.5 6.5zM286 771h119l-115 -140h-87z" />
    <glyph glyph-name="uni1E65" unicode="&#x1e65;" horiz-adv-x="505" 
d="M136.5 0.5q-60.5 6.5 -92.5 17.5v87h238q33 0 47 9t14 35v17q0 21 -13.5 31.5t-47.5 10.5h-84q-75 0 -119 34.5t-44 111.5v31q0 80 48.5 118.5t167.5 38.5q49 0 107 -7.5t88 -17.5v-87h-225q-31 0 -45 -10t-14 -35v-16q0 -25 15 -33.5t50 -8.5h86q80 0 118.5 -36.5
t38.5 -104.5v-48q0 -79 -54 -111.5t-164 -32.5q-55 0 -115.5 6.5zM253 771h119l-115 -140h-87zM220 806.5q-6 5.5 -6 15.5v97q0 10 5.5 16t15.5 6h69q9 0 14.5 -6.5t5.5 -15.5v-97q0 -21 -20 -21h-69q-9 0 -15 5.5z" />
    <glyph glyph-name="scaron" unicode="&#x161;" horiz-adv-x="505" 
d="M136.5 0.5q-60.5 6.5 -92.5 17.5v87h238q33 0 47 9t14 35v17q0 21 -13.5 31.5t-47.5 10.5h-84q-75 0 -119 34.5t-44 111.5v31q0 80 48.5 118.5t167.5 38.5q49 0 107 -7.5t88 -17.5v-87h-225q-31 0 -45 -10t-14 -35v-16q0 -25 15 -33.5t50 -8.5h86q80 0 118.5 -36.5
t38.5 -104.5v-48q0 -79 -54 -111.5t-164 -32.5q-55 0 -115.5 6.5zM94 773h86l66 -76l70 76h86l-108 -142h-101z" />
    <glyph glyph-name="uni1E67" unicode="&#x1e67;" horiz-adv-x="505" 
d="M136.5 0.5q-60.5 6.5 -92.5 17.5v87h238q33 0 47 9t14 35v17q0 21 -13.5 31.5t-47.5 10.5h-84q-75 0 -119 34.5t-44 111.5v31q0 80 48.5 118.5t167.5 38.5q49 0 107 -7.5t88 -17.5v-87h-225q-31 0 -45 -10t-14 -35v-16q0 -25 15 -33.5t50 -8.5h86q80 0 118.5 -36.5
t38.5 -104.5v-48q0 -79 -54 -111.5t-164 -32.5q-55 0 -115.5 6.5zM94 773h86l66 -76l70 76h86l-108 -142h-101zM195 813.5q-6 5.5 -6 15.5v97q0 10 5.5 16t15.5 6h69q9 0 14.5 -6.5t5.5 -15.5v-97q0 -21 -20 -21h-69q-9 0 -15 5.5z" />
    <glyph glyph-name="scedilla" unicode="&#x15f;" horiz-adv-x="505" 
d="M431.5 290.5q38.5 -36.5 38.5 -104.5v-48q0 -72 -45.5 -105t-136.5 -38l-29 -46q31 -3 49 -20t18 -47q0 -38 -27 -59t-80 -21h-48v61l18 3q41 4 41 34t-46 36l37 59q-53 2 -102 7.5t-75 15.5v87h238q33 0 47 9t14 35v17q0 21 -13.5 31.5t-47.5 10.5h-84q-75 0 -119 34.5
t-44 111.5v31q0 80 48.5 118.5t167.5 38.5q49 0 107 -7.5t88 -17.5v-87h-225q-31 0 -45 -10t-14 -35v-16q0 -25 15 -33.5t50 -8.5h86q80 0 118.5 -36.5z" />
    <glyph glyph-name="scircumflex" unicode="&#x15d;" horiz-adv-x="505" 
d="M136.5 0.5q-60.5 6.5 -92.5 17.5v87h238q33 0 47 9t14 35v17q0 21 -13.5 31.5t-47.5 10.5h-84q-75 0 -119 34.5t-44 111.5v31q0 80 48.5 118.5t167.5 38.5q49 0 107 -7.5t88 -17.5v-87h-225q-31 0 -45 -10t-14 -35v-16q0 -25 15 -33.5t50 -8.5h86q80 0 118.5 -36.5
t38.5 -104.5v-48q0 -79 -54 -111.5t-164 -32.5q-55 0 -115.5 6.5zM198 773h102l98 -142h-86l-66 76l-70 -76h-86z" />
    <glyph glyph-name="scommaaccent" unicode="&#x219;" horiz-adv-x="505" 
d="M136.5 0.5q-60.5 6.5 -92.5 17.5v87h238q33 0 47 9t14 35v17q0 21 -13.5 31.5t-47.5 10.5h-84q-75 0 -119 34.5t-44 111.5v31q0 80 48.5 118.5t167.5 38.5q49 0 107 -7.5t88 -17.5v-87h-225q-31 0 -45 -10t-14 -35v-16q0 -25 15 -33.5t50 -8.5h86q80 0 118.5 -36.5
t38.5 -104.5v-48q0 -79 -54 -111.5t-164 -32.5q-55 0 -115.5 6.5zM160 -155l27 7q21 5 31.5 11.5t15 21t4.5 42.5h90q0 -78 -25 -110.5t-91 -32.5h-52v61z" />
    <glyph glyph-name="uni1E61" unicode="&#x1e61;" horiz-adv-x="505" 
d="M136.5 0.5q-60.5 6.5 -92.5 17.5v87h238q33 0 47 9t14 35v17q0 21 -13.5 31.5t-47.5 10.5h-84q-75 0 -119 34.5t-44 111.5v31q0 80 48.5 118.5t167.5 38.5q49 0 107 -7.5t88 -17.5v-87h-225q-31 0 -45 -10t-14 -35v-16q0 -25 15 -33.5t50 -8.5h86q80 0 118.5 -36.5
t38.5 -104.5v-48q0 -79 -54 -111.5t-164 -32.5q-55 0 -115.5 6.5zM195 649.5q-6 5.5 -6 15.5v97q0 10 5.5 16t15.5 6h69q9 0 14.5 -6.5t5.5 -15.5v-97q0 -21 -20 -21h-69q-9 0 -15 5.5z" />
    <glyph glyph-name="uni1E63" unicode="&#x1e63;" horiz-adv-x="505" 
d="M136.5 0.5q-60.5 6.5 -92.5 17.5v87h238q33 0 47 9t14 35v17q0 21 -13.5 31.5t-47.5 10.5h-84q-75 0 -119 34.5t-44 111.5v31q0 80 48.5 118.5t167.5 38.5q49 0 107 -7.5t88 -17.5v-87h-225q-31 0 -45 -10t-14 -35v-16q0 -25 15 -33.5t50 -8.5h86q80 0 118.5 -36.5
t38.5 -104.5v-48q0 -79 -54 -111.5t-164 -32.5q-55 0 -115.5 6.5zM192.5 -220.5q-5.5 5.5 -5.5 15.5v97q0 22 20 22h69q9 0 14.5 -6.5t5.5 -15.5v-97q0 -21 -20 -21h-69q-9 0 -14.5 5.5z" />
    <glyph glyph-name="uni1E69" unicode="&#x1e69;" horiz-adv-x="505" 
d="M136.5 0.5q-60.5 6.5 -92.5 17.5v87h238q33 0 47 9t14 35v17q0 21 -13.5 31.5t-47.5 10.5h-84q-75 0 -119 34.5t-44 111.5v31q0 80 48.5 118.5t167.5 38.5q49 0 107 -7.5t88 -17.5v-87h-225q-31 0 -45 -10t-14 -35v-16q0 -25 15 -33.5t50 -8.5h86q80 0 118.5 -36.5
t38.5 -104.5v-48q0 -79 -54 -111.5t-164 -32.5q-55 0 -115.5 6.5zM192.5 -220.5q-5.5 5.5 -5.5 15.5v97q0 22 20 22h69q9 0 14.5 -6.5t5.5 -15.5v-97q0 -21 -20 -21h-69q-9 0 -14.5 5.5zM195 649.5q-6 5.5 -6 15.5v97q0 10 5.5 16t15.5 6h69q9 0 14.5 -6.5t5.5 -15.5v-97
q0 -21 -20 -21h-69q-9 0 -15 5.5z" />
    <glyph glyph-name="germandbls" unicode="&#xdf;" horiz-adv-x="605" 
d="M319 -2.5q-41 4.5 -65 11.5v100q62 -4 111 -4q43 0 62 13.5t19 31.5v12q0 15 -13 26t-43 28q-45 24 -70 49.5t-25 71.5q0 35 14.5 63t43.5 66q24 32 35.5 53t11.5 45q0 44 -25 63t-74 19q-55 0 -80.5 -30.5t-25.5 -95.5v-520h-148v535q0 103 63.5 166.5t191.5 63.5
q122 0 180.5 -52t58.5 -140q0 -43 -18 -75t-49 -69q-20 -22 -29 -36.5t-9 -28.5q0 -15 13 -26.5t41 -29.5q30 -18 49.5 -33.5t33.5 -40t14 -59.5v-28q0 -55 -28.5 -89.5t-70.5 -49.5t-85 -15t-84 4.5z" />
    <glyph glyph-name="t" unicode="t" horiz-adv-x="389" 
d="M160 18q-38 18 -55 60t-15 113l5 227h-84v95l89 24l20 150h117v-150h126v-119h-126v-226q0 -40 14 -56t39 -20l68 -6v-110h-97q-63 0 -101 18z" />
    <glyph glyph-name="tbar" unicode="&#x167;" horiz-adv-x="389" 
d="M237 418v-94h121v-59h-121v-73q0 -40 14 -56t39 -20l68 -6v-110h-97q-63 0 -101 18t-55 60t-15 113l2 74h-81v59h82l2 94h-84v95l89 24l20 150h117v-150h126v-119h-126z" />
    <glyph glyph-name="tcaron" unicode="&#x165;" horiz-adv-x="389" 
d="M160 18q-38 18 -55 60t-15 113l5 227h-84v95l89 24l20 150h117v-150h126v-119h-126v-226q0 -40 14 -56t39 -20l68 -6v-110h-97q-63 0 -101 18zM288 719v64h134v-64l-8 -137h-117z" />
    <glyph glyph-name="uni0163" unicode="&#x163;" horiz-adv-x="389" 
d="M237 418v-226q0 -40 14 -56t39 -20l68 -6v-110h-97h-7l-32 -51q31 -3 49 -20t18 -47q0 -38 -27 -59t-80 -21h-48v61l18 3q41 4 41 34t-46 36l45 71q-56 14 -80 57t-22 127l5 227h-84v95l89 24l20 150h117v-150h126v-119h-126z" />
    <glyph glyph-name="uni021B" unicode="&#x21b;" horiz-adv-x="389" 
d="M160 18q-38 18 -55 60t-15 113l5 227h-84v95l89 24l20 150h117v-150h126v-119h-126v-226q0 -40 14 -56t39 -20l68 -6v-110h-97q-63 0 -101 18zM113 -155l27 7q21 5 31.5 11.5t15 21t4.5 42.5h90q0 -78 -25 -110.5t-91 -32.5h-52v61z" />
    <glyph glyph-name="uni1E97" unicode="&#x1e97;" horiz-adv-x="389" 
d="M160 18q-38 18 -55 60t-15 113l5 227h-84v95l89 24l20 150h117v-150h126v-119h-126v-226q0 -40 14 -56t39 -20l68 -6v-110h-97q-63 0 -101 18zM48 737.5q-6 5.5 -6 15.5v97q0 10 5.5 16t15.5 6h68q10 0 15 -6t5 -16v-97q0 -21 -20 -21h-68q-9 0 -15 5.5zM244 737.5
q-6 5.5 -6 15.5v97q0 10 5.5 16t15.5 6h69q9 0 14.5 -6.5t5.5 -15.5v-97q0 -21 -20 -21h-69q-9 0 -15 5.5z" />
    <glyph glyph-name="uni1E6B" unicode="&#x1e6b;" horiz-adv-x="389" 
d="M160 18q-38 18 -55 60t-15 113l5 227h-84v95l89 24l20 150h117v-150h126v-119h-126v-226q0 -40 14 -56t39 -20l68 -6v-110h-97q-63 0 -101 18zM128 744.5q-6 5.5 -6 15.5v97q0 10 5.5 16t15.5 6h69q9 0 14.5 -6.5t5.5 -15.5v-97q0 -21 -20 -21h-69q-9 0 -15 5.5z" />
    <glyph glyph-name="uni1E6D" unicode="&#x1e6d;" horiz-adv-x="389" 
d="M160 18q-38 18 -55 60t-15 113l5 227h-84v95l89 24l20 150h117v-150h126v-119h-126v-226q0 -40 14 -56t39 -20l68 -6v-110h-97q-63 0 -101 18zM155.5 -220.5q-5.5 5.5 -5.5 15.5v97q0 22 20 22h69q9 0 14.5 -6.5t5.5 -15.5v-97q0 -21 -20 -21h-69q-9 0 -14.5 5.5z" />
    <glyph glyph-name="uni1E6F" unicode="&#x1e6f;" horiz-adv-x="389" 
d="M160 18q-38 18 -55 60t-15 113l5 227h-84v95l89 24l20 150h117v-150h126v-119h-126v-226q0 -40 14 -56t39 -20l68 -6v-110h-97q-63 0 -101 18zM70 -125h281v-88h-281v88z" />
    <glyph glyph-name="u" unicode="u" horiz-adv-x="595" 
d="M95.5 37q-40.5 43 -40.5 120v380h148v-336q0 -43 19.5 -59.5t58.5 -16.5q28 0 57.5 10.5t52.5 28.5v373h149v-537h-123l-26 55q-93 -61 -182 -61q-73 0 -113.5 43z" />
    <glyph glyph-name="uacute" unicode="&#xfa;" horiz-adv-x="595" 
d="M95.5 37q-40.5 43 -40.5 120v380h148v-336q0 -43 19.5 -59.5t58.5 -16.5q28 0 57.5 10.5t52.5 28.5v373h149v-537h-123l-26 55q-93 -61 -182 -61q-73 0 -113.5 43zM333 771h119l-115 -140h-87z" />
    <glyph glyph-name="ubreve" unicode="&#x16d;" horiz-adv-x="595" 
d="M95.5 37q-40.5 43 -40.5 120v380h148v-336q0 -43 19.5 -59.5t58.5 -16.5q28 0 57.5 10.5t52.5 28.5v373h149v-537h-123l-26 55q-93 -61 -182 -61q-73 0 -113.5 43zM183.5 660.5q-36.5 37.5 -36.5 113.5h69q0 -44 20 -63.5t50 -19.5q70 0 70 83h70q0 -77 -36.5 -114
t-103.5 -37q-66 0 -102.5 37.5z" />
    <glyph glyph-name="ucircumflex" unicode="&#xfb;" horiz-adv-x="595" 
d="M95.5 37q-40.5 43 -40.5 120v380h148v-336q0 -43 19.5 -59.5t58.5 -16.5q28 0 57.5 10.5t52.5 28.5v373h149v-537h-123l-26 55q-93 -61 -182 -61q-73 0 -113.5 43zM245 773h102l98 -142h-86l-66 76l-70 -76h-86z" />
    <glyph glyph-name="uni0215" unicode="&#x215;" horiz-adv-x="595" 
d="M95.5 37q-40.5 43 -40.5 120v380h148v-336q0 -43 19.5 -59.5t58.5 -16.5q28 0 57.5 10.5t52.5 28.5v373h149v-537h-123l-26 55q-93 -61 -182 -61q-73 0 -113.5 43zM63 771h119l83 -140h-87zM241 771h120l82 -140h-87z" />
    <glyph glyph-name="udieresis" unicode="&#xfc;" horiz-adv-x="595" 
d="M95.5 37q-40.5 43 -40.5 120v380h148v-336q0 -43 19.5 -59.5t58.5 -16.5q28 0 57.5 10.5t52.5 28.5v373h149v-537h-123l-26 55q-93 -61 -182 -61q-73 0 -113.5 43zM142 642.5q-6 5.5 -6 15.5v97q0 10 5.5 16t15.5 6h68q10 0 15 -6t5 -16v-97q0 -21 -20 -21h-68
q-9 0 -15 5.5zM338 642.5q-6 5.5 -6 15.5v97q0 10 5.5 16t15.5 6h69q9 0 14.5 -6.5t5.5 -15.5v-97q0 -21 -20 -21h-69q-9 0 -15 5.5z" />
    <glyph glyph-name="uni1EE5" unicode="&#x1ee5;" horiz-adv-x="595" 
d="M95.5 37q-40.5 43 -40.5 120v380h148v-336q0 -43 19.5 -59.5t58.5 -16.5q28 0 57.5 10.5t52.5 28.5v373h149v-537h-123l-26 55q-93 -61 -182 -61q-73 0 -113.5 43zM239.5 -220.5q-5.5 5.5 -5.5 15.5v97q0 22 20 22h69q9 0 14.5 -6.5t5.5 -15.5v-97q0 -21 -20 -21h-69
q-9 0 -14.5 5.5z" />
    <glyph glyph-name="ugrave" unicode="&#xf9;" horiz-adv-x="595" 
d="M95.5 37q-40.5 43 -40.5 120v380h148v-336q0 -43 19.5 -59.5t58.5 -16.5q28 0 57.5 10.5t52.5 28.5v373h149v-537h-123l-26 55q-93 -61 -182 -61q-73 0 -113.5 43zM157 771h120l82 -140h-87z" />
    <glyph glyph-name="uni1EE7" unicode="&#x1ee7;" horiz-adv-x="595" 
d="M95.5 37q-40.5 43 -40.5 120v380h148v-336q0 -43 19.5 -59.5t58.5 -16.5q28 0 57.5 10.5t52.5 28.5v373h149v-537h-123l-26 55q-93 -61 -182 -61q-73 0 -113.5 43zM265 659q40 11 40 40q0 28 -33 28q-11 0 -33 -6v58q24 8 52 8q46 0 69 -21.5t23 -61.5t-28.5 -66.5
t-89.5 -43.5v65z" />
    <glyph glyph-name="uhorn" unicode="&#x1b0;" horiz-adv-x="595" 
d="M605 532q-23 -45 -65 -63v-469h-123l-26 55q-93 -61 -182 -61q-73 0 -113.5 43t-40.5 120v380h148v-336q0 -43 19.5 -59.5t58.5 -16.5q28 0 57.5 10.5t52.5 28.5v373h63q35 0 53 25t18 85h103q0 -70 -23 -115z" />
    <glyph glyph-name="uni1EE9" unicode="&#x1ee9;" horiz-adv-x="595" 
d="M605 532q-23 -45 -65 -63v-469h-123l-26 55q-93 -61 -182 -61q-73 0 -113.5 43t-40.5 120v380h148v-336q0 -43 19.5 -59.5t58.5 -16.5q28 0 57.5 10.5t52.5 28.5v373h63q35 0 53 25t18 85h103q0 -70 -23 -115zM326 771h119l-115 -140h-87z" />
    <glyph glyph-name="uni1EF1" unicode="&#x1ef1;" horiz-adv-x="595" 
d="M605 532q-23 -45 -65 -63v-469h-123l-26 55q-93 -61 -182 -61q-73 0 -113.5 43t-40.5 120v380h148v-336q0 -43 19.5 -59.5t58.5 -16.5q28 0 57.5 10.5t52.5 28.5v373h63q35 0 53 25t18 85h103q0 -70 -23 -115zM226.5 -220.5q-5.5 5.5 -5.5 15.5v97q0 22 20 22h69
q9 0 14.5 -6.5t5.5 -15.5v-97q0 -21 -20 -21h-69q-9 0 -14.5 5.5z" />
    <glyph glyph-name="uni1EEB" unicode="&#x1eeb;" horiz-adv-x="595" 
d="M605 532q-23 -45 -65 -63v-469h-123l-26 55q-93 -61 -182 -61q-73 0 -113.5 43t-40.5 120v380h148v-336q0 -43 19.5 -59.5t58.5 -16.5q28 0 57.5 10.5t52.5 28.5v373h63q35 0 53 25t18 85h103q0 -70 -23 -115zM143 771h120l82 -140h-87z" />
    <glyph glyph-name="uni1EED" unicode="&#x1eed;" horiz-adv-x="595" 
d="M605 532q-23 -45 -65 -63v-469h-123l-26 55q-93 -61 -182 -61q-73 0 -113.5 43t-40.5 120v380h148v-336q0 -43 19.5 -59.5t58.5 -16.5q28 0 57.5 10.5t52.5 28.5v373h63q35 0 53 25t18 85h103q0 -70 -23 -115zM268 659q40 11 40 40q0 28 -33 28q-11 0 -33 -6v58
q24 8 52 8q46 0 69 -21.5t23 -61.5t-28.5 -66.5t-89.5 -43.5v65z" />
    <glyph glyph-name="uni1EEF" unicode="&#x1eef;" horiz-adv-x="595" 
d="M605 532q-23 -45 -65 -63v-469h-123l-26 55q-93 -61 -182 -61q-73 0 -113.5 43t-40.5 120v380h148v-336q0 -43 19.5 -59.5t58.5 -16.5q28 0 57.5 10.5t52.5 28.5v373h63q35 0 53 25t18 85h103q0 -70 -23 -115zM147.5 728q28.5 31 72.5 31q25 0 44 -7t43 -20
q22 -11 33.5 -15.5t25.5 -4.5q20 0 31 13.5t12 38.5h74q-3 -66 -29.5 -100t-73.5 -34q-24 0 -44 7t-46 20q-18 10 -31 15t-26 5q-19 0 -30.5 -13t-13.5 -35h-74q4 68 32.5 99z" />
    <glyph glyph-name="uhungarumlaut" unicode="&#x171;" horiz-adv-x="595" 
d="M95.5 37q-40.5 43 -40.5 120v380h148v-336q0 -43 19.5 -59.5t58.5 -16.5q28 0 57.5 10.5t52.5 28.5v373h149v-537h-123l-26 55q-93 -61 -182 -61q-73 0 -113.5 43zM230 771h113l-101 -140h-87zM394 771h112l-100 -140h-87z" />
    <glyph glyph-name="uni0217" unicode="&#x217;" horiz-adv-x="595" 
d="M95.5 37q-40.5 43 -40.5 120v380h148v-336q0 -43 19.5 -59.5t58.5 -16.5q28 0 57.5 10.5t52.5 28.5v373h149v-537h-123l-26 55q-93 -61 -182 -61q-73 0 -113.5 43zM397.5 739.5q36.5 -37.5 36.5 -113.5h-69q0 44 -20 63.5t-50 19.5q-70 0 -70 -83h-70q0 77 36.5 114
t103.5 37q66 0 102.5 -37.5z" />
    <glyph glyph-name="umacron" unicode="&#x16b;" horiz-adv-x="595" 
d="M95.5 37q-40.5 43 -40.5 120v380h148v-336q0 -43 19.5 -59.5t58.5 -16.5q28 0 57.5 10.5t52.5 28.5v373h149v-537h-123l-26 55q-93 -61 -182 -61q-73 0 -113.5 43zM149 735h281v-88h-281v88z" />
    <glyph glyph-name="uni1E7B" unicode="&#x1e7b;" horiz-adv-x="595" 
d="M95.5 37q-40.5 43 -40.5 120v380h148v-336q0 -43 19.5 -59.5t58.5 -16.5q28 0 57.5 10.5t52.5 28.5v373h149v-537h-123l-26 55q-93 -61 -182 -61q-73 0 -113.5 43zM149 735h281v-88h-281v88zM142 791.5q-6 5.5 -6 15.5v97q0 10 5.5 16t15.5 6h68q10 0 15 -6t5 -16v-97
q0 -21 -20 -21h-68q-9 0 -15 5.5zM338 791.5q-6 5.5 -6 15.5v97q0 10 5.5 16t15.5 6h69q9 0 14.5 -6.5t5.5 -15.5v-97q0 -21 -20 -21h-69q-9 0 -15 5.5z" />
    <glyph glyph-name="uogonek" unicode="&#x173;" horiz-adv-x="595" 
d="M558 -119v-69q-9 -4 -32 -4q-54 0 -80.5 26.5t-26.5 63.5q0 67 67 102h-69l-26 55q-93 -61 -182 -61q-73 0 -113.5 43t-40.5 120v380h148v-336q0 -43 19.5 -59.5t58.5 -16.5q28 0 57.5 10.5t52.5 28.5v373h149v-537q-26 -16 -37.5 -32t-11.5 -36q0 -24 16 -37.5t42 -13.5
h9z" />
    <glyph glyph-name="uring" unicode="&#x16f;" horiz-adv-x="595" 
d="M95.5 37q-40.5 43 -40.5 120v380h148v-336q0 -43 19.5 -59.5t58.5 -16.5q28 0 57.5 10.5t52.5 28.5v373h149v-537h-123l-26 55q-93 -61 -182 -61q-73 0 -113.5 43zM200.5 610.5q-30.5 25.5 -30.5 87.5t31 88t93 26t92 -26t30 -88t-30 -87.5t-92 -25.5q-63 0 -93.5 25.5z
M335.5 653q12.5 13 12.5 45q0 33 -13 46.5t-41 13.5q-29 0 -42.5 -13.5t-13.5 -46.5q0 -32 13.5 -45t42.5 -13t41.5 13z" />
    <glyph glyph-name="utilde" unicode="&#x169;" horiz-adv-x="595" 
d="M95.5 37q-40.5 43 -40.5 120v380h148v-336q0 -43 19.5 -59.5t58.5 -16.5q28 0 57.5 10.5t52.5 28.5v373h149v-537h-123l-26 55q-93 -61 -182 -61q-73 0 -113.5 43zM146.5 728q28.5 31 72.5 31q25 0 44 -7t43 -20q22 -11 33.5 -15.5t25.5 -4.5q20 0 31 13.5t12 38.5h74
q-3 -66 -29.5 -100t-73.5 -34q-24 0 -44 7t-46 20q-18 10 -31 15t-26 5q-19 0 -30.5 -13t-13.5 -35h-74q4 68 32.5 99z" />
    <glyph glyph-name="uni1E79" unicode="&#x1e79;" horiz-adv-x="595" 
d="M95.5 37q-40.5 43 -40.5 120v380h148v-336q0 -43 19.5 -59.5t58.5 -16.5q28 0 57.5 10.5t52.5 28.5v373h149v-537h-123l-26 55q-93 -61 -182 -61q-73 0 -113.5 43zM146.5 728q28.5 31 72.5 31q25 0 44 -7t43 -20q22 -11 33.5 -15.5t25.5 -4.5q20 0 31 13.5t12 38.5h74
q-3 -66 -29.5 -100t-73.5 -34q-24 0 -44 7t-46 20q-18 10 -31 15t-26 5q-19 0 -30.5 -13t-13.5 -35h-74q4 68 32.5 99zM326 928h119l-115 -140h-87z" />
    <glyph glyph-name="v" unicode="v" horiz-adv-x="564" 
d="M12 537h153l116 -400l119 400h151l-188 -537h-171z" />
    <glyph glyph-name="w" unicode="w" horiz-adv-x="826" 
d="M12 537h153l85 -400l106 400h122l106 -400l77 400h153l-140 -537h-164l-96 327l-99 -327h-161z" />
    <glyph glyph-name="wacute" unicode="&#x1e83;" horiz-adv-x="826" 
d="M12 537h153l85 -400l106 400h122l106 -400l77 400h153l-140 -537h-164l-96 327l-99 -327h-161zM459 771h119l-115 -140h-87z" />
    <glyph glyph-name="wcircumflex" unicode="&#x175;" horiz-adv-x="826" 
d="M12 537h153l85 -400l106 400h122l106 -400l77 400h153l-140 -537h-164l-96 327l-99 -327h-161zM371 773h102l98 -142h-86l-66 76l-70 -76h-86z" />
    <glyph glyph-name="wdieresis" unicode="&#x1e85;" horiz-adv-x="826" 
d="M12 537h153l85 -400l106 400h122l106 -400l77 400h153l-140 -537h-164l-96 327l-99 -327h-161zM268 642.5q-6 5.5 -6 15.5v97q0 10 5.5 16t15.5 6h68q10 0 15 -6t5 -16v-97q0 -21 -20 -21h-68q-9 0 -15 5.5zM464 642.5q-6 5.5 -6 15.5v97q0 10 5.5 16t15.5 6h69
q9 0 14.5 -6.5t5.5 -15.5v-97q0 -21 -20 -21h-69q-9 0 -15 5.5z" />
    <glyph glyph-name="wgrave" unicode="&#x1e81;" horiz-adv-x="826" 
d="M12 537h153l85 -400l106 400h122l106 -400l77 400h153l-140 -537h-164l-96 327l-99 -327h-161zM283 771h120l82 -140h-87z" />
    <glyph glyph-name="x" unicode="x" horiz-adv-x="541" 
d="M351 260l182 -260h-150l-118 169l-106 -169h-150l182 276l-182 261h149l119 -170l106 170h150z" />
    <glyph glyph-name="y" unicode="y" horiz-adv-x="569" 
d="M283 0q-133 0 -170 144l-101 393h154l85 -363q8 -33 24 -42t34 -11l97 416h150l-160 -675l-48 -99h-123z" />
    <glyph glyph-name="yacute" unicode="&#xfd;" horiz-adv-x="569" 
d="M283 0q-133 0 -170 144l-101 393h154l85 -363q8 -33 24 -42t34 -11l97 416h150l-160 -675l-48 -99h-123zM315 771h119l-115 -140h-87z" />
    <glyph glyph-name="ycircumflex" unicode="&#x177;" horiz-adv-x="569" 
d="M283 0q-133 0 -170 144l-101 393h154l85 -363q8 -33 24 -42t34 -11l97 416h150l-160 -675l-48 -99h-123zM227 773h102l98 -142h-86l-66 76l-70 -76h-86z" />
    <glyph glyph-name="ydieresis" unicode="&#xff;" horiz-adv-x="569" 
d="M283 0q-133 0 -170 144l-101 393h154l85 -363q8 -33 24 -42t34 -11l97 416h150l-160 -675l-48 -99h-123zM124 642.5q-6 5.5 -6 15.5v97q0 10 5.5 16t15.5 6h68q10 0 15 -6t5 -16v-97q0 -21 -20 -21h-68q-9 0 -15 5.5zM320 642.5q-6 5.5 -6 15.5v97q0 10 5.5 16t15.5 6h69
q9 0 14.5 -6.5t5.5 -15.5v-97q0 -21 -20 -21h-69q-9 0 -15 5.5z" />
    <glyph glyph-name="uni1E8F" unicode="&#x1e8f;" horiz-adv-x="569" 
d="M283 0q-133 0 -170 144l-101 393h154l85 -363q8 -33 24 -42t34 -11l97 416h150l-160 -675l-48 -99h-123zM466.5 -220.5q-5.5 5.5 -5.5 15.5v97q0 22 20 22h69q9 0 14.5 -6.5t5.5 -15.5v-97q0 -21 -20 -21h-69q-9 0 -14.5 5.5z" />
    <glyph glyph-name="uni1EF5" unicode="&#x1ef5;" horiz-adv-x="569" 
d="M283 0q-133 0 -170 144l-101 393h154l85 -363q8 -33 24 -42t34 -11l97 416h150l-160 -675l-48 -99h-123zM466.5 -220.5q-5.5 5.5 -5.5 15.5v97q0 22 20 22h69q9 0 14.5 -6.5t5.5 -15.5v-97q0 -21 -20 -21h-69q-9 0 -14.5 5.5z" />
    <glyph glyph-name="ygrave" unicode="&#x1ef3;" horiz-adv-x="569" 
d="M283 0q-133 0 -170 144l-101 393h154l85 -363q8 -33 24 -42t34 -11l97 416h150l-160 -675l-48 -99h-123zM139 771h120l82 -140h-87z" />
    <glyph glyph-name="uni1EF7" unicode="&#x1ef7;" horiz-adv-x="569" 
d="M283 0q-133 0 -170 144l-101 393h154l85 -363q8 -33 24 -42t34 -11l97 416h150l-160 -675l-48 -99h-123zM247 659q40 11 40 40q0 28 -33 28q-11 0 -33 -6v58q24 8 52 8q46 0 69 -21.5t23 -61.5t-28.5 -66.5t-89.5 -43.5v65z" />
    <glyph glyph-name="uni0233" unicode="&#x233;" horiz-adv-x="569" 
d="M283 0q-133 0 -170 144l-101 393h154l85 -363q8 -33 24 -42t34 -11l97 416h150l-160 -675l-48 -99h-123zM131 735h281v-88h-281v88z" />
    <glyph glyph-name="uni1EF9" unicode="&#x1ef9;" horiz-adv-x="569" 
d="M283 0q-133 0 -170 144l-101 393h154l85 -363q8 -33 24 -42t34 -11l97 416h150l-160 -675l-48 -99h-123zM128.5 728q28.5 31 72.5 31q25 0 44 -7t43 -20q22 -11 33.5 -15.5t25.5 -4.5q20 0 31 13.5t12 38.5h74q-3 -66 -29.5 -100t-73.5 -34q-24 0 -44 7t-46 20
q-18 10 -31 15t-26 5q-19 0 -30.5 -13t-13.5 -35h-74q4 68 32.5 99z" />
    <glyph glyph-name="z" unicode="z" horiz-adv-x="505" 
d="M45 107l253 311h-263v119h435v-107l-254 -311h254v-119h-425v107z" />
    <glyph glyph-name="zacute" unicode="&#x17a;" horiz-adv-x="505" 
d="M45 107l253 311h-263v119h435v-107l-254 -311h254v-119h-425v107zM285 771h119l-115 -140h-87z" />
    <glyph glyph-name="zcaron" unicode="&#x17e;" horiz-adv-x="505" 
d="M45 107l253 311h-263v119h435v-107l-254 -311h254v-119h-425v107zM93 773h86l66 -76l70 76h86l-108 -142h-101z" />
    <glyph glyph-name="zdotaccent" unicode="&#x17c;" horiz-adv-x="505" 
d="M45 107l253 311h-263v119h435v-107l-254 -311h254v-119h-425v107zM194 649.5q-6 5.5 -6 15.5v97q0 10 5.5 16t15.5 6h69q9 0 14.5 -6.5t5.5 -15.5v-97q0 -21 -20 -21h-69q-9 0 -15 5.5z" />
    <glyph glyph-name="uni1E93" unicode="&#x1e93;" horiz-adv-x="505" 
d="M45 107l253 311h-263v119h435v-107l-254 -311h254v-119h-425v107zM191.5 -220.5q-5.5 5.5 -5.5 15.5v97q0 22 20 22h69q9 0 14.5 -6.5t5.5 -15.5v-97q0 -21 -20 -21h-69q-9 0 -14.5 5.5z" />
    <glyph glyph-name="a.salt" horiz-adv-x="537" 
d="M78.5 280q44.5 38 132.5 38h137v37q0 27 -9 42.5t-34 23t-74 7.5h-161v86q99 30 215 30q106 0 158.5 -40t52.5 -139v-297q-47 -31 -119 -52.5t-142 -21.5h-27q-85 0 -129.5 35.5t-44.5 100.5v48q0 64 44.5 102zM300.5 104.5q26.5 7.5 47.5 18.5v125l-90 -6
q-76 -7 -76 -66v-22q0 -31 18 -44t50 -13q24 0 50.5 7.5z" />
    <glyph glyph-name="aacute.salt" horiz-adv-x="537" 
d="M78.5 280q44.5 38 132.5 38h137v37q0 27 -9 42.5t-34 23t-74 7.5h-161v86q99 30 215 30q106 0 158.5 -40t52.5 -139v-297q-47 -31 -119 -52.5t-142 -21.5h-27q-85 0 -129.5 35.5t-44.5 100.5v48q0 64 44.5 102zM300.5 104.5q26.5 7.5 47.5 18.5v125l-90 -6
q-76 -7 -76 -66v-22q0 -31 18 -44t50 -13q24 0 50.5 7.5zM313 771h119l-115 -140h-87z" />
    <glyph glyph-name="abreve.salt" horiz-adv-x="537" 
d="M78.5 280q44.5 38 132.5 38h137v37q0 27 -9 42.5t-34 23t-74 7.5h-161v86q99 30 215 30q106 0 158.5 -40t52.5 -139v-297q-47 -31 -119 -52.5t-142 -21.5h-27q-85 0 -129.5 35.5t-44.5 100.5v48q0 64 44.5 102zM300.5 104.5q26.5 7.5 47.5 18.5v125l-90 -6
q-76 -7 -76 -66v-22q0 -31 18 -44t50 -13q24 0 50.5 7.5zM163.5 660.5q-36.5 37.5 -36.5 113.5h69q0 -44 20 -63.5t50 -19.5q70 0 70 83h70q0 -77 -36.5 -114t-103.5 -37q-66 0 -102.5 37.5z" />
    <glyph glyph-name="uni1EAF.salt" horiz-adv-x="537" 
d="M78.5 280q44.5 38 132.5 38h137v37q0 27 -9 42.5t-34 23t-74 7.5h-161v86q99 30 215 30q106 0 158.5 -40t52.5 -139v-297q-47 -31 -119 -52.5t-142 -21.5h-27q-85 0 -129.5 35.5t-44.5 100.5v48q0 64 44.5 102zM300.5 104.5q26.5 7.5 47.5 18.5v125l-90 -6
q-76 -7 -76 -66v-22q0 -31 18 -44t50 -13q24 0 50.5 7.5zM306 893h119l-115 -140h-87zM215.5 683q19.5 -14 50.5 -14q70 0 70 61h71q0 -62 -36.5 -91.5t-104.5 -29.5q-67 0 -103 30t-36 91h69q0 -33 19.5 -47z" />
    <glyph glyph-name="uni1EB7.salt" horiz-adv-x="537" 
d="M78.5 280q44.5 38 132.5 38h137v37q0 27 -9 42.5t-34 23t-74 7.5h-161v86q99 30 215 30q106 0 158.5 -40t52.5 -139v-297q-47 -31 -119 -52.5t-142 -21.5h-27q-85 0 -129.5 35.5t-44.5 100.5v48q0 64 44.5 102zM300.5 104.5q26.5 7.5 47.5 18.5v125l-90 -6
q-76 -7 -76 -66v-22q0 -31 18 -44t50 -13q24 0 50.5 7.5zM163.5 660.5q-36.5 37.5 -36.5 113.5h69q0 -44 20 -63.5t50 -19.5q70 0 70 83h70q0 -77 -36.5 -114t-103.5 -37q-66 0 -102.5 37.5zM216.5 -220.5q-5.5 5.5 -5.5 15.5v97q0 22 20 22h69q9 0 14.5 -6.5t5.5 -15.5v-97
q0 -21 -20 -21h-69q-9 0 -14.5 5.5z" />
    <glyph glyph-name="uni1EB1.salt" horiz-adv-x="537" 
d="M78.5 280q44.5 38 132.5 38h137v37q0 27 -9 42.5t-34 23t-74 7.5h-161v86q99 30 215 30q106 0 158.5 -40t52.5 -139v-297q-47 -31 -119 -52.5t-142 -21.5h-27q-85 0 -129.5 35.5t-44.5 100.5v48q0 64 44.5 102zM300.5 104.5q26.5 7.5 47.5 18.5v125l-90 -6
q-76 -7 -76 -66v-22q0 -31 18 -44t50 -13q24 0 50.5 7.5zM115 893h120l82 -140h-87zM215.5 683q19.5 -14 50.5 -14q70 0 70 61h71q0 -62 -36.5 -91.5t-104.5 -29.5q-67 0 -103 30t-36 91h69q0 -33 19.5 -47z" />
    <glyph glyph-name="uni1EB3.salt" horiz-adv-x="537" 
d="M78.5 280q44.5 38 132.5 38h137v37q0 27 -9 42.5t-34 23t-74 7.5h-161v86q99 30 215 30q106 0 158.5 -40t52.5 -139v-297q-47 -31 -119 -52.5t-142 -21.5h-27q-85 0 -129.5 35.5t-44.5 100.5v48q0 64 44.5 102zM300.5 104.5q26.5 7.5 47.5 18.5v125l-90 -6
q-76 -7 -76 -66v-22q0 -31 18 -44t50 -13q24 0 50.5 7.5zM245 776q40 11 40 40q0 28 -33 28q-11 0 -33 -6v58q24 8 52 8q46 0 69 -21.5t23 -61.5t-28.5 -66.5t-89.5 -43.5v65zM163 639q-36 30 -36 91h69q0 -33 19.5 -47t50.5 -14q70 0 70 61h71q0 -62 -36.5 -91.5
t-104.5 -29.5q-67 0 -103 30z" />
    <glyph glyph-name="uni1EB5.salt" horiz-adv-x="537" 
d="M78.5 280q44.5 38 132.5 38h137v37q0 27 -9 42.5t-34 23t-74 7.5h-161v86q99 30 215 30q106 0 158.5 -40t52.5 -139v-297q-47 -31 -119 -52.5t-142 -21.5h-27q-85 0 -129.5 35.5t-44.5 100.5v48q0 64 44.5 102zM300.5 104.5q26.5 7.5 47.5 18.5v125l-90 -6
q-76 -7 -76 -66v-22q0 -31 18 -44t50 -13q24 0 50.5 7.5zM265 851q12 -5 25 -8.5t23 -3.5q19 0 29 8.5t10 24.5h74q-5 -59 -25 -81.5t-61 -22.5q-22 0 -45.5 7.5t-26.5 8.5l-19.5 6.5t-27.5 5.5q-17 0 -27.5 -8t-12.5 -21h-74q5 58 27.5 79t60.5 21q28 0 70 -16zM215.5 683
q19.5 -14 50.5 -14q70 0 70 61h71q0 -62 -36.5 -91.5t-104.5 -29.5q-67 0 -103 30t-36 91h69q0 -33 19.5 -47z" />
    <glyph glyph-name="acircumflex.salt" horiz-adv-x="537" 
d="M78.5 280q44.5 38 132.5 38h137v37q0 27 -9 42.5t-34 23t-74 7.5h-161v86q99 30 215 30q106 0 158.5 -40t52.5 -139v-297q-47 -31 -119 -52.5t-142 -21.5h-27q-85 0 -129.5 35.5t-44.5 100.5v48q0 64 44.5 102zM300.5 104.5q26.5 7.5 47.5 18.5v125l-90 -6
q-76 -7 -76 -66v-22q0 -31 18 -44t50 -13q24 0 50.5 7.5zM225 773h102l98 -142h-86l-66 76l-70 -76h-86z" />
    <glyph glyph-name="uni1EA5.salt" horiz-adv-x="537" 
d="M78.5 280q44.5 38 132.5 38h137v37q0 27 -9 42.5t-34 23t-74 7.5h-161v86q99 30 215 30q106 0 158.5 -40t52.5 -139v-297q-47 -31 -119 -52.5t-142 -21.5h-27q-85 0 -129.5 35.5t-44.5 100.5v48q0 64 44.5 102zM300.5 104.5q26.5 7.5 47.5 18.5v125l-90 -6
q-76 -7 -76 -66v-22q0 -31 18 -44t50 -13q24 0 50.5 7.5zM532 841l-78 -125h-87l45 125h120zM327 740l98 -109h-86l-65 43l-70 -43h-87l109 109h101z" />
    <glyph glyph-name="uni1EAD.salt" horiz-adv-x="537" 
d="M78.5 280q44.5 38 132.5 38h137v37q0 27 -9 42.5t-34 23t-74 7.5h-161v86q99 30 215 30q106 0 158.5 -40t52.5 -139v-297q-47 -31 -119 -52.5t-142 -21.5h-27q-85 0 -129.5 35.5t-44.5 100.5v48q0 64 44.5 102zM300.5 104.5q26.5 7.5 47.5 18.5v125l-90 -6
q-76 -7 -76 -66v-22q0 -31 18 -44t50 -13q24 0 50.5 7.5zM225 773h102l98 -142h-86l-66 76l-70 -76h-86zM216.5 -220.5q-5.5 5.5 -5.5 15.5v97q0 22 20 22h69q9 0 14.5 -6.5t5.5 -15.5v-97q0 -21 -20 -21h-69q-9 0 -14.5 5.5z" />
    <glyph glyph-name="uni1EA7.salt" horiz-adv-x="537" 
d="M78.5 280q44.5 38 132.5 38h137v37q0 27 -9 42.5t-34 23t-74 7.5h-161v86q99 30 215 30q106 0 158.5 -40t52.5 -139v-297q-47 -31 -119 -52.5t-142 -21.5h-27q-85 0 -129.5 35.5t-44.5 100.5v48q0 64 44.5 102zM300.5 104.5q26.5 7.5 47.5 18.5v125l-90 -6
q-76 -7 -76 -66v-22q0 -31 18 -44t50 -13q24 0 50.5 7.5zM135 841l46 -125h-87l-79 125h120zM327 740l98 -109h-86l-65 43l-70 -43h-87l109 109h101z" />
    <glyph glyph-name="uni1EA9.salt" horiz-adv-x="537" 
d="M78.5 280q44.5 38 132.5 38h137v37q0 27 -9 42.5t-34 23t-74 7.5h-161v86q99 30 215 30q106 0 158.5 -40t52.5 -139v-297q-47 -31 -119 -52.5t-142 -21.5h-27q-85 0 -129.5 35.5t-44.5 100.5v48q0 64 44.5 102zM300.5 104.5q26.5 7.5 47.5 18.5v125l-90 -6
q-76 -7 -76 -66v-22q0 -31 18 -44t50 -13q24 0 50.5 7.5zM391 751q31 9 31 33q0 12 -5.5 17.5t-19.5 5.5q-17 0 -32 -6v51q24 8 52 8q37 0 56 -17.5t19 -48.5q0 -40 -24 -66.5t-77 -41.5v65zM226 740h101l98 -109h-86l-65 43l-70 -43h-87z" />
    <glyph glyph-name="uni1EAB.salt" horiz-adv-x="537" 
d="M78.5 280q44.5 38 132.5 38h137v37q0 27 -9 42.5t-34 23t-74 7.5h-161v86q99 30 215 30q106 0 158.5 -40t52.5 -139v-297q-47 -31 -119 -52.5t-142 -21.5h-27q-85 0 -129.5 35.5t-44.5 100.5v48q0 64 44.5 102zM300.5 104.5q26.5 7.5 47.5 18.5v125l-90 -6
q-76 -7 -76 -66v-22q0 -31 18 -44t50 -13q24 0 50.5 7.5zM264 866q4 -1 19.5 -6.5t29.5 -5.5q19 0 29 8.5t10 24.5h74q-5 -59 -25 -81.5t-61 -22.5q-23 0 -47.5 7.5t-29.5 8.5q-3 1 -20.5 6.5t-29.5 5.5q-14 0 -22 -8.5t-10 -21.5h-74q5 58 27.5 79.5t60.5 21.5q29 0 69 -16
zM425 631h-86l-65 43l-70 -43h-87l109 109h101z" />
    <glyph glyph-name="uni0201.salt" horiz-adv-x="537" 
d="M78.5 280q44.5 38 132.5 38h137v37q0 27 -9 42.5t-34 23t-74 7.5h-161v86q99 30 215 30q106 0 158.5 -40t52.5 -139v-297q-47 -31 -119 -52.5t-142 -21.5h-27q-85 0 -129.5 35.5t-44.5 100.5v48q0 64 44.5 102zM300.5 104.5q26.5 7.5 47.5 18.5v125l-90 -6
q-76 -7 -76 -66v-22q0 -31 18 -44t50 -13q24 0 50.5 7.5zM43 771h119l83 -140h-87zM221 771h120l82 -140h-87z" />
    <glyph glyph-name="adieresis.salt" horiz-adv-x="537" 
d="M78.5 280q44.5 38 132.5 38h137v37q0 27 -9 42.5t-34 23t-74 7.5h-161v86q99 30 215 30q106 0 158.5 -40t52.5 -139v-297q-47 -31 -119 -52.5t-142 -21.5h-27q-85 0 -129.5 35.5t-44.5 100.5v48q0 64 44.5 102zM300.5 104.5q26.5 7.5 47.5 18.5v125l-90 -6
q-76 -7 -76 -66v-22q0 -31 18 -44t50 -13q24 0 50.5 7.5zM122 642.5q-6 5.5 -6 15.5v97q0 10 5.5 16t15.5 6h68q10 0 15 -6t5 -16v-97q0 -21 -20 -21h-68q-9 0 -15 5.5zM318 642.5q-6 5.5 -6 15.5v97q0 10 5.5 16t15.5 6h69q9 0 14.5 -6.5t5.5 -15.5v-97q0 -21 -20 -21h-69
q-9 0 -15 5.5z" />
    <glyph glyph-name="uni1EA1.salt" horiz-adv-x="537" 
d="M78.5 280q44.5 38 132.5 38h137v37q0 27 -9 42.5t-34 23t-74 7.5h-161v86q99 30 215 30q106 0 158.5 -40t52.5 -139v-297q-47 -31 -119 -52.5t-142 -21.5h-27q-85 0 -129.5 35.5t-44.5 100.5v48q0 64 44.5 102zM300.5 104.5q26.5 7.5 47.5 18.5v125l-90 -6
q-76 -7 -76 -66v-22q0 -31 18 -44t50 -13q24 0 50.5 7.5zM216.5 -220.5q-5.5 5.5 -5.5 15.5v97q0 22 20 22h69q9 0 14.5 -6.5t5.5 -15.5v-97q0 -21 -20 -21h-69q-9 0 -14.5 5.5z" />
    <glyph glyph-name="agrave.salt" horiz-adv-x="537" 
d="M78.5 280q44.5 38 132.5 38h137v37q0 27 -9 42.5t-34 23t-74 7.5h-161v86q99 30 215 30q106 0 158.5 -40t52.5 -139v-297q-47 -31 -119 -52.5t-142 -21.5h-27q-85 0 -129.5 35.5t-44.5 100.5v48q0 64 44.5 102zM300.5 104.5q26.5 7.5 47.5 18.5v125l-90 -6
q-76 -7 -76 -66v-22q0 -31 18 -44t50 -13q24 0 50.5 7.5zM137 771h120l82 -140h-87z" />
    <glyph glyph-name="uni1EA3.salt" horiz-adv-x="537" 
d="M78.5 280q44.5 38 132.5 38h137v37q0 27 -9 42.5t-34 23t-74 7.5h-161v86q99 30 215 30q106 0 158.5 -40t52.5 -139v-297q-47 -31 -119 -52.5t-142 -21.5h-27q-85 0 -129.5 35.5t-44.5 100.5v48q0 64 44.5 102zM300.5 104.5q26.5 7.5 47.5 18.5v125l-90 -6
q-76 -7 -76 -66v-22q0 -31 18 -44t50 -13q24 0 50.5 7.5zM245 659q40 11 40 40q0 28 -33 28q-11 0 -33 -6v58q24 8 52 8q46 0 69 -21.5t23 -61.5t-28.5 -66.5t-89.5 -43.5v65z" />
    <glyph glyph-name="uni0203.salt" horiz-adv-x="537" 
d="M78.5 280q44.5 38 132.5 38h137v37q0 27 -9 42.5t-34 23t-74 7.5h-161v86q99 30 215 30q106 0 158.5 -40t52.5 -139v-297q-47 -31 -119 -52.5t-142 -21.5h-27q-85 0 -129.5 35.5t-44.5 100.5v48q0 64 44.5 102zM300.5 104.5q26.5 7.5 47.5 18.5v125l-90 -6
q-76 -7 -76 -66v-22q0 -31 18 -44t50 -13q24 0 50.5 7.5zM377.5 739.5q36.5 -37.5 36.5 -113.5h-69q0 44 -20 63.5t-50 19.5q-70 0 -70 -83h-70q0 77 36.5 114t103.5 37q66 0 102.5 -37.5z" />
    <glyph glyph-name="amacron.salt" horiz-adv-x="537" 
d="M78.5 280q44.5 38 132.5 38h137v37q0 27 -9 42.5t-34 23t-74 7.5h-161v86q99 30 215 30q106 0 158.5 -40t52.5 -139v-297q-47 -31 -119 -52.5t-142 -21.5h-27q-85 0 -129.5 35.5t-44.5 100.5v48q0 64 44.5 102zM300.5 104.5q26.5 7.5 47.5 18.5v125l-90 -6
q-76 -7 -76 -66v-22q0 -31 18 -44t50 -13q24 0 50.5 7.5zM129 735h281v-88h-281v88z" />
    <glyph glyph-name="aogonek.salt" horiz-adv-x="537" 
d="M269.5 -32q-11.5 -16 -11.5 -36q0 -24 16 -37.5t42 -13.5h9v-69q-9 -4 -32 -4q-54 0 -80.5 26.5t-26.5 63.5q0 61 57 96h-8h-27q-85 0 -129.5 35.5t-44.5 100.5v48q0 64 44.5 102t132.5 38h137v37q0 27 -9 42.5t-34 23t-74 7.5h-161v86q99 30 215 30q106 0 158.5 -40
t52.5 -139v-297q-36 -23 -86 -41.5t-103 -26.5q-26 -16 -37.5 -32zM200 110q18 -13 50 -13q24 0 50.5 7.5t47.5 18.5v125l-90 -6q-76 -7 -76 -66v-22q0 -31 18 -44z" />
    <glyph glyph-name="aring.salt" horiz-adv-x="537" 
d="M78.5 280q44.5 38 132.5 38h137v37q0 27 -9 42.5t-34 23t-74 7.5h-161v86q99 30 215 30q106 0 158.5 -40t52.5 -139v-297q-47 -31 -119 -52.5t-142 -21.5h-27q-85 0 -129.5 35.5t-44.5 100.5v48q0 64 44.5 102zM300.5 104.5q26.5 7.5 47.5 18.5v125l-90 -6
q-76 -7 -76 -66v-22q0 -31 18 -44t50 -13q24 0 50.5 7.5zM180.5 610.5q-30.5 25.5 -30.5 87.5t31 88t93 26t92 -26t30 -88t-30 -87.5t-92 -25.5q-63 0 -93.5 25.5zM315.5 653q12.5 13 12.5 45q0 33 -13 46.5t-41 13.5q-29 0 -42.5 -13.5t-13.5 -46.5q0 -32 13.5 -45
t42.5 -13t41.5 13z" />
    <glyph glyph-name="aringacute.salt" horiz-adv-x="537" 
d="M180.5 610.5q-30.5 25.5 -30.5 87.5q0 53 22.5 79.5t68.5 32.5l72 121h119l-103 -125q34 -10 50.5 -36t16.5 -72q0 -62 -30 -87.5t-92 -25.5q-63 0 -93.5 25.5zM231.5 744.5q-13.5 -13.5 -13.5 -46.5q0 -32 13.5 -45t42.5 -13t41.5 13t12.5 45q0 33 -13 46.5t-41 13.5
q-29 0 -42.5 -13.5zM443.5 504q52.5 -40 52.5 -139v-297q-47 -31 -119 -52.5t-142 -21.5h-27q-85 0 -129.5 35.5t-44.5 100.5v48q0 64 44.5 102t132.5 38h137v37q0 27 -9 42.5t-34 23t-74 7.5h-161v86q99 30 215 30q106 0 158.5 -40zM348 248l-90 -6q-76 -7 -76 -66v-22
q0 -31 18 -44t50 -13q24 0 50.5 7.5t47.5 18.5v125z" />
    <glyph glyph-name="atilde.salt" horiz-adv-x="537" 
d="M78.5 280q44.5 38 132.5 38h137v37q0 27 -9 42.5t-34 23t-74 7.5h-161v86q99 30 215 30q106 0 158.5 -40t52.5 -139v-297q-47 -31 -119 -52.5t-142 -21.5h-27q-85 0 -129.5 35.5t-44.5 100.5v48q0 64 44.5 102zM300.5 104.5q26.5 7.5 47.5 18.5v125l-90 -6
q-76 -7 -76 -66v-22q0 -31 18 -44t50 -13q24 0 50.5 7.5zM126.5 728q28.5 31 72.5 31q25 0 44 -7t43 -20q22 -11 33.5 -15.5t25.5 -4.5q20 0 31 13.5t12 38.5h74q-3 -66 -29.5 -100t-73.5 -34q-24 0 -44 7t-46 20q-18 10 -31 15t-26 5q-19 0 -30.5 -13t-13.5 -35h-74
q4 68 32.5 99z" />
    <glyph glyph-name="b.salt" horiz-adv-x="575" 
d="M170 2q-65 10 -116 27v734h148v-257q36 17 76 28t74 11q70 0 110 -31.5t56.5 -93t16.5 -159.5q0 -138 -57.5 -203.5t-179.5 -65.5q-63 0 -128 10zM295 114q45 0 68.5 35.5t23.5 119.5q0 89 -21.5 122.5t-63.5 33.5q-25 0 -48 -6t-52 -17v-285q41 -3 93 -3z" />
    <glyph glyph-name="uni1E03.salt" horiz-adv-x="575" 
d="M170 2q-65 10 -116 27v734h148v-257q36 17 76 28t74 11q70 0 110 -31.5t56.5 -93t16.5 -159.5q0 -138 -57.5 -203.5t-179.5 -65.5q-63 0 -128 10zM295 114q45 0 68.5 35.5t23.5 119.5q0 89 -21.5 122.5t-63.5 33.5q-25 0 -48 -6t-52 -17v-285q41 -3 93 -3zM77 849.5
q-6 5.5 -6 15.5v97q0 10 5.5 16t15.5 6h69q9 0 14.5 -6.5t5.5 -15.5v-97q0 -21 -20 -21h-69q-9 0 -15 5.5z" />
    <glyph glyph-name="d.salt" horiz-adv-x="574" 
d="M137.5 19.5q-50.5 27.5 -74 86t-23.5 155.5q0 99 17.5 160.5t60 92.5t119.5 31q30 0 68 -7.5t68 -18.5v244h148v-713q-42 -24 -110.5 -41t-140.5 -17q-82 0 -132.5 27.5zM339 119q28 7 34 8v285q-47 21 -89 21q-37 0 -57 -15t-29 -50t-9 -99q0 -60 8.5 -93.5t27.5 -48.5
t53 -15q33 0 61 7z" />
    <glyph glyph-name="dcaron.salt" horiz-adv-x="574" 
d="M137.5 19.5q-50.5 27.5 -74 86t-23.5 155.5q0 99 17.5 160.5t60 92.5t119.5 31q30 0 68 -7.5t68 -18.5v244h148v-713q-42 -24 -110.5 -41t-140.5 -17q-82 0 -132.5 27.5zM339 119q28 7 34 8v285q-47 21 -89 21q-37 0 -57 -15t-29 -50t-9 -99q0 -60 8.5 -93.5t27.5 -48.5
t53 -15q33 0 61 7zM573 719v64h134v-64l-8 -137h-117z" />
    <glyph glyph-name="dcroat.salt" horiz-adv-x="574" 
d="M580 615h-59v-565q-42 -24 -110.5 -41t-140.5 -17q-82 0 -132.5 27.5t-74 86t-23.5 155.5q0 99 17.5 160.5t60 92.5t119.5 31q30 0 68 -7.5t68 -18.5v96h-117v59h117v89h148v-89h59v-59zM373 412q-47 21 -89 21q-37 0 -57 -15t-29 -50t-9 -99q0 -60 8.5 -93.5t27.5 -48.5
t53 -15q33 0 61 7t34 8v285z" />
    <glyph glyph-name="uni1E0B.salt" horiz-adv-x="574" 
d="M137.5 19.5q-50.5 27.5 -74 86t-23.5 155.5q0 99 17.5 160.5t60 92.5t119.5 31q30 0 68 -7.5t68 -18.5v244h148v-713q-42 -24 -110.5 -41t-140.5 -17q-82 0 -132.5 27.5zM339 119q28 7 34 8v285q-47 21 -89 21q-37 0 -57 -15t-29 -50t-9 -99q0 -60 8.5 -93.5t27.5 -48.5
t53 -15q33 0 61 7zM396 849.5q-6 5.5 -6 15.5v97q0 10 5.5 16t15.5 6h69q9 0 14.5 -6.5t5.5 -15.5v-97q0 -21 -20 -21h-69q-9 0 -15 5.5z" />
    <glyph glyph-name="uni1E0D.salt" horiz-adv-x="574" 
d="M137.5 19.5q-50.5 27.5 -74 86t-23.5 155.5q0 99 17.5 160.5t60 92.5t119.5 31q30 0 68 -7.5t68 -18.5v244h148v-713q-42 -24 -110.5 -41t-140.5 -17q-82 0 -132.5 27.5zM339 119q28 7 34 8v285q-47 21 -89 21q-37 0 -57 -15t-29 -50t-9 -99q0 -60 8.5 -93.5t27.5 -48.5
t53 -15q33 0 61 7zM221.5 -220.5q-5.5 5.5 -5.5 15.5v97q0 22 20 22h69q9 0 14.5 -6.5t5.5 -15.5v-97q0 -21 -20 -21h-69q-9 0 -14.5 5.5z" />
    <glyph glyph-name="uni1E0F.salt" horiz-adv-x="574" 
d="M137.5 19.5q-50.5 27.5 -74 86t-23.5 155.5q0 99 17.5 160.5t60 92.5t119.5 31q30 0 68 -7.5t68 -18.5v244h148v-713q-42 -24 -110.5 -41t-140.5 -17q-82 0 -132.5 27.5zM339 119q28 7 34 8v285q-47 21 -89 21q-37 0 -57 -15t-29 -50t-9 -99q0 -60 8.5 -93.5t27.5 -48.5
t53 -15q33 0 61 7zM136 -125h281v-88h-281v88z" />
    <glyph glyph-name="f.salt" horiz-adv-x="363" 
d="M98.5 722.5q41.5 46.5 136.5 46.5q58 0 112 -15v-106h-82q-34 0 -47 -15.5t-13 -51.5v-44h130v-119h-130v-418h-148v573q0 103 41.5 149.5z" />
    <glyph glyph-name="uni1E1F.salt" horiz-adv-x="363" 
d="M98.5 722.5q41.5 46.5 136.5 46.5q58 0 112 -15v-106h-82q-34 0 -47 -15.5t-13 -51.5v-44h130v-119h-130v-418h-148v573q0 103 41.5 149.5zM176 871.5q-6 5.5 -6 15.5v97q0 10 5.5 16t15.5 6h69q9 0 14.5 -6.5t5.5 -15.5v-97q0 -21 -20 -21h-69q-9 0 -15 5.5z" />
    <glyph glyph-name="g.salt" horiz-adv-x="575" 
d="M521 524v-497q0 -146 -61 -208t-191 -62q-56 0 -108.5 8.5t-89.5 21.5v86h168q71 0 102.5 26t31.5 89v52q-26 -22 -63 -34t-76 -12q-69 0 -111 27t-62 86.5t-20 156.5q0 101 20.5 161t73 90t147.5 30q107 0 239 -21zM373 143v286q-40 5 -85 5q-55 0 -77 -36t-22 -126
q0 -63 9 -97.5t29.5 -48t55.5 -13.5q41 0 90 30z" />
    <glyph glyph-name="gbreve.salt" horiz-adv-x="575" 
d="M521 524v-497q0 -146 -61 -208t-191 -62q-56 0 -108.5 8.5t-89.5 21.5v86h168q71 0 102.5 26t31.5 89v52q-26 -22 -63 -34t-76 -12q-69 0 -111 27t-62 86.5t-20 156.5q0 101 20.5 161t73 90t147.5 30q107 0 239 -21zM373 143v286q-40 5 -85 5q-55 0 -77 -36t-22 -126
q0 -63 9 -97.5t29.5 -48t55.5 -13.5q41 0 90 30zM190.5 660.5q-36.5 37.5 -36.5 113.5h69q0 -44 20 -63.5t50 -19.5q70 0 70 83h70q0 -77 -36.5 -114t-103.5 -37q-66 0 -102.5 37.5z" />
    <glyph glyph-name="gcaron.salt" horiz-adv-x="575" 
d="M521 524v-497q0 -146 -61 -208t-191 -62q-56 0 -108.5 8.5t-89.5 21.5v86h168q71 0 102.5 26t31.5 89v52q-26 -22 -63 -34t-76 -12q-69 0 -111 27t-62 86.5t-20 156.5q0 101 20.5 161t73 90t147.5 30q107 0 239 -21zM373 143v286q-40 5 -85 5q-55 0 -77 -36t-22 -126
q0 -63 9 -97.5t29.5 -48t55.5 -13.5q41 0 90 30zM148 773h86l66 -76l70 76h86l-108 -142h-101z" />
    <glyph glyph-name="gcircumflex.salt" horiz-adv-x="575" 
d="M521 524v-497q0 -146 -61 -208t-191 -62q-56 0 -108.5 8.5t-89.5 21.5v86h168q71 0 102.5 26t31.5 89v52q-26 -22 -63 -34t-76 -12q-69 0 -111 27t-62 86.5t-20 156.5q0 101 20.5 161t73 90t147.5 30q107 0 239 -21zM373 143v286q-40 5 -85 5q-55 0 -77 -36t-22 -126
q0 -63 9 -97.5t29.5 -48t55.5 -13.5q41 0 90 30zM252 773h102l98 -142h-86l-66 76l-70 -76h-86z" />
    <glyph glyph-name="gcommaaccent.salt" horiz-adv-x="575" 
d="M521 524v-497q0 -146 -61 -208t-191 -62q-56 0 -108.5 8.5t-89.5 21.5v86h168q71 0 102.5 26t31.5 89v52q-26 -22 -63 -34t-76 -12q-69 0 -111 27t-62 86.5t-20 156.5q0 101 20.5 161t73 90t147.5 30q107 0 239 -21zM373 143v286q-40 5 -85 5q-55 0 -77 -36t-22 -126
q0 -63 9 -97.5t29.5 -48t55.5 -13.5q41 0 90 30zM256 731.5q25 32.5 91 32.5h52v-60l-28 -8q-21 -5 -31 -11.5t-14.5 -21t-4.5 -42.5h-90q0 78 25 110.5z" />
    <glyph glyph-name="gdotaccent.salt" horiz-adv-x="575" 
d="M521 524v-497q0 -146 -61 -208t-191 -62q-56 0 -108.5 8.5t-89.5 21.5v86h168q71 0 102.5 26t31.5 89v52q-26 -22 -63 -34t-76 -12q-69 0 -111 27t-62 86.5t-20 156.5q0 101 20.5 161t73 90t147.5 30q107 0 239 -21zM373 143v286q-40 5 -85 5q-55 0 -77 -36t-22 -126
q0 -63 9 -97.5t29.5 -48t55.5 -13.5q41 0 90 30zM249 649.5q-6 5.5 -6 15.5v97q0 10 5.5 16t15.5 6h69q9 0 14.5 -6.5t5.5 -15.5v-97q0 -21 -20 -21h-69q-9 0 -15 5.5z" />
    <glyph glyph-name="uni1E21.salt" horiz-adv-x="575" 
d="M521 524v-497q0 -146 -61 -208t-191 -62q-56 0 -108.5 8.5t-89.5 21.5v86h168q71 0 102.5 26t31.5 89v52q-26 -22 -63 -34t-76 -12q-69 0 -111 27t-62 86.5t-20 156.5q0 101 20.5 161t73 90t147.5 30q107 0 239 -21zM373 143v286q-40 5 -85 5q-55 0 -77 -36t-22 -126
q0 -63 9 -97.5t29.5 -48t55.5 -13.5q41 0 90 30zM156 735h281v-88h-281v88z" />
    <glyph glyph-name="m.salt" horiz-adv-x="901" 
d="M182 531q60 15 134 15q59 0 95.5 -12.5t70.5 -39.5q37 24 92 38t106 14q98 0 137.5 -50.5t39.5 -147.5v-348h-148v335q0 38 -20 58t-55 20q-31 0 -60 -9.5t-47 -24.5q4 -28 4 -47v-332h-148v335q0 37 -21 57.5t-56 20.5q-51 0 -101 -27v-386h-148v484q65 32 125 47z" />
    <glyph glyph-name="uni1E41.salt" horiz-adv-x="901" 
d="M182 531q60 15 134 15q59 0 95.5 -12.5t70.5 -39.5q37 24 92 38t106 14q98 0 137.5 -50.5t39.5 -147.5v-348h-148v335q0 38 -20 58t-55 20q-31 0 -60 -9.5t-47 -24.5q4 -28 4 -47v-332h-148v335q0 37 -21 57.5t-56 20.5q-51 0 -101 -27v-386h-148v484q65 32 125 47z
M421 649.5q-6 5.5 -6 15.5v97q0 10 5.5 16t15.5 6h69q9 0 14.5 -6.5t5.5 -15.5v-97q0 -21 -20 -21h-69q-9 0 -15 5.5z" />
    <glyph glyph-name="uni1E43.salt" horiz-adv-x="901" 
d="M182 531q60 15 134 15q59 0 95.5 -12.5t70.5 -39.5q37 24 92 38t106 14q98 0 137.5 -50.5t39.5 -147.5v-348h-148v335q0 38 -20 58t-55 20q-31 0 -60 -9.5t-47 -24.5q4 -28 4 -47v-332h-148v335q0 37 -21 57.5t-56 20.5q-51 0 -101 -27v-386h-148v484q65 32 125 47z
M403.5 -220.5q-5.5 5.5 -5.5 15.5v97q0 22 20 22h69q9 0 14.5 -6.5t5.5 -15.5v-97q0 -21 -20 -21h-69q-9 0 -14.5 5.5z" />
    <glyph glyph-name="n.salt" horiz-adv-x="588" 
d="M184 531q64 15 137 15q120 0 164 -50.5t44 -141.5v-354h-148v335q0 38 -20.5 58t-55.5 20q-28 0 -54.5 -7.5t-45.5 -19.5v-386h-148v484q63 32 127 47z" />
    <glyph glyph-name="nacute.salt" horiz-adv-x="588" 
d="M184 531q64 15 137 15q120 0 164 -50.5t44 -141.5v-354h-148v335q0 38 -20.5 58t-55.5 20q-28 0 -54.5 -7.5t-45.5 -19.5v-386h-148v484q63 32 127 47zM331 771h119l-115 -140h-87z" />
    <glyph glyph-name="ncaron.salt" horiz-adv-x="588" 
d="M184 531q64 15 137 15q120 0 164 -50.5t44 -141.5v-354h-148v335q0 38 -20.5 58t-55.5 20q-28 0 -54.5 -7.5t-45.5 -19.5v-386h-148v484q63 32 127 47zM139 773h86l66 -76l70 76h86l-108 -142h-101z" />
    <glyph glyph-name="ncommaaccent.salt" horiz-adv-x="588" 
d="M184 531q64 15 137 15q120 0 164 -50.5t44 -141.5v-354h-148v335q0 38 -20.5 58t-55.5 20q-28 0 -54.5 -7.5t-45.5 -19.5v-386h-148v484q63 32 127 47zM205 -155l27 7q21 5 31.5 11.5t15 21t4.5 42.5h90q0 -78 -25 -110.5t-91 -32.5h-52v61z" />
    <glyph glyph-name="uni1E45.salt" horiz-adv-x="588" 
d="M184 531q64 15 137 15q120 0 164 -50.5t44 -141.5v-354h-148v335q0 38 -20.5 58t-55.5 20q-28 0 -54.5 -7.5t-45.5 -19.5v-386h-148v484q63 32 127 47zM237.5 -220.5q-5.5 5.5 -5.5 15.5v97q0 22 20 22h69q9 0 14.5 -6.5t5.5 -15.5v-97q0 -21 -20 -21h-69q-9 0 -14.5 5.5
z" />
    <glyph glyph-name="uni1E47.salt" horiz-adv-x="588" 
d="M184 531q64 15 137 15q120 0 164 -50.5t44 -141.5v-354h-148v335q0 38 -20.5 58t-55.5 20q-28 0 -54.5 -7.5t-45.5 -19.5v-386h-148v484q63 32 127 47zM237.5 -220.5q-5.5 5.5 -5.5 15.5v97q0 22 20 22h69q9 0 14.5 -6.5t5.5 -15.5v-97q0 -21 -20 -21h-69q-9 0 -14.5 5.5
z" />
    <glyph glyph-name="uni1E49.salt" horiz-adv-x="588" 
d="M184 531q64 15 137 15q120 0 164 -50.5t44 -141.5v-354h-148v335q0 38 -20.5 58t-55.5 20q-28 0 -54.5 -7.5t-45.5 -19.5v-386h-148v484q63 32 127 47zM152 -125h281v-88h-281v88z" />
    <glyph glyph-name="ntilde.salt" horiz-adv-x="588" 
d="M184 531q64 15 137 15q120 0 164 -50.5t44 -141.5v-354h-148v335q0 38 -20.5 58t-55.5 20q-28 0 -54.5 -7.5t-45.5 -19.5v-386h-148v484q63 32 127 47zM144.5 728q28.5 31 72.5 31q25 0 44 -7t43 -20q22 -11 33.5 -15.5t25.5 -4.5q20 0 31 13.5t12 38.5h74
q-3 -66 -29.5 -100t-73.5 -34q-24 0 -44 7t-46 20q-18 10 -31 15t-26 5q-19 0 -30.5 -13t-13.5 -35h-74q4 68 32.5 99z" />
    <glyph glyph-name="p.salt" horiz-adv-x="575" 
d="M54 496q109 51 257 51q85 0 134 -30.5t69.5 -90.5t20.5 -156q0 -90 -15.5 -150t-57 -93.5t-115.5 -33.5q-34 0 -74.5 7.5t-70.5 21.5v-268h-148v742zM364 149.5q23 33.5 23 112.5q0 87 -21 126t-66 39q-35 0 -72 -5l-26 -2v-285q54 -19 95 -19q44 0 67 33.5z" />
    <glyph glyph-name="uni1E57.salt" horiz-adv-x="575" 
d="M54 496q109 51 257 51q85 0 134 -30.5t69.5 -90.5t20.5 -156q0 -90 -15.5 -150t-57 -93.5t-115.5 -33.5q-34 0 -74.5 7.5t-70.5 21.5v-268h-148v742zM364 149.5q23 33.5 23 112.5q0 87 -21 126t-66 39q-35 0 -72 -5l-26 -2v-285q54 -19 95 -19q44 0 67 33.5zM234 649.5
q-6 5.5 -6 15.5v97q0 10 5.5 16t15.5 6h69q9 0 14.5 -6.5t5.5 -15.5v-97q0 -21 -20 -21h-69q-9 0 -15 5.5z" />
    <glyph glyph-name="r.salt" horiz-adv-x="378" 
d="M166.5 528q60.5 16 125.5 16q34 0 72 -5v-136q-7 1 -23.5 3t-29.5 2q-58 0 -106 -19v-389h-148v484q49 28 109.5 44z" />
    <glyph glyph-name="racute.salt" horiz-adv-x="378" 
d="M166.5 528q60.5 16 125.5 16q34 0 72 -5v-136q-7 1 -23.5 3t-29.5 2q-58 0 -106 -19v-389h-148v484q49 28 109.5 44zM257 771h119l-115 -140h-87z" />
    <glyph glyph-name="rcaron.salt" horiz-adv-x="378" 
d="M166.5 528q60.5 16 125.5 16q34 0 72 -5v-136q-7 1 -23.5 3t-29.5 2q-58 0 -106 -19v-389h-148v484q49 28 109.5 44zM65 773h86l66 -76l70 76h86l-108 -142h-101z" />
    <glyph glyph-name="rcommaaccent.salt" horiz-adv-x="378" 
d="M166.5 528q60.5 16 125.5 16q34 0 72 -5v-136q-7 1 -23.5 3t-29.5 2q-58 0 -106 -19v-389h-148v484q49 28 109.5 44zM44 -155l27 7q21 5 31.5 11.5t15 21t4.5 42.5h90q0 -78 -25 -110.5t-91 -32.5h-52v61z" />
    <glyph glyph-name="uni0211.salt" horiz-adv-x="378" 
d="M166.5 528q60.5 16 125.5 16q34 0 72 -5v-136q-7 1 -23.5 3t-29.5 2q-58 0 -106 -19v-389h-148v484q49 28 109.5 44zM-13 771h119l83 -140h-87zM165 771h120l82 -140h-87z" />
    <glyph glyph-name="uni1E5B.salt" horiz-adv-x="378" 
d="M166.5 528q60.5 16 125.5 16q34 0 72 -5v-136q-7 1 -23.5 3t-29.5 2q-58 0 -106 -19v-389h-148v484q49 28 109.5 44zM77.5 -220.5q-5.5 5.5 -5.5 15.5v97q0 22 20 22h69q9 0 14.5 -6.5t5.5 -15.5v-97q0 -21 -20 -21h-69q-9 0 -14.5 5.5z" />
    <glyph glyph-name="uni0213.salt" horiz-adv-x="378" 
d="M166.5 528q60.5 16 125.5 16q34 0 72 -5v-136q-7 1 -23.5 3t-29.5 2q-58 0 -106 -19v-389h-148v484q49 28 109.5 44zM321.5 739.5q36.5 -37.5 36.5 -113.5h-69q0 44 -20 63.5t-50 19.5q-70 0 -70 -83h-70q0 77 36.5 114t103.5 37q66 0 102.5 -37.5z" />
    </font>
</defs>
</svg>
