<?xml version="1.0" standalone="no"?>
<!DOCTYPE svg PUBLIC "-//W3C//DTD SVG 1.1//EN" "http://www.w3.org/Graphics/SVG/1.1/DTD/svg11.dtd" >
<svg xmlns="http://www.w3.org/2000/svg" xmlns:xlink="http://www.w3.org/1999/xlink" version="1.1">
<metadata>
Created by FontForge 20170924 at Mon Jul 24 21:10:42 2017
 By www-data
Copyright 2017 The Exo Project Authors (https://github.com/NDISCOVER/Exo-1.0)
</metadata>
<defs>
<font id="Exo-Black" horiz-adv-x="609" >
  <font-face 
    font-family="Exo Black"
    font-weight="900"
    font-stretch="normal"
    units-per-em="1000"
    panose-1="0 0 10 0 0 0 0 0 0 0"
    ascent="800"
    descent="-200"
    x-height="539"
    cap-height="743"
    bbox="-569 -270 1355 1134"
    underline-thickness="50"
    underline-position="-100"
    unicode-range="U+000D-FB04"
  />
<missing-glyph horiz-adv-x="659" 
d="M609 549v-559h-559v559h559zM525 465h-391v-391h391v391zM330 192l-90 -90l-77 77l90 90l-90 90l77 77l90 -90l90 90l77 -77l-90 -90l90 -90l-77 -77z" />
    <glyph glyph-name="f_f" unicode="ff" horiz-adv-x="806" 
d="M693.5 602.5q-9.5 -9.5 -9.5 -33.5v-30h118v-154h-118v-385h-194v385h-219v-385h-194v385h-72v124l72 30v49q0 71 20 110.5t58 55t97 15.5q43 0 84 -5t64 -13v-141q-34 2 -78 2q-27 0 -39 -12.5t-12 -40.5v-20h219v19q0 113 46.5 162t148.5 49q32 0 64 -5.5t53 -12.5
v-139h-77q-22 0 -31.5 -9.5z" />
    <glyph glyph-name="f_f_i" unicode="ffi" horiz-adv-x="1088" 
d="M1044 0h-194v385h-176v-385h-194v385h-209v-385h-194v385h-72v124l72 30v49q0 71 20 110.5t58 55t97 15.5q43 0 84 -5t64 -13v-141q-34 2 -78 2q-27 0 -39 -12.5t-12 -40.5v-20h209v49q0 71 20 110.5t58 55t97 15.5q43 0 84 -5t64 -13v-141q-34 2 -78 2q-27 0 -39 -12.5
t-12 -40.5v-20h370v-539zM1040.5 759q5.5 -7 5.5 -18v-111q0 -23 -22 -23h-152q-11 0 -17.5 6.5t-6.5 16.5v111q0 12 6 18.5t18 6.5h152q11 0 16.5 -7z" />
    <glyph glyph-name="f_f_l" unicode="ffl" horiz-adv-x="1132" 
d="M1120 141v-141h-83q-95 0 -141 44.5t-46 133.5v433q-33 1 -95 1q-42 0 -61.5 -12.5t-19.5 -40.5v-20h118v-154h-118v-385h-194v385h-209v-385h-194v385h-72v124l72 30v49q0 71 20 110.5t58 55t97 15.5q43 0 84 -5t64 -13v-141q-34 2 -78 2q-27 0 -39 -12.5t-12 -40.5v-20
h209v29q0 79 28 123t81 61t136 17q90 0 180.5 -9t138.5 -22v-530q0 -29 10 -43.5t33 -18.5z" />
    <glyph glyph-name="fi" unicode="fi" horiz-adv-x="685" 
d="M641 0h-194v385h-176v-385h-194v385h-72v124l72 30v49q0 71 20 110.5t58 55t97 15.5q43 0 84 -5t64 -13v-141q-34 2 -78 2q-27 0 -39 -12.5t-12 -40.5v-20h370v-539zM637.5 759q5.5 -7 5.5 -18v-111q0 -23 -22 -23h-152q-11 0 -17.5 6.5t-6.5 16.5v111q0 12 6 18.5
t18 6.5h152q11 0 16.5 -7z" />
    <glyph glyph-name="fl" unicode="fl" horiz-adv-x="729" 
d="M717 141v-141h-83q-95 0 -141 44.5t-46 133.5v433q-33 1 -95 1q-42 0 -61.5 -12.5t-19.5 -40.5v-20h118v-154h-118v-385h-194v385h-72v124l72 30v29q0 79 28 123t81 61t136 17q90 0 180.5 -9t138.5 -22v-530q0 -29 10 -43.5t33 -18.5z" />
    <glyph glyph-name=".notdef" horiz-adv-x="659" 
d="M609 549v-559h-559v559h559zM525 465h-391v-391h391v391zM330 192l-90 -90l-77 77l90 90l-90 90l77 77l90 -90l90 90l77 -77l-90 -90l90 -90l-77 -77z" />
    <glyph glyph-name="NULL" horiz-adv-x="0" 
 />
    <glyph glyph-name="nonmarkingreturn" unicode="&#xd;" horiz-adv-x="250" 
 />
    <glyph glyph-name="space" unicode=" " horiz-adv-x="250" 
 />
    <glyph glyph-name="A" unicode="A" horiz-adv-x="692" 
d="M225 743h242l220 -743h-201l-30 118h-223l-29 -118h-199zM411 292l-67 286l-66 -286h133z" />
    <glyph glyph-name="Aacute" unicode="&#xc1;" horiz-adv-x="692" 
d="M225 743h242l220 -743h-201l-30 118h-223l-29 -118h-199zM411 292l-67 286l-66 -286h133zM362 934h154l-108 -143h-114z" />
    <glyph glyph-name="Abreve" unicode="&#x102;" horiz-adv-x="692" 
d="M225 743h242l220 -743h-201l-30 118h-223l-29 -118h-199zM411 292l-67 286l-66 -286h133zM229.5 819.5q-36.5 39.5 -36.5 117.5h89q0 -37 16 -53.5t39 -16.5q55 0 55 70h91q0 -157 -146 -157q-71 0 -107.5 39.5z" />
    <glyph glyph-name="uni1EAE" unicode="&#x1eae;" horiz-adv-x="692" 
d="M225 743h242l220 -743h-201l-30 118h-223l-29 -118h-199zM411 292l-67 286l-66 -286h133zM352 1064h154l-108 -143h-114zM297.5 848.5q15.5 -11.5 39.5 -11.5q55 0 55 50h91q0 -127 -146 -127q-71 0 -107.5 32t-36.5 95h89q0 -27 15.5 -38.5z" />
    <glyph glyph-name="uni1EB6" unicode="&#x1eb6;" horiz-adv-x="692" 
d="M225 743h242l220 -743h-201l-30 118h-223l-29 -118h-199zM411 292l-67 286l-66 -286h133zM229.5 819.5q-36.5 39.5 -36.5 117.5h89q0 -37 16 -53.5t39 -16.5q55 0 55 70h91q0 -157 -146 -157q-71 0 -107.5 39.5zM282.5 -229.5q-6.5 6.5 -6.5 16.5v111q0 12 6 18.5t18 6.5
h90q11 0 17 -7t6 -18v-111q0 -11 -6 -17t-17 -6h-90q-11 0 -17.5 6.5z" />
    <glyph glyph-name="uni1EB0" unicode="&#x1eb0;" horiz-adv-x="692" 
d="M225 743h242l220 -743h-201l-30 118h-223l-29 -118h-199zM411 292l-67 286l-66 -286h133zM174 1064h154l68 -143h-114zM297.5 848.5q15.5 -11.5 39.5 -11.5q55 0 55 50h91q0 -127 -146 -127q-71 0 -107.5 32t-36.5 95h89q0 -27 15.5 -38.5z" />
    <glyph glyph-name="uni1EB2" unicode="&#x1eb2;" horiz-adv-x="692" 
d="M225 743h242l220 -743h-201l-30 118h-223l-29 -118h-199zM411 292l-67 286l-66 -286h133zM313 962q29 8 29 28q0 16 -24 16q-10 0 -30 -6v74q27 9 56 9q49 0 73.5 -22t24.5 -64q0 -45 -30 -72t-99 -47v84zM229.5 792q-36.5 32 -36.5 95h89q0 -27 15.5 -38.5t39.5 -11.5
q55 0 55 50h91q0 -127 -146 -127q-71 0 -107.5 32z" />
    <glyph glyph-name="uni1EB4" unicode="&#x1eb4;" horiz-adv-x="692" 
d="M225 743h242l220 -743h-201l-30 118h-223l-29 -118h-199zM411 292l-67 286l-66 -286h133zM332 1026q28 -8 37 -8q29 0 29 26h96q-4 -47 -14.5 -72.5t-28 -35t-45.5 -9.5q-21 0 -43.5 5.5t-26.5 6.5q-24 7 -33 7q-14 0 -21.5 -6.5t-9.5 -14.5h-96q6 67 28 89.5t63 22.5
q23 0 65 -11zM297.5 848.5q15.5 -11.5 39.5 -11.5q55 0 55 50h91q0 -127 -146 -127q-71 0 -107.5 32t-36.5 95h89q0 -27 15.5 -38.5z" />
    <glyph glyph-name="Acircumflex" unicode="&#xc2;" horiz-adv-x="692" 
d="M225 743h242l220 -743h-201l-30 118h-223l-29 -118h-199zM411 292l-67 286l-66 -286h133zM282 937h131l91 -146h-111l-49 61l-50 -61h-112z" />
    <glyph glyph-name="uni1EA4" unicode="&#x1ea4;" horiz-adv-x="692" 
d="M225 743h242l220 -743h-201l-30 118h-223l-29 -118h-199zM411 292l-67 286l-66 -286h133zM616 1004l-58 -123h-114l18 123h154zM413 907l91 -116h-111l-49 31l-50 -31h-112l100 116h131z" />
    <glyph glyph-name="uni1EAC" unicode="&#x1eac;" horiz-adv-x="692" 
d="M225 743h242l220 -743h-201l-30 118h-223l-29 -118h-199zM411 292l-67 286l-66 -286h133zM282 937h131l91 -146h-111l-49 61l-50 -61h-112zM282.5 -229.5q-6.5 6.5 -6.5 16.5v111q0 12 6 18.5t18 6.5h90q11 0 17 -7t6 -18v-111q0 -11 -6 -17t-17 -6h-90q-11 0 -17.5 6.5z
" />
    <glyph glyph-name="uni1EA6" unicode="&#x1ea6;" horiz-adv-x="692" 
d="M225 743h242l220 -743h-201l-30 118h-223l-29 -118h-199zM411 292l-67 286l-66 -286h133zM228 1004l18 -123h-114l-58 123h154zM413 907l91 -116h-111l-49 31l-50 -31h-112l100 116h131z" />
    <glyph glyph-name="uni1EA8" unicode="&#x1ea8;" horiz-adv-x="692" 
d="M225 743h242l220 -743h-201l-30 118h-223l-29 -118h-199zM411 292l-67 286l-66 -286h133zM469 932q19 6 19 22q0 14 -14 14q-10 0 -30 -6v64q27 9 56 9q78 0 78 -68q0 -46 -26 -74.5t-83 -44.5v84zM282 907h131l91 -116h-111l-49 31l-50 -31h-112z" />
    <glyph glyph-name="uni1EAA" unicode="&#x1eaa;" horiz-adv-x="692" 
d="M225 743h242l220 -743h-201l-30 118h-223l-29 -118h-199zM411 292l-67 286l-66 -286h133zM299.5 1053.5q16.5 -3.5 31.5 -7.5q28 -8 38 -8q29 0 29 26h96q-4 -47 -14.5 -72.5t-28 -35t-45.5 -9.5q-24 0 -48 5.5t-28 6.5q-28 7 -37 7q-16 0 -21 -21h-96q6 67 28 89.5
t63 22.5q16 0 32.5 -3.5zM504 791h-111l-49 31l-50 -31h-112l100 116h131z" />
    <glyph glyph-name="uni0200" unicode="&#x200;" horiz-adv-x="692" 
d="M225 743h242l220 -743h-201l-30 118h-223l-29 -118h-199zM411 292l-67 286l-66 -286h133zM95 934h154l68 -143h-114zM295 934h154l68 -143h-114z" />
    <glyph glyph-name="Adieresis" unicode="&#xc4;" horiz-adv-x="692" 
d="M225 743h242l220 -743h-201l-30 118h-223l-29 -118h-199zM411 292l-67 286l-66 -286h133zM177.5 793.5q-6.5 6.5 -6.5 16.5v111q0 12 6 18.5t18 6.5h90q11 0 17 -7t6 -18v-111q0 -11 -6 -17t-17 -6h-90q-11 0 -17.5 6.5zM374.5 793.5q-6.5 6.5 -6.5 16.5v111q0 12 6 18.5
t18 6.5h90q11 0 17 -7t6 -18v-111q0 -11 -6 -17t-17 -6h-90q-11 0 -17.5 6.5z" />
    <glyph glyph-name="uni1EA0" unicode="&#x1ea0;" horiz-adv-x="692" 
d="M225 743h242l220 -743h-201l-30 118h-223l-29 -118h-199zM411 292l-67 286l-66 -286h133zM282.5 -229.5q-6.5 6.5 -6.5 16.5v111q0 12 6 18.5t18 6.5h90q11 0 17 -7t6 -18v-111q0 -11 -6 -17t-17 -6h-90q-11 0 -17.5 6.5z" />
    <glyph glyph-name="Agrave" unicode="&#xc0;" horiz-adv-x="692" 
d="M225 743h242l220 -743h-201l-30 118h-223l-29 -118h-199zM411 292l-67 286l-66 -286h133zM204 934h154l68 -143h-114z" />
    <glyph glyph-name="uni1EA2" unicode="&#x1ea2;" horiz-adv-x="692" 
d="M225 743h242l220 -743h-201l-30 118h-223l-29 -118h-199zM411 292l-67 286l-66 -286h133zM310 852q29 8 29 28q0 16 -24 16q-10 0 -30 -6v74q27 9 56 9q49 0 73.5 -22t24.5 -64q0 -45 -30 -72t-99 -47v84z" />
    <glyph glyph-name="uni0202" unicode="&#x202;" horiz-adv-x="692" 
d="M225 743h242l220 -743h-201l-30 118h-223l-29 -118h-199zM411 292l-67 286l-66 -286h133zM454.5 900.5q36.5 -39.5 36.5 -117.5h-89q0 37 -16 53.5t-39 16.5q-55 0 -55 -70h-91q0 157 146 157q71 0 107.5 -39.5z" />
    <glyph glyph-name="Amacron" unicode="&#x100;" horiz-adv-x="692" 
d="M225 743h242l220 -743h-201l-30 118h-223l-29 -118h-199zM411 292l-67 286l-66 -286h133zM193 905h292v-114h-292v114z" />
    <glyph glyph-name="Aogonek" unicode="&#x104;" horiz-adv-x="692" 
d="M225 743h242l220 -743h-201l-30 118h-223l-29 -118h-199zM411 292l-67 286l-66 -286h133zM450.5 -168.5q-25.5 27.5 -25.5 64.5q0 36 16.5 62t44.5 42h69q-22 -15 -30.5 -28.5t-8.5 -30.5q0 -19 12.5 -30.5t29.5 -11.5h10v-90q-10 -5 -36 -5q-56 0 -81.5 27.5z" />
    <glyph glyph-name="Aring" unicode="&#xc5;" horiz-adv-x="692" 
d="M225 743h242l220 -743h-201l-30 118h-223l-29 -118h-199zM411 292l-67 286l-66 -286h133zM245.5 796.5q-32.5 26.5 -32.5 90.5t33 91t99 27q67 0 99 -27t32 -91t-32 -90.5t-99 -26.5t-99.5 26.5zM378 849.5q10 10.5 10 37.5t-10 38t-33 11t-33.5 -11t-10.5 -38
q0 -26 10.5 -37t33.5 -11t33 10.5z" />
    <glyph glyph-name="Aringacute" unicode="&#x1fa;" horiz-adv-x="692" 
d="M245.5 796.5q-32.5 26.5 -32.5 90.5q0 51 21.5 78.5t64.5 35.5l63 133h154l-104 -138q64 -21 64 -109q0 -64 -32 -90.5t-99 -26.5t-99.5 26.5zM378 849.5q10 10.5 10 37.5t-10 38t-33 11t-33.5 -11t-10.5 -38q0 -26 10.5 -37t33.5 -11t33 10.5zM687 0h-201l-30 118h-223
l-29 -118h-199l220 743h242zM411 292l-67 286l-66 -286h133z" />
    <glyph glyph-name="Atilde" unicode="&#xc3;" horiz-adv-x="692" 
d="M225 743h242l220 -743h-201l-30 118h-223l-29 -118h-199zM411 292l-67 286l-66 -286h133zM180.5 887.5q29.5 34.5 76.5 34.5q26 0 45.5 -6t40.5 -16q17 -8 29 -11.5t25 -3.5q28 0 31 44h96q-7 -150 -108 -150q-25 0 -46.5 6t-44.5 17q-3 1 -19.5 7.5t-30.5 6.5
q-27 0 -33 -39h-96q5 76 34.5 110.5z" />
    <glyph glyph-name="AE" unicode="&#xc6;" horiz-adv-x="992" 
d="M519 19.5q-46 25.5 -55 91.5l-1 7h-202l-67 -118h-189l264 514q45 88 97.5 138t120 70.5t162.5 20.5q158 0 307 -16v-163h-267q-28 0 -40 -12t-12 -36v-58l269 -10v-154l-269 -10v-56q0 -25 9 -36t21 -13.5t32 -2.5h257v-162q-153 -20 -297 -20q-94 0 -140 25.5zM463 282
v245l-117 -245h117z" />
    <glyph glyph-name="AEacute" unicode="&#x1fc;" horiz-adv-x="992" 
d="M519 19.5q-46 25.5 -55 91.5l-1 7h-202l-67 -118h-189l264 514q45 88 97.5 138t120 70.5t162.5 20.5q158 0 307 -16v-163h-267q-28 0 -40 -12t-12 -36v-58l269 -10v-154l-269 -10v-56q0 -25 9 -36t21 -13.5t32 -2.5h257v-162q-153 -20 -297 -20q-94 0 -140 25.5zM463 282
v245l-117 -245h117zM552 934h154l-108 -143h-114z" />
    <glyph glyph-name="B" unicode="B" horiz-adv-x="643" 
d="M55 743h308q225 0 225 -198q0 -65 -25.5 -105.5t-76.5 -53.5q56 -14 90.5 -60.5t34.5 -121.5q0 -108 -57.5 -156t-175.5 -48h-323v743zM361 451q21 0 32 16.5t11 42.5q0 31 -12.5 45t-30.5 14h-112v-118h112zM372 174q26 0 40.5 17.5t14.5 47.5t-14.5 47.5t-40.5 17.5
h-123v-130h123z" />
    <glyph glyph-name="uni1E02" unicode="&#x1e02;" horiz-adv-x="643" 
d="M55 743h308q225 0 225 -198q0 -65 -25.5 -105.5t-76.5 -53.5q56 -14 90.5 -60.5t34.5 -121.5q0 -108 -57.5 -156t-175.5 -48h-323v743zM361 451q21 0 32 16.5t11 42.5q0 31 -12.5 45t-30.5 14h-112v-118h112zM372 174q26 0 40.5 17.5t14.5 47.5t-14.5 47.5t-40.5 17.5
h-123v-130h123zM228.5 800.5q-6.5 6.5 -6.5 16.5v111q0 12 6 18.5t18 6.5h90q11 0 17 -7t6 -18v-111q0 -11 -6 -17t-17 -6h-90q-11 0 -17.5 6.5z" />
    <glyph glyph-name="C" unicode="C" horiz-adv-x="589" 
d="M158.5 24q-58.5 30 -90.5 113t-32 237q0 149 33.5 231.5t92.5 113.5t147 31q83 0 144.5 -12t99.5 -28v-151q-33 7 -86 12t-115 5q-49 0 -74 -14.5t-36.5 -57.5t-11.5 -132q0 -85 9.5 -127t35.5 -59.5t79 -17.5q131 0 199 9v-151q-80 -32 -244 -32q-92 0 -150.5 30z" />
    <glyph glyph-name="Cacute" unicode="&#x106;" horiz-adv-x="589" 
d="M158.5 24q-58.5 30 -90.5 113t-32 237q0 149 33.5 231.5t92.5 113.5t147 31q83 0 144.5 -12t99.5 -28v-151q-33 7 -86 12t-115 5q-49 0 -74 -14.5t-36.5 -57.5t-11.5 -132q0 -85 9.5 -127t35.5 -59.5t79 -17.5q131 0 199 9v-151q-80 -32 -244 -32q-92 0 -150.5 30z
M328 934h154l-108 -143h-114z" />
    <glyph glyph-name="Ccaron" unicode="&#x10c;" horiz-adv-x="589" 
d="M158.5 24q-58.5 30 -90.5 113t-32 237q0 149 33.5 231.5t92.5 113.5t147 31q83 0 144.5 -12t99.5 -28v-151q-33 7 -86 12t-115 5q-49 0 -74 -14.5t-36.5 -57.5t-11.5 -132q0 -85 9.5 -127t35.5 -59.5t79 -17.5q131 0 199 9v-151q-80 -32 -244 -32q-92 0 -150.5 30z
M150 937h111l49 -61l50 61h112l-100 -146h-131z" />
    <glyph glyph-name="Ccedilla" unicode="&#xc7;" horiz-adv-x="589" 
d="M278 561.5q-25 -14.5 -36.5 -57.5t-11.5 -132q0 -85 9.5 -127t35.5 -59.5t79 -17.5q131 0 199 9v-151q-58 -24 -155 -29l-28 -46q27 -4 45 -21t18 -47q0 -41 -28 -63.5t-85 -22.5h-59v79l15 3q32 6 32 27q0 23 -32 32l34 56h-1q-92 0 -150.5 30t-90.5 113t-32 237
q0 149 33.5 231.5t92.5 113.5t147 31q83 0 144.5 -12t99.5 -28v-151q-33 7 -86 12t-115 5q-49 0 -74 -14.5z" />
    <glyph glyph-name="uni1E08" unicode="&#x1e08;" horiz-adv-x="589" 
d="M374 791h-114l68 143h154zM278 561.5q-25 -14.5 -36.5 -57.5t-11.5 -132q0 -85 9.5 -127t35.5 -59.5t79 -17.5q131 0 199 9v-151q-58 -24 -155 -29l-28 -46q27 -4 45 -21t18 -47q0 -41 -28 -63.5t-85 -22.5h-59v79l15 3q32 6 32 27q0 23 -32 32l34 56h-1q-92 0 -150.5 30
t-90.5 113t-32 237q0 149 33.5 231.5t92.5 113.5t147 31q83 0 144.5 -12t99.5 -28v-151q-33 7 -86 12t-115 5q-49 0 -74 -14.5z" />
    <glyph glyph-name="Ccircumflex" unicode="&#x108;" horiz-adv-x="589" 
d="M158.5 24q-58.5 30 -90.5 113t-32 237q0 149 33.5 231.5t92.5 113.5t147 31q83 0 144.5 -12t99.5 -28v-151q-33 7 -86 12t-115 5q-49 0 -74 -14.5t-36.5 -57.5t-11.5 -132q0 -85 9.5 -127t35.5 -59.5t79 -17.5q131 0 199 9v-151q-80 -32 -244 -32q-92 0 -150.5 30z
M248 937h131l91 -146h-111l-49 61l-50 -61h-112z" />
    <glyph glyph-name="Cdotaccent" unicode="&#x10a;" horiz-adv-x="589" 
d="M158.5 24q-58.5 30 -90.5 113t-32 237q0 149 33.5 231.5t92.5 113.5t147 31q83 0 144.5 -12t99.5 -28v-151q-33 7 -86 12t-115 5q-49 0 -74 -14.5t-36.5 -57.5t-11.5 -132q0 -85 9.5 -127t35.5 -59.5t79 -17.5q131 0 199 9v-151q-80 -32 -244 -32q-92 0 -150.5 30z
M244.5 800.5q-6.5 6.5 -6.5 16.5v111q0 12 6 18.5t18 6.5h90q11 0 17 -7t6 -18v-111q0 -11 -6 -17t-17 -6h-90q-11 0 -17.5 6.5z" />
    <glyph glyph-name="D" unicode="D" horiz-adv-x="688" 
d="M55 743h328q150 0 209.5 -98.5t59.5 -273.5q0 -194 -66 -282.5t-203 -88.5h-328v743zM363 174q54 0 74.5 45t20.5 152q0 85 -11 127.5t-31 56.5t-53 14h-114v-395h114z" />
    <glyph glyph-name="Eth" unicode="&#xd0;" horiz-adv-x="688" 
d="M592.5 644.5q59.5 -98.5 59.5 -273.5q0 -194 -66 -282.5t-203 -88.5h-328v311h-45v124h45v308h328q150 0 209.5 -98.5zM437.5 219q20.5 45 20.5 152q0 85 -11 127.5t-31 56.5t-53 14h-114v-134h85v-124h-85v-137h114q54 0 74.5 45z" />
    <glyph glyph-name="Dcaron" unicode="&#x10e;" horiz-adv-x="688" 
d="M55 743h328q150 0 209.5 -98.5t59.5 -273.5q0 -194 -66 -282.5t-203 -88.5h-328v743zM363 174q54 0 74.5 45t20.5 152q0 85 -11 127.5t-31 56.5t-53 14h-114v-395h114zM174 937h111l49 -61l50 61h112l-100 -146h-131z" />
    <glyph glyph-name="Dcroat" unicode="&#x110;" horiz-adv-x="688" 
d="M592.5 644.5q59.5 -98.5 59.5 -273.5q0 -194 -66 -282.5t-203 -88.5h-328v311h-45v124h45v308h328q150 0 209.5 -98.5zM437.5 219q20.5 45 20.5 152q0 85 -11 127.5t-31 56.5t-53 14h-114v-134h85v-124h-85v-137h114q54 0 74.5 45z" />
    <glyph glyph-name="uni1E0A" unicode="&#x1e0a;" horiz-adv-x="688" 
d="M55 743h328q150 0 209.5 -98.5t59.5 -273.5q0 -194 -66 -282.5t-203 -88.5h-328v743zM363 174q54 0 74.5 45t20.5 152q0 85 -11 127.5t-31 56.5t-53 14h-114v-395h114zM268.5 800.5q-6.5 6.5 -6.5 16.5v111q0 12 6 18.5t18 6.5h90q11 0 17 -7t6 -18v-111q0 -11 -6 -17
t-17 -6h-90q-11 0 -17.5 6.5z" />
    <glyph glyph-name="uni1E0C" unicode="&#x1e0c;" horiz-adv-x="688" 
d="M55 743h328q150 0 209.5 -98.5t59.5 -273.5q0 -194 -66 -282.5t-203 -88.5h-328v743zM363 174q54 0 74.5 45t20.5 152q0 85 -11 127.5t-31 56.5t-53 14h-114v-395h114zM228.5 -229.5q-6.5 6.5 -6.5 16.5v111q0 12 6 18.5t18 6.5h90q11 0 17 -7t6 -18v-111q0 -11 -6 -17
t-17 -6h-90q-11 0 -17.5 6.5z" />
    <glyph glyph-name="uni1E0E" unicode="&#x1e0e;" horiz-adv-x="688" 
d="M55 743h328q150 0 209.5 -98.5t59.5 -273.5q0 -194 -66 -282.5t-203 -88.5h-328v743zM363 174q54 0 74.5 45t20.5 152q0 85 -11 127.5t-31 56.5t-53 14h-114v-395h114zM149 -115h292v-114h-292v114z" />
    <glyph glyph-name="E" unicode="E" horiz-adv-x="604" 
d="M55 171v388q0 99 54.5 141.5t130.5 42.5q180 0 328 -15v-164h-268q-51 0 -51 -44v-62l269 -10v-154l-269 -10v-56q0 -26 11.5 -39t31.5 -13h276v-164q-62 -9 -149.5 -13.5t-167.5 -4.5q-196 0 -196 177z" />
    <glyph glyph-name="Eacute" unicode="&#xc9;" horiz-adv-x="604" 
d="M55 171v388q0 99 54.5 141.5t130.5 42.5q180 0 328 -15v-164h-268q-51 0 -51 -44v-62l269 -10v-154l-269 -10v-56q0 -26 11.5 -39t31.5 -13h276v-164q-62 -9 -149.5 -13.5t-167.5 -4.5q-196 0 -196 177zM332 934h154l-108 -143h-114z" />
    <glyph glyph-name="Ebreve" unicode="&#x114;" horiz-adv-x="604" 
d="M55 171v388q0 99 54.5 141.5t130.5 42.5q180 0 328 -15v-164h-268q-51 0 -51 -44v-62l269 -10v-154l-269 -10v-56q0 -26 11.5 -39t31.5 -13h276v-164q-62 -9 -149.5 -13.5t-167.5 -4.5q-196 0 -196 177zM199.5 819.5q-36.5 39.5 -36.5 117.5h89q0 -37 16 -53.5t39 -16.5
q55 0 55 70h91q0 -157 -146 -157q-71 0 -107.5 39.5z" />
    <glyph glyph-name="Ecaron" unicode="&#x11a;" horiz-adv-x="604" 
d="M55 171v388q0 99 54.5 141.5t130.5 42.5q180 0 328 -15v-164h-268q-51 0 -51 -44v-62l269 -10v-154l-269 -10v-56q0 -26 11.5 -39t31.5 -13h276v-164q-62 -9 -149.5 -13.5t-167.5 -4.5q-196 0 -196 177zM154 937h111l49 -61l50 61h112l-100 -146h-131z" />
    <glyph glyph-name="uni1E1C" unicode="&#x1e1c;" horiz-adv-x="604" 
d="M199.5 819.5q-36.5 39.5 -36.5 117.5h89q0 -37 16 -53.5t39 -16.5q55 0 55 70h91q0 -157 -146 -157q-71 0 -107.5 39.5zM249 520v-62l269 -10v-154l-269 -10v-56q0 -26 11.5 -39t31.5 -13h276v-164q-58 -9 -169 -14l-28 -47q27 -4 45 -21t18 -47q0 -41 -28 -63.5
t-85 -22.5h-59v79l15 3q32 6 32 27q0 23 -32 32l35 57q-21 -1 -61 -1q-196 0 -196 177v388q0 99 54.5 141.5t130.5 42.5q180 0 328 -15v-164h-268q-51 0 -51 -44z" />
    <glyph glyph-name="Ecircumflex" unicode="&#xca;" horiz-adv-x="604" 
d="M55 171v388q0 99 54.5 141.5t130.5 42.5q180 0 328 -15v-164h-268q-51 0 -51 -44v-62l269 -10v-154l-269 -10v-56q0 -26 11.5 -39t31.5 -13h276v-164q-62 -9 -149.5 -13.5t-167.5 -4.5q-196 0 -196 177zM252 937h131l91 -146h-111l-49 61l-50 -61h-112z" />
    <glyph glyph-name="uni1EBE" unicode="&#x1ebe;" horiz-adv-x="604" 
d="M55 171v388q0 99 54.5 141.5t130.5 42.5q180 0 328 -15v-164h-268q-51 0 -51 -44v-62l269 -10v-154l-269 -10v-56q0 -26 11.5 -39t31.5 -13h276v-164q-62 -9 -149.5 -13.5t-167.5 -4.5q-196 0 -196 177zM586 1004l-58 -123h-114l18 123h154zM383 907l91 -116h-111l-49 31
l-50 -31h-112l100 116h131z" />
    <glyph glyph-name="uni1EC6" unicode="&#x1ec6;" horiz-adv-x="604" 
d="M55 171v388q0 99 54.5 141.5t130.5 42.5q180 0 328 -15v-164h-268q-51 0 -51 -44v-62l269 -10v-154l-269 -10v-56q0 -26 11.5 -39t31.5 -13h276v-164q-62 -9 -149.5 -13.5t-167.5 -4.5q-196 0 -196 177zM252 937h131l91 -146h-111l-49 61l-50 -61h-112zM279.5 -229.5
q-6.5 6.5 -6.5 16.5v111q0 12 6 18.5t18 6.5h90q11 0 17 -7t6 -18v-111q0 -11 -6 -17t-17 -6h-90q-11 0 -17.5 6.5z" />
    <glyph glyph-name="uni1EC0" unicode="&#x1ec0;" horiz-adv-x="604" 
d="M55 171v388q0 99 54.5 141.5t130.5 42.5q180 0 328 -15v-164h-268q-51 0 -51 -44v-62l269 -10v-154l-269 -10v-56q0 -26 11.5 -39t31.5 -13h276v-164q-62 -9 -149.5 -13.5t-167.5 -4.5q-196 0 -196 177zM198 1004l18 -123h-114l-58 123h154zM383 907l91 -116h-111l-49 31
l-50 -31h-112l100 116h131z" />
    <glyph glyph-name="uni1EC2" unicode="&#x1ec2;" horiz-adv-x="604" 
d="M55 171v388q0 99 54.5 141.5t130.5 42.5q180 0 328 -15v-164h-268q-51 0 -51 -44v-62l269 -10v-154l-269 -10v-56q0 -26 11.5 -39t31.5 -13h276v-164q-62 -9 -149.5 -13.5t-167.5 -4.5q-196 0 -196 177zM439 932q19 6 19 22q0 14 -14 14q-10 0 -30 -6v64q27 9 56 9
q78 0 78 -68q0 -46 -26 -74.5t-83 -44.5v84zM252 907h131l91 -116h-111l-49 31l-50 -31h-112z" />
    <glyph glyph-name="uni1EC4" unicode="&#x1ec4;" horiz-adv-x="604" 
d="M55 171v388q0 99 54.5 141.5t130.5 42.5q180 0 328 -15v-164h-268q-51 0 -51 -44v-62l269 -10v-154l-269 -10v-56q0 -26 11.5 -39t31.5 -13h276v-164q-62 -9 -149.5 -13.5t-167.5 -4.5q-196 0 -196 177zM269.5 1053.5q16.5 -3.5 31.5 -7.5q28 -8 38 -8q29 0 29 26h96
q-4 -47 -14.5 -72.5t-28 -35t-45.5 -9.5q-24 0 -48 5.5t-28 6.5q-28 7 -37 7q-16 0 -21 -21h-96q6 67 28 89.5t63 22.5q16 0 32.5 -3.5zM474 791h-111l-49 31l-50 -31h-112l100 116h131z" />
    <glyph glyph-name="uni0204" unicode="&#x204;" horiz-adv-x="604" 
d="M55 171v388q0 99 54.5 141.5t130.5 42.5q180 0 328 -15v-164h-268q-51 0 -51 -44v-62l269 -10v-154l-269 -10v-56q0 -26 11.5 -39t31.5 -13h276v-164q-62 -9 -149.5 -13.5t-167.5 -4.5q-196 0 -196 177zM65 934h154l68 -143h-114zM265 934h154l68 -143h-114z" />
    <glyph glyph-name="Edieresis" unicode="&#xcb;" horiz-adv-x="604" 
d="M55 171v388q0 99 54.5 141.5t130.5 42.5q180 0 328 -15v-164h-268q-51 0 -51 -44v-62l269 -10v-154l-269 -10v-56q0 -26 11.5 -39t31.5 -13h276v-164q-62 -9 -149.5 -13.5t-167.5 -4.5q-196 0 -196 177zM147.5 793.5q-6.5 6.5 -6.5 16.5v111q0 12 6 18.5t18 6.5h90
q11 0 17 -7t6 -18v-111q0 -11 -6 -17t-17 -6h-90q-11 0 -17.5 6.5zM344.5 793.5q-6.5 6.5 -6.5 16.5v111q0 12 6 18.5t18 6.5h90q11 0 17 -7t6 -18v-111q0 -11 -6 -17t-17 -6h-90q-11 0 -17.5 6.5z" />
    <glyph glyph-name="Edotaccent" unicode="&#x116;" horiz-adv-x="604" 
d="M55 171v388q0 99 54.5 141.5t130.5 42.5q180 0 328 -15v-164h-268q-51 0 -51 -44v-62l269 -10v-154l-269 -10v-56q0 -26 11.5 -39t31.5 -13h276v-164q-62 -9 -149.5 -13.5t-167.5 -4.5q-196 0 -196 177zM248.5 800.5q-6.5 6.5 -6.5 16.5v111q0 12 6 18.5t18 6.5h90
q11 0 17 -7t6 -18v-111q0 -11 -6 -17t-17 -6h-90q-11 0 -17.5 6.5z" />
    <glyph glyph-name="uni1EB8" unicode="&#x1eb8;" horiz-adv-x="604" 
d="M55 171v388q0 99 54.5 141.5t130.5 42.5q180 0 328 -15v-164h-268q-51 0 -51 -44v-62l269 -10v-154l-269 -10v-56q0 -26 11.5 -39t31.5 -13h276v-164q-62 -9 -149.5 -13.5t-167.5 -4.5q-196 0 -196 177zM279.5 -229.5q-6.5 6.5 -6.5 16.5v111q0 12 6 18.5t18 6.5h90
q11 0 17 -7t6 -18v-111q0 -11 -6 -17t-17 -6h-90q-11 0 -17.5 6.5z" />
    <glyph glyph-name="Egrave" unicode="&#xc8;" horiz-adv-x="604" 
d="M55 171v388q0 99 54.5 141.5t130.5 42.5q180 0 328 -15v-164h-268q-51 0 -51 -44v-62l269 -10v-154l-269 -10v-56q0 -26 11.5 -39t31.5 -13h276v-164q-62 -9 -149.5 -13.5t-167.5 -4.5q-196 0 -196 177zM174 934h154l68 -143h-114z" />
    <glyph glyph-name="uni1EBA" unicode="&#x1eba;" horiz-adv-x="604" 
d="M55 171v388q0 99 54.5 141.5t130.5 42.5q180 0 328 -15v-164h-268q-51 0 -51 -44v-62l269 -10v-154l-269 -10v-56q0 -26 11.5 -39t31.5 -13h276v-164q-62 -9 -149.5 -13.5t-167.5 -4.5q-196 0 -196 177zM280 852q29 8 29 28q0 16 -24 16q-10 0 -30 -6v74q27 9 56 9
q49 0 73.5 -22t24.5 -64q0 -45 -30 -72t-99 -47v84z" />
    <glyph glyph-name="uni0206" unicode="&#x206;" horiz-adv-x="604" 
d="M55 171v388q0 99 54.5 141.5t130.5 42.5q180 0 328 -15v-164h-268q-51 0 -51 -44v-62l269 -10v-154l-269 -10v-56q0 -26 11.5 -39t31.5 -13h276v-164q-62 -9 -149.5 -13.5t-167.5 -4.5q-196 0 -196 177zM424.5 900.5q36.5 -39.5 36.5 -117.5h-89q0 37 -16 53.5t-39 16.5
q-55 0 -55 -70h-91q0 157 146 157q71 0 107.5 -39.5z" />
    <glyph glyph-name="Emacron" unicode="&#x112;" horiz-adv-x="604" 
d="M55 171v388q0 99 54.5 141.5t130.5 42.5q180 0 328 -15v-164h-268q-51 0 -51 -44v-62l269 -10v-154l-269 -10v-56q0 -26 11.5 -39t31.5 -13h276v-164q-62 -9 -149.5 -13.5t-167.5 -4.5q-196 0 -196 177zM163 905h292v-114h-292v114z" />
    <glyph glyph-name="uni1E16" unicode="&#x1e16;" horiz-adv-x="604" 
d="M55 171v388q0 99 54.5 141.5t130.5 42.5q180 0 328 -15v-164h-268q-51 0 -51 -44v-62l269 -10v-154l-269 -10v-56q0 -26 11.5 -39t31.5 -13h276v-164q-62 -9 -149.5 -13.5t-167.5 -4.5q-196 0 -196 177zM163 905h292v-114h-292v114zM319 1084h154l-108 -143h-114z" />
    <glyph glyph-name="uni1E14" unicode="&#x1e14;" horiz-adv-x="604" 
d="M55 171v388q0 99 54.5 141.5t130.5 42.5q180 0 328 -15v-164h-268q-51 0 -51 -44v-62l269 -10v-154l-269 -10v-56q0 -26 11.5 -39t31.5 -13h276v-164q-62 -9 -149.5 -13.5t-167.5 -4.5q-196 0 -196 177zM163 905h292v-114h-292v114zM144 1084h154l68 -143h-114z" />
    <glyph glyph-name="Eogonek" unicode="&#x118;" horiz-adv-x="604" 
d="M581 -89v-90q-10 -5 -36 -5q-56 0 -81.5 27.5t-25.5 64.5q0 31 13 55t35 40q-114 -9 -235 -9q-196 0 -196 177v388q0 99 54.5 141.5t130.5 42.5q180 0 328 -15v-164h-268q-51 0 -51 -44v-62l269 -10v-154l-269 -10v-56q0 -26 11.5 -39t31.5 -13h276v-164
q-22 -15 -30.5 -28.5t-8.5 -30.5q0 -19 12.5 -30.5t29.5 -11.5h10z" />
    <glyph glyph-name="uni1EBC" unicode="&#x1ebc;" horiz-adv-x="604" 
d="M55 171v388q0 99 54.5 141.5t130.5 42.5q180 0 328 -15v-164h-268q-51 0 -51 -44v-62l269 -10v-154l-269 -10v-56q0 -26 11.5 -39t31.5 -13h276v-164q-62 -9 -149.5 -13.5t-167.5 -4.5q-196 0 -196 177zM150.5 887.5q29.5 34.5 76.5 34.5q26 0 45.5 -6t40.5 -16
q17 -8 29 -11.5t25 -3.5q28 0 31 44h96q-7 -150 -108 -150q-25 0 -46.5 6t-44.5 17q-3 1 -19.5 7.5t-30.5 6.5q-27 0 -33 -39h-96q5 76 34.5 110.5z" />
    <glyph glyph-name="F" unicode="F" horiz-adv-x="593" 
d="M55 559q0 99 54.5 141.5t130.5 42.5q211 0 328 -16v-163h-272q-24 0 -35.5 -12.5t-11.5 -29.5v-84l269 -10v-154l-269 -10v-264h-194v559z" />
    <glyph glyph-name="uni1E1E" unicode="&#x1e1e;" horiz-adv-x="593" 
d="M55 559q0 99 54.5 141.5t130.5 42.5q211 0 328 -16v-163h-272q-24 0 -35.5 -12.5t-11.5 -29.5v-84l269 -10v-154l-269 -10v-264h-194v559zM248.5 800.5q-6.5 6.5 -6.5 16.5v111q0 12 6 18.5t18 6.5h90q11 0 17 -7t6 -18v-111q0 -11 -6 -17t-17 -6h-90q-11 0 -17.5 6.5z
" />
    <glyph glyph-name="G" unicode="G" horiz-adv-x="675" 
d="M84 94.5q-48 99.5 -48 275.5q0 126 23 207.5t86 127t180 45.5q80 0 132.5 -8.5t125.5 -28.5v-151q-90 14 -221 14q-59 0 -86.5 -17.5t-36.5 -59.5t-9 -129q0 -82 9 -124t29 -57.5t56 -15.5q63 0 110 10v96h-103v154q31 4 82 7t93 3q52 0 114 -2v-441h-146l-26 49
q-30 -20 -81 -37t-108 -17q-127 0 -175 99.5z" />
    <glyph glyph-name="Gbreve" unicode="&#x11e;" horiz-adv-x="675" 
d="M84 94.5q-48 99.5 -48 275.5q0 126 23 207.5t86 127t180 45.5q80 0 132.5 -8.5t125.5 -28.5v-151q-90 14 -221 14q-59 0 -86.5 -17.5t-36.5 -59.5t-9 -129q0 -82 9 -124t29 -57.5t56 -15.5q63 0 110 10v96h-103v154q31 4 82 7t93 3q52 0 114 -2v-441h-146l-26 49
q-30 -20 -81 -37t-108 -17q-127 0 -175 99.5zM209.5 819.5q-36.5 39.5 -36.5 117.5h89q0 -37 16 -53.5t39 -16.5q55 0 55 70h91q0 -157 -146 -157q-71 0 -107.5 39.5z" />
    <glyph glyph-name="Gcaron" unicode="&#x1e6;" horiz-adv-x="675" 
d="M84 94.5q-48 99.5 -48 275.5q0 126 23 207.5t86 127t180 45.5q80 0 132.5 -8.5t125.5 -28.5v-151q-90 14 -221 14q-59 0 -86.5 -17.5t-36.5 -59.5t-9 -129q0 -82 9 -124t29 -57.5t56 -15.5q63 0 110 10v96h-103v154q31 4 82 7t93 3q52 0 114 -2v-441h-146l-26 49
q-30 -20 -81 -37t-108 -17q-127 0 -175 99.5zM164 937h111l49 -61l50 61h112l-100 -146h-131z" />
    <glyph glyph-name="Gcircumflex" unicode="&#x11c;" horiz-adv-x="675" 
d="M84 94.5q-48 99.5 -48 275.5q0 126 23 207.5t86 127t180 45.5q80 0 132.5 -8.5t125.5 -28.5v-151q-90 14 -221 14q-59 0 -86.5 -17.5t-36.5 -59.5t-9 -129q0 -82 9 -124t29 -57.5t56 -15.5q63 0 110 10v96h-103v154q31 4 82 7t93 3q52 0 114 -2v-441h-146l-26 49
q-30 -20 -81 -37t-108 -17q-127 0 -175 99.5zM262 937h131l91 -146h-111l-49 61l-50 -61h-112z" />
    <glyph glyph-name="Gcommaaccent" unicode="&#x122;" horiz-adv-x="675" 
d="M84 94.5q-48 99.5 -48 275.5q0 126 23 207.5t86 127t180 45.5q80 0 132.5 -8.5t125.5 -28.5v-151q-90 14 -221 14q-59 0 -86.5 -17.5t-36.5 -59.5t-9 -129q0 -82 9 -124t29 -57.5t56 -15.5q63 0 110 10v96h-103v154q31 4 82 7t93 3q52 0 114 -2v-441h-146l-26 49
q-30 -20 -81 -37t-108 -17q-127 0 -175 99.5zM271 -146l26 9q24 8 31.5 19t7.5 39h117q0 -78 -26.5 -112t-94.5 -34h-61v79z" />
    <glyph glyph-name="Gdotaccent" unicode="&#x120;" horiz-adv-x="675" 
d="M84 94.5q-48 99.5 -48 275.5q0 126 23 207.5t86 127t180 45.5q80 0 132.5 -8.5t125.5 -28.5v-151q-90 14 -221 14q-59 0 -86.5 -17.5t-36.5 -59.5t-9 -129q0 -82 9 -124t29 -57.5t56 -15.5q63 0 110 10v96h-103v154q31 4 82 7t93 3q52 0 114 -2v-441h-146l-26 49
q-30 -20 -81 -37t-108 -17q-127 0 -175 99.5zM258.5 800.5q-6.5 6.5 -6.5 16.5v111q0 12 6 18.5t18 6.5h90q11 0 17 -7t6 -18v-111q0 -11 -6 -17t-17 -6h-90q-11 0 -17.5 6.5z" />
    <glyph glyph-name="uni1E20" unicode="&#x1e20;" horiz-adv-x="675" 
d="M84 94.5q-48 99.5 -48 275.5q0 126 23 207.5t86 127t180 45.5q80 0 132.5 -8.5t125.5 -28.5v-151q-90 14 -221 14q-59 0 -86.5 -17.5t-36.5 -59.5t-9 -129q0 -82 9 -124t29 -57.5t56 -15.5q63 0 110 10v96h-103v154q31 4 82 7t93 3q52 0 114 -2v-441h-146l-26 49
q-30 -20 -81 -37t-108 -17q-127 0 -175 99.5zM173 905h292v-114h-292v114z" />
    <glyph glyph-name="H" unicode="H" horiz-adv-x="718" 
d="M55 743h194v-286h220v286h194v-743h-194v283h-220v-283h-194v743z" />
    <glyph glyph-name="Hbar" unicode="&#x126;" horiz-adv-x="718" 
d="M708 513h-45v-513h-194v283h-220v-283h-194v513h-45v94h45v136h194v-136h220v136h194v-136h45v-94zM469 513h-220v-56h220v56z" />
    <glyph glyph-name="uni1E2A" unicode="&#x1e2a;" horiz-adv-x="718" 
d="M55 743h194v-286h220v286h194v-743h-194v283h-220v-283h-194v743zM254.5 -190.5q-36.5 39.5 -36.5 117.5h89q0 -37 16 -53.5t39 -16.5q55 0 55 70h91q0 -157 -146 -157q-71 0 -107.5 39.5z" />
    <glyph glyph-name="Hcircumflex" unicode="&#x124;" horiz-adv-x="718" 
d="M55 743h194v-286h220v286h194v-743h-194v283h-220v-283h-194v743zM297 937h131l91 -146h-111l-49 61l-50 -61h-112z" />
    <glyph glyph-name="uni1E24" unicode="&#x1e24;" horiz-adv-x="718" 
d="M55 743h194v-286h220v286h194v-743h-194v283h-220v-283h-194v743zM297.5 -229.5q-6.5 6.5 -6.5 16.5v111q0 12 6 18.5t18 6.5h90q11 0 17 -7t6 -18v-111q0 -11 -6 -17t-17 -6h-90q-11 0 -17.5 6.5z" />
    <glyph glyph-name="I" unicode="I" horiz-adv-x="304" 
d="M55 743h194v-743h-194v743z" />
    <glyph glyph-name="Iacute" unicode="&#xcd;" horiz-adv-x="304" 
d="M55 743h194v-743h-194v743zM170 934h154l-108 -143h-114z" />
    <glyph glyph-name="Ibreve" unicode="&#x12c;" horiz-adv-x="304" 
d="M55 743h194v-743h-194v743zM37.5 819.5q-36.5 39.5 -36.5 117.5h89q0 -37 16 -53.5t39 -16.5q55 0 55 70h91q0 -157 -146 -157q-71 0 -107.5 39.5z" />
    <glyph glyph-name="Icircumflex" unicode="&#xce;" horiz-adv-x="304" 
d="M55 743h194v-743h-194v743zM90 937h131l91 -146h-111l-49 61l-50 -61h-112z" />
    <glyph glyph-name="uni0208" unicode="&#x208;" horiz-adv-x="304" 
d="M55 743h194v-743h-194v743zM-97 934h154l68 -143h-114zM103 934h154l68 -143h-114z" />
    <glyph glyph-name="Idieresis" unicode="&#xcf;" horiz-adv-x="304" 
d="M55 743h194v-743h-194v743zM-14.5 793.5q-6.5 6.5 -6.5 16.5v111q0 12 6 18.5t18 6.5h90q11 0 17 -7t6 -18v-111q0 -11 -6 -17t-17 -6h-90q-11 0 -17.5 6.5zM182.5 793.5q-6.5 6.5 -6.5 16.5v111q0 12 6 18.5t18 6.5h90q11 0 17 -7t6 -18v-111q0 -11 -6 -17t-17 -6h-90
q-11 0 -17.5 6.5z" />
    <glyph glyph-name="uni1E2E" unicode="&#x1e2e;" horiz-adv-x="304" 
d="M55 743h194v-743h-194v743zM-14.5 793.5q-6.5 6.5 -6.5 16.5v111q0 12 6 18.5t18 6.5h90q11 0 17 -7t6 -18v-111q0 -11 -6 -17t-17 -6h-90q-11 0 -17.5 6.5zM182.5 793.5q-6.5 6.5 -6.5 16.5v111q0 12 6 18.5t18 6.5h90q11 0 17 -7t6 -18v-111q0 -11 -6 -17t-17 -6h-90
q-11 0 -17.5 6.5zM160 1124h154l-108 -143h-114z" />
    <glyph glyph-name="Idotaccent" unicode="&#x130;" horiz-adv-x="304" 
d="M55 743h194v-743h-194v743zM86.5 800.5q-6.5 6.5 -6.5 16.5v111q0 12 6 18.5t18 6.5h90q11 0 17 -7t6 -18v-111q0 -11 -6 -17t-17 -6h-90q-11 0 -17.5 6.5z" />
    <glyph glyph-name="uni1ECA" unicode="&#x1eca;" horiz-adv-x="304" 
d="M55 743h194v-743h-194v743zM90.5 -229.5q-6.5 6.5 -6.5 16.5v111q0 12 6 18.5t18 6.5h90q11 0 17 -7t6 -18v-111q0 -11 -6 -17t-17 -6h-90q-11 0 -17.5 6.5z" />
    <glyph glyph-name="Igrave" unicode="&#xcc;" horiz-adv-x="304" 
d="M55 743h194v-743h-194v743zM12 934h154l68 -143h-114z" />
    <glyph glyph-name="uni1EC8" unicode="&#x1ec8;" horiz-adv-x="304" 
d="M55 743h194v-743h-194v743zM118 852q29 8 29 28q0 16 -24 16q-10 0 -30 -6v74q27 9 56 9q49 0 73.5 -22t24.5 -64q0 -45 -30 -72t-99 -47v84z" />
    <glyph glyph-name="uni020A" unicode="&#x20a;" horiz-adv-x="304" 
d="M55 743h194v-743h-194v743zM262.5 900.5q36.5 -39.5 36.5 -117.5h-89q0 37 -16 53.5t-39 16.5q-55 0 -55 -70h-91q0 157 146 157q71 0 107.5 -39.5z" />
    <glyph glyph-name="Imacron" unicode="&#x12a;" horiz-adv-x="304" 
d="M55 743h194v-743h-194v743zM1 905h292v-114h-292v114z" />
    <glyph glyph-name="Iogonek" unicode="&#x12e;" horiz-adv-x="304" 
d="M55 743h194v-743h-194v743zM144.5 -168.5q-25.5 27.5 -25.5 64.5q0 36 16.5 62t44.5 42h69q-22 -15 -30.5 -28.5t-8.5 -30.5q0 -19 12.5 -30.5t29.5 -11.5h10v-90q-10 -5 -36 -5q-56 0 -81.5 27.5z" />
    <glyph glyph-name="Itilde" unicode="&#x128;" horiz-adv-x="304" 
d="M55 743h194v-743h-194v743zM-11.5 887.5q29.5 34.5 76.5 34.5q26 0 45.5 -6t40.5 -16q17 -8 29 -11.5t25 -3.5q28 0 31 44h96q-7 -150 -108 -150q-25 0 -46.5 6t-44.5 17q-3 1 -19.5 7.5t-30.5 6.5q-27 0 -33 -39h-96q5 76 34.5 110.5z" />
    <glyph glyph-name="J" unicode="J" horiz-adv-x="417" 
d="M26 12v156h81q61 0 61 57v518h194v-548q0 -100 -49 -150.5t-160 -50.5q-65 0 -127 18z" />
    <glyph glyph-name="Jcircumflex" unicode="&#x134;" horiz-adv-x="417" 
d="M26 12v156h81q61 0 61 57v518h194v-548q0 -100 -49 -150.5t-160 -50.5q-65 0 -127 18zM203 937h131l91 -146h-111l-49 61l-50 -61h-112z" />
    <glyph glyph-name="K" unicode="K" horiz-adv-x="672" 
d="M55 743h194v-289h77l119 289h206l-171 -374l180 -369h-206l-128 280h-77v-280h-194v743z" />
    <glyph glyph-name="Kcommaaccent" unicode="&#x136;" horiz-adv-x="672" 
d="M55 743h194v-289h77l119 289h206l-171 -374l180 -369h-206l-128 280h-77v-280h-194v743zM251 -146l26 9q24 8 31.5 19t7.5 39h117q0 -78 -26.5 -112t-94.5 -34h-61v79z" />
    <glyph glyph-name="L" unicode="L" horiz-adv-x="537" 
d="M101 46q-46 46 -46 147v550h194v-517q0 -52 52 -52h216v-174h-269q-101 0 -147 46z" />
    <glyph glyph-name="Lacute" unicode="&#x139;" horiz-adv-x="537" 
d="M101 46q-46 46 -46 147v550h194v-517q0 -52 52 -52h216v-174h-269q-101 0 -147 46zM170 934h154l-108 -143h-114z" />
    <glyph glyph-name="Lcaron" unicode="&#x13d;" horiz-adv-x="537" 
d="M101 46q-46 46 -46 147v550h194v-517q0 -52 52 -52h216v-174h-269q-101 0 -147 46zM309 716v67h175v-67l-10 -134h-154z" />
    <glyph glyph-name="Lcommaaccent" unicode="&#x13b;" horiz-adv-x="537" 
d="M101 46q-46 46 -46 147v550h194v-517q0 -52 52 -52h216v-174h-269q-101 0 -147 46zM211 -146l26 9q24 8 31.5 19t7.5 39h117q0 -78 -26.5 -112t-94.5 -34h-61v79z" />
    <glyph glyph-name="Ldot" unicode="&#x13f;" horiz-adv-x="537" 
d="M101 46q-46 46 -46 147v550h194v-517q0 -52 52 -52h216v-174h-269q-101 0 -147 46zM361.5 331.5q-6.5 6.5 -6.5 16.5v117q0 12 6 18.5t18 6.5h113q25 0 25 -25v-117q0 -23 -25 -23h-113q-11 0 -17.5 6.5z" />
    <glyph glyph-name="uni1E36" unicode="&#x1e36;" horiz-adv-x="537" 
d="M101 46q-46 46 -46 147v550h194v-517q0 -52 52 -52h216v-174h-269q-101 0 -147 46zM238.5 -229.5q-6.5 6.5 -6.5 16.5v111q0 12 6 18.5t18 6.5h90q11 0 17 -7t6 -18v-111q0 -11 -6 -17t-17 -6h-90q-11 0 -17.5 6.5z" />
    <glyph glyph-name="uni1E3A" unicode="&#x1e3a;" horiz-adv-x="537" 
d="M101 46q-46 46 -46 147v550h194v-517q0 -52 52 -52h216v-174h-269q-101 0 -147 46zM159 -115h292v-114h-292v114z" />
    <glyph glyph-name="Lslash" unicode="&#x141;" horiz-adv-x="537" 
d="M517 174v-174h-269q-101 0 -147 46t-46 147v131l-62 -27v101l62 27v318h194v-258l123 54v-101l-123 -54v-158q0 -52 52 -52h216z" />
    <glyph glyph-name="M" unicode="M" horiz-adv-x="915" 
d="M693 0l-48 401l-98 -401h-182l-97 392l-46 -392h-187l88 743h182l153 -522l153 522h180l89 -743h-187z" />
    <glyph glyph-name="uni1E40" unicode="&#x1e40;" horiz-adv-x="915" 
d="M693 0l-48 401l-98 -401h-182l-97 392l-46 -392h-187l88 743h182l153 -522l153 522h180l89 -743h-187zM381.5 800.5q-6.5 6.5 -6.5 16.5v111q0 12 6 18.5t18 6.5h90q11 0 17 -7t6 -18v-111q0 -11 -6 -17t-17 -6h-90q-11 0 -17.5 6.5z" />
    <glyph glyph-name="uni1E42" unicode="&#x1e42;" horiz-adv-x="915" 
d="M693 0l-48 401l-98 -401h-182l-97 392l-46 -392h-187l88 743h182l153 -522l153 522h180l89 -743h-187zM385.5 -229.5q-6.5 6.5 -6.5 16.5v111q0 12 6 18.5t18 6.5h90q11 0 17 -7t6 -18v-111q0 -11 -6 -17t-17 -6h-90q-11 0 -17.5 6.5z" />
    <glyph glyph-name="N" unicode="N" horiz-adv-x="719" 
d="M55 743h154l261 -414v414h194v-743h-154l-261 414v-414h-194v743z" />
    <glyph glyph-name="Nacute" unicode="&#x143;" horiz-adv-x="719" 
d="M55 743h154l261 -414v414h194v-743h-154l-261 414v-414h-194v743zM362 934h154l-108 -143h-114z" />
    <glyph glyph-name="Ncaron" unicode="&#x147;" horiz-adv-x="719" 
d="M55 743h154l261 -414v414h194v-743h-154l-261 414v-414h-194v743zM184 937h111l49 -61l50 61h112l-100 -146h-131z" />
    <glyph glyph-name="Ncommaaccent" unicode="&#x145;" horiz-adv-x="719" 
d="M55 743h154l261 -414v414h194v-743h-154l-261 414v-414h-194v743zM255 -146l26 9q24 8 31.5 19t7.5 39h117q0 -78 -26.5 -112t-94.5 -34h-61v79z" />
    <glyph glyph-name="uni1E44" unicode="&#x1e44;" horiz-adv-x="719" 
d="M55 743h154l261 -414v414h194v-743h-154l-261 414v-414h-194v743zM282.5 -229.5q-6.5 6.5 -6.5 16.5v111q0 12 6 18.5t18 6.5h90q11 0 17 -7t6 -18v-111q0 -11 -6 -17t-17 -6h-90q-11 0 -17.5 6.5z" />
    <glyph glyph-name="uni1E46" unicode="&#x1e46;" horiz-adv-x="719" 
d="M55 743h154l261 -414v414h194v-743h-154l-261 414v-414h-194v743zM282.5 -229.5q-6.5 6.5 -6.5 16.5v111q0 12 6 18.5t18 6.5h90q11 0 17 -7t6 -18v-111q0 -11 -6 -17t-17 -6h-90q-11 0 -17.5 6.5z" />
    <glyph glyph-name="Eng" unicode="&#x14a;" horiz-adv-x="709" 
d="M664 743v-785q0 -100 -49 -150.5t-160 -50.5q-65 0 -127 18v156h88q54 0 54 57v75l-221 351v-414h-194v743h154l261 -414v414h194z" />
    <glyph glyph-name="uni1E48" unicode="&#x1e48;" horiz-adv-x="719" 
d="M55 743h154l261 -414v414h194v-743h-154l-261 414v-414h-194v743zM203 -115h292v-114h-292v114z" />
    <glyph glyph-name="Ntilde" unicode="&#xd1;" horiz-adv-x="719" 
d="M55 743h154l261 -414v414h194v-743h-154l-261 414v-414h-194v743zM180.5 887.5q29.5 34.5 76.5 34.5q26 0 45.5 -6t40.5 -16q17 -8 29 -11.5t25 -3.5q28 0 31 44h96q-7 -150 -108 -150q-25 0 -46.5 6t-44.5 17q-3 1 -19.5 7.5t-30.5 6.5q-27 0 -33 -39h-96
q5 76 34.5 110.5z" />
    <glyph glyph-name="O" unicode="O" horiz-adv-x="708" 
d="M173.5 24q-67.5 30 -102.5 112t-35 236t35 236t102.5 112t180.5 30t180.5 -30t102.5 -112t35 -236t-35 -236t-102.5 -112t-180.5 -30t-180.5 30zM431.5 184.5q25.5 16.5 36 59.5t10.5 128q0 88 -10 130.5t-36 58t-78 15.5t-78 -15.5t-36 -58t-10 -130.5q0 -85 10.5 -128
t36 -59.5t77.5 -16.5t77.5 16.5z" />
    <glyph glyph-name="Oacute" unicode="&#xd3;" horiz-adv-x="708" 
d="M173.5 24q-67.5 30 -102.5 112t-35 236t35 236t102.5 112t180.5 30t180.5 -30t102.5 -112t35 -236t-35 -236t-102.5 -112t-180.5 -30t-180.5 30zM431.5 184.5q25.5 16.5 36 59.5t10.5 128q0 88 -10 130.5t-36 58t-78 15.5t-78 -15.5t-36 -58t-10 -130.5q0 -85 10.5 -128
t36 -59.5t77.5 -16.5t77.5 16.5zM372 934h154l-108 -143h-114z" />
    <glyph glyph-name="Obreve" unicode="&#x14e;" horiz-adv-x="708" 
d="M173.5 24q-67.5 30 -102.5 112t-35 236t35 236t102.5 112t180.5 30t180.5 -30t102.5 -112t35 -236t-35 -236t-102.5 -112t-180.5 -30t-180.5 30zM431.5 184.5q25.5 16.5 36 59.5t10.5 128q0 88 -10 130.5t-36 58t-78 15.5t-78 -15.5t-36 -58t-10 -130.5q0 -85 10.5 -128
t36 -59.5t77.5 -16.5t77.5 16.5zM239.5 819.5q-36.5 39.5 -36.5 117.5h89q0 -37 16 -53.5t39 -16.5q55 0 55 70h91q0 -157 -146 -157q-71 0 -107.5 39.5z" />
    <glyph glyph-name="Ocircumflex" unicode="&#xd4;" horiz-adv-x="708" 
d="M173.5 24q-67.5 30 -102.5 112t-35 236t35 236t102.5 112t180.5 30t180.5 -30t102.5 -112t35 -236t-35 -236t-102.5 -112t-180.5 -30t-180.5 30zM431.5 184.5q25.5 16.5 36 59.5t10.5 128q0 88 -10 130.5t-36 58t-78 15.5t-78 -15.5t-36 -58t-10 -130.5q0 -85 10.5 -128
t36 -59.5t77.5 -16.5t77.5 16.5zM292 937h131l91 -146h-111l-49 61l-50 -61h-112z" />
    <glyph glyph-name="uni1ED0" unicode="&#x1ed0;" horiz-adv-x="708" 
d="M173.5 24q-67.5 30 -102.5 112t-35 236t35 236t102.5 112t180.5 30t180.5 -30t102.5 -112t35 -236t-35 -236t-102.5 -112t-180.5 -30t-180.5 30zM431.5 184.5q25.5 16.5 36 59.5t10.5 128q0 88 -10 130.5t-36 58t-78 15.5t-78 -15.5t-36 -58t-10 -130.5q0 -85 10.5 -128
t36 -59.5t77.5 -16.5t77.5 16.5zM626 1004l-58 -123h-114l18 123h154zM423 907l91 -116h-111l-49 31l-50 -31h-112l100 116h131z" />
    <glyph glyph-name="uni1ED8" unicode="&#x1ed8;" horiz-adv-x="708" 
d="M173.5 24q-67.5 30 -102.5 112t-35 236t35 236t102.5 112t180.5 30t180.5 -30t102.5 -112t35 -236t-35 -236t-102.5 -112t-180.5 -30t-180.5 30zM431.5 184.5q25.5 16.5 36 59.5t10.5 128q0 88 -10 130.5t-36 58t-78 15.5t-78 -15.5t-36 -58t-10 -130.5q0 -85 10.5 -128
t36 -59.5t77.5 -16.5t77.5 16.5zM292 937h131l91 -146h-111l-49 61l-50 -61h-112zM292.5 -229.5q-6.5 6.5 -6.5 16.5v111q0 12 6 18.5t18 6.5h90q11 0 17 -7t6 -18v-111q0 -11 -6 -17t-17 -6h-90q-11 0 -17.5 6.5z" />
    <glyph glyph-name="uni1ED2" unicode="&#x1ed2;" horiz-adv-x="708" 
d="M173.5 24q-67.5 30 -102.5 112t-35 236t35 236t102.5 112t180.5 30t180.5 -30t102.5 -112t35 -236t-35 -236t-102.5 -112t-180.5 -30t-180.5 30zM431.5 184.5q25.5 16.5 36 59.5t10.5 128q0 88 -10 130.5t-36 58t-78 15.5t-78 -15.5t-36 -58t-10 -130.5q0 -85 10.5 -128
t36 -59.5t77.5 -16.5t77.5 16.5zM238 1004l18 -123h-114l-58 123h154zM423 907l91 -116h-111l-49 31l-50 -31h-112l100 116h131z" />
    <glyph glyph-name="uni1ED4" unicode="&#x1ed4;" horiz-adv-x="708" 
d="M173.5 24q-67.5 30 -102.5 112t-35 236t35 236t102.5 112t180.5 30t180.5 -30t102.5 -112t35 -236t-35 -236t-102.5 -112t-180.5 -30t-180.5 30zM431.5 184.5q25.5 16.5 36 59.5t10.5 128q0 88 -10 130.5t-36 58t-78 15.5t-78 -15.5t-36 -58t-10 -130.5q0 -85 10.5 -128
t36 -59.5t77.5 -16.5t77.5 16.5zM479 932q19 6 19 22q0 14 -14 14q-10 0 -30 -6v64q27 9 56 9q78 0 78 -68q0 -46 -26 -74.5t-83 -44.5v84zM292 907h131l91 -116h-111l-49 31l-50 -31h-112z" />
    <glyph glyph-name="uni1ED6" unicode="&#x1ed6;" horiz-adv-x="708" 
d="M173.5 24q-67.5 30 -102.5 112t-35 236t35 236t102.5 112t180.5 30t180.5 -30t102.5 -112t35 -236t-35 -236t-102.5 -112t-180.5 -30t-180.5 30zM431.5 184.5q25.5 16.5 36 59.5t10.5 128q0 88 -10 130.5t-36 58t-78 15.5t-78 -15.5t-36 -58t-10 -130.5q0 -85 10.5 -128
t36 -59.5t77.5 -16.5t77.5 16.5zM309.5 1053.5q16.5 -3.5 31.5 -7.5q28 -8 38 -8q29 0 29 26h96q-4 -47 -14.5 -72.5t-28 -35t-45.5 -9.5q-24 0 -48 5.5t-28 6.5q-28 7 -37 7q-16 0 -21 -21h-96q6 67 28 89.5t63 22.5q16 0 32.5 -3.5zM514 791h-111l-49 31l-50 -31h-112
l100 116h131z" />
    <glyph glyph-name="uni020C" unicode="&#x20c;" horiz-adv-x="708" 
d="M173.5 24q-67.5 30 -102.5 112t-35 236t35 236t102.5 112t180.5 30t180.5 -30t102.5 -112t35 -236t-35 -236t-102.5 -112t-180.5 -30t-180.5 30zM431.5 184.5q25.5 16.5 36 59.5t10.5 128q0 88 -10 130.5t-36 58t-78 15.5t-78 -15.5t-36 -58t-10 -130.5q0 -85 10.5 -128
t36 -59.5t77.5 -16.5t77.5 16.5zM105 934h154l68 -143h-114zM305 934h154l68 -143h-114z" />
    <glyph glyph-name="Odieresis" unicode="&#xd6;" horiz-adv-x="708" 
d="M173.5 24q-67.5 30 -102.5 112t-35 236t35 236t102.5 112t180.5 30t180.5 -30t102.5 -112t35 -236t-35 -236t-102.5 -112t-180.5 -30t-180.5 30zM431.5 184.5q25.5 16.5 36 59.5t10.5 128q0 88 -10 130.5t-36 58t-78 15.5t-78 -15.5t-36 -58t-10 -130.5q0 -85 10.5 -128
t36 -59.5t77.5 -16.5t77.5 16.5zM187.5 793.5q-6.5 6.5 -6.5 16.5v111q0 12 6 18.5t18 6.5h90q11 0 17 -7t6 -18v-111q0 -11 -6 -17t-17 -6h-90q-11 0 -17.5 6.5zM384.5 793.5q-6.5 6.5 -6.5 16.5v111q0 12 6 18.5t18 6.5h90q11 0 17 -7t6 -18v-111q0 -11 -6 -17t-17 -6h-90
q-11 0 -17.5 6.5z" />
    <glyph glyph-name="uni022A" unicode="&#x22a;" horiz-adv-x="708" 
d="M173.5 24q-67.5 30 -102.5 112t-35 236t35 236t102.5 112t180.5 30t180.5 -30t102.5 -112t35 -236t-35 -236t-102.5 -112t-180.5 -30t-180.5 30zM431.5 184.5q25.5 16.5 36 59.5t10.5 128q0 88 -10 130.5t-36 58t-78 15.5t-78 -15.5t-36 -58t-10 -130.5q0 -85 10.5 -128
t36 -59.5t77.5 -16.5t77.5 16.5zM187.5 793.5q-6.5 6.5 -6.5 16.5v111q0 12 6 18.5t18 6.5h90q11 0 17 -7t6 -18v-111q0 -11 -6 -17t-17 -6h-90q-11 0 -17.5 6.5zM384.5 793.5q-6.5 6.5 -6.5 16.5v111q0 12 6 18.5t18 6.5h90q11 0 17 -7t6 -18v-111q0 -11 -6 -17t-17 -6h-90
q-11 0 -17.5 6.5zM203 1105h292v-114h-292v114z" />
    <glyph glyph-name="uni0230" unicode="&#x230;" horiz-adv-x="708" 
d="M173.5 24q-67.5 30 -102.5 112t-35 236t35 236t102.5 112t180.5 30t180.5 -30t102.5 -112t35 -236t-35 -236t-102.5 -112t-180.5 -30t-180.5 30zM431.5 184.5q25.5 16.5 36 59.5t10.5 128q0 88 -10 130.5t-36 58t-78 15.5t-78 -15.5t-36 -58t-10 -130.5q0 -85 10.5 -128
t36 -59.5t77.5 -16.5t77.5 16.5zM288.5 800.5q-6.5 6.5 -6.5 16.5v111q0 12 6 18.5t18 6.5h90q11 0 17 -7t6 -18v-111q0 -11 -6 -17t-17 -6h-90q-11 0 -17.5 6.5zM203 1105h292v-114h-292v114z" />
    <glyph glyph-name="uni1ECC" unicode="&#x1ecc;" horiz-adv-x="708" 
d="M173.5 24q-67.5 30 -102.5 112t-35 236t35 236t102.5 112t180.5 30t180.5 -30t102.5 -112t35 -236t-35 -236t-102.5 -112t-180.5 -30t-180.5 30zM431.5 184.5q25.5 16.5 36 59.5t10.5 128q0 88 -10 130.5t-36 58t-78 15.5t-78 -15.5t-36 -58t-10 -130.5q0 -85 10.5 -128
t36 -59.5t77.5 -16.5t77.5 16.5zM292.5 -229.5q-6.5 6.5 -6.5 16.5v111q0 12 6 18.5t18 6.5h90q11 0 17 -7t6 -18v-111q0 -11 -6 -17t-17 -6h-90q-11 0 -17.5 6.5z" />
    <glyph glyph-name="Ograve" unicode="&#xd2;" horiz-adv-x="708" 
d="M173.5 24q-67.5 30 -102.5 112t-35 236t35 236t102.5 112t180.5 30t180.5 -30t102.5 -112t35 -236t-35 -236t-102.5 -112t-180.5 -30t-180.5 30zM431.5 184.5q25.5 16.5 36 59.5t10.5 128q0 88 -10 130.5t-36 58t-78 15.5t-78 -15.5t-36 -58t-10 -130.5q0 -85 10.5 -128
t36 -59.5t77.5 -16.5t77.5 16.5zM214 934h154l68 -143h-114z" />
    <glyph glyph-name="uni1ECE" unicode="&#x1ece;" horiz-adv-x="708" 
d="M173.5 24q-67.5 30 -102.5 112t-35 236t35 236t102.5 112t180.5 30t180.5 -30t102.5 -112t35 -236t-35 -236t-102.5 -112t-180.5 -30t-180.5 30zM431.5 184.5q25.5 16.5 36 59.5t10.5 128q0 88 -10 130.5t-36 58t-78 15.5t-78 -15.5t-36 -58t-10 -130.5q0 -85 10.5 -128
t36 -59.5t77.5 -16.5t77.5 16.5zM320 852q29 8 29 28q0 16 -24 16q-10 0 -30 -6v74q27 9 56 9q49 0 73.5 -22t24.5 -64q0 -45 -30 -72t-99 -47v84z" />
    <glyph glyph-name="Ohorn" unicode="&#x1a0;" horiz-adv-x="708" 
d="M671.5 731q-21.5 -49 -62.5 -72q32 -43 47.5 -113.5t15.5 -173.5q0 -154 -35 -236t-102.5 -112t-180.5 -30t-180.5 30t-102.5 112t-35 236t35 236t102.5 112t180.5 30q59 0 102 -7h38q34 0 50.5 24.5t16.5 83.5h132q0 -71 -21.5 -120zM431.5 184.5q25.5 16.5 36 59.5
t10.5 128q0 88 -10 130.5t-36 58t-78 15.5t-78 -15.5t-36 -58t-10 -130.5q0 -85 10.5 -128t36 -59.5t77.5 -16.5t77.5 16.5z" />
    <glyph glyph-name="uni1EDA" unicode="&#x1eda;" horiz-adv-x="708" 
d="M671.5 731q-21.5 -49 -62.5 -72q32 -43 47.5 -113.5t15.5 -173.5q0 -154 -35 -236t-102.5 -112t-180.5 -30t-180.5 30t-102.5 112t-35 236t35 236t102.5 112t180.5 30q59 0 102 -7h38q34 0 50.5 24.5t16.5 83.5h132q0 -71 -21.5 -120zM431.5 184.5q25.5 16.5 36 59.5
t10.5 128q0 88 -10 130.5t-36 58t-78 15.5t-78 -15.5t-36 -58t-10 -130.5q0 -85 10.5 -128t36 -59.5t77.5 -16.5t77.5 16.5zM349 934h154l-108 -143h-114z" />
    <glyph glyph-name="uni1EE2" unicode="&#x1ee2;" horiz-adv-x="708" 
d="M671.5 731q-21.5 -49 -62.5 -72q32 -43 47.5 -113.5t15.5 -173.5q0 -154 -35 -236t-102.5 -112t-180.5 -30t-180.5 30t-102.5 112t-35 236t35 236t102.5 112t180.5 30q59 0 102 -7h38q34 0 50.5 24.5t16.5 83.5h132q0 -71 -21.5 -120zM431.5 184.5q25.5 16.5 36 59.5
t10.5 128q0 88 -10 130.5t-36 58t-78 15.5t-78 -15.5t-36 -58t-10 -130.5q0 -85 10.5 -128t36 -59.5t77.5 -16.5t77.5 16.5zM301.5 -229.5q-6.5 6.5 -6.5 16.5v111q0 12 6 18.5t18 6.5h90q11 0 17 -7t6 -18v-111q0 -11 -6 -17t-17 -6h-90q-11 0 -17.5 6.5z" />
    <glyph glyph-name="uni1EDC" unicode="&#x1edc;" horiz-adv-x="708" 
d="M671.5 731q-21.5 -49 -62.5 -72q32 -43 47.5 -113.5t15.5 -173.5q0 -154 -35 -236t-102.5 -112t-180.5 -30t-180.5 30t-102.5 112t-35 236t35 236t102.5 112t180.5 30q59 0 102 -7h38q34 0 50.5 24.5t16.5 83.5h132q0 -71 -21.5 -120zM431.5 184.5q25.5 16.5 36 59.5
t10.5 128q0 88 -10 130.5t-36 58t-78 15.5t-78 -15.5t-36 -58t-10 -130.5q0 -85 10.5 -128t36 -59.5t77.5 -16.5t77.5 16.5zM181 934h154l68 -143h-114z" />
    <glyph glyph-name="uni1EDE" unicode="&#x1ede;" horiz-adv-x="708" 
d="M671.5 731q-21.5 -49 -62.5 -72q32 -43 47.5 -113.5t15.5 -173.5q0 -154 -35 -236t-102.5 -112t-180.5 -30t-180.5 30t-102.5 112t-35 236t35 236t102.5 112t180.5 30q59 0 102 -7h38q34 0 50.5 24.5t16.5 83.5h132q0 -71 -21.5 -120zM431.5 184.5q25.5 16.5 36 59.5
t10.5 128q0 88 -10 130.5t-36 58t-78 15.5t-78 -15.5t-36 -58t-10 -130.5q0 -85 10.5 -128t36 -59.5t77.5 -16.5t77.5 16.5zM316 852q29 8 29 28q0 16 -24 16q-10 0 -30 -6v74q27 9 56 9q49 0 73.5 -22t24.5 -64q0 -45 -30 -72t-99 -47v84z" />
    <glyph glyph-name="uni1EE0" unicode="&#x1ee0;" horiz-adv-x="708" 
d="M671.5 731q-21.5 -49 -62.5 -72q32 -43 47.5 -113.5t15.5 -173.5q0 -154 -35 -236t-102.5 -112t-180.5 -30t-180.5 30t-102.5 112t-35 236t35 236t102.5 112t180.5 30q59 0 102 -7h38q34 0 50.5 24.5t16.5 83.5h132q0 -71 -21.5 -120zM431.5 184.5q25.5 16.5 36 59.5
t10.5 128q0 88 -10 130.5t-36 58t-78 15.5t-78 -15.5t-36 -58t-10 -130.5q0 -85 10.5 -128t36 -59.5t77.5 -16.5t77.5 16.5zM187.5 887.5q29.5 34.5 76.5 34.5q26 0 45.5 -6t40.5 -16q17 -8 29 -11.5t25 -3.5q28 0 31 44h96q-7 -150 -108 -150q-25 0 -46.5 6t-44.5 17
q-3 1 -19.5 7.5t-30.5 6.5q-27 0 -33 -39h-96q5 76 34.5 110.5z" />
    <glyph glyph-name="Ohungarumlaut" unicode="&#x150;" horiz-adv-x="708" 
d="M173.5 24q-67.5 30 -102.5 112t-35 236t35 236t102.5 112t180.5 30t180.5 -30t102.5 -112t35 -236t-35 -236t-102.5 -112t-180.5 -30t-180.5 30zM431.5 184.5q25.5 16.5 36 59.5t10.5 128q0 88 -10 130.5t-36 58t-78 15.5t-78 -15.5t-36 -58t-10 -130.5q0 -85 10.5 -128
t36 -59.5t77.5 -16.5t77.5 16.5zM262 934h144l-88 -143h-114zM435 934h144l-88 -143h-114z" />
    <glyph glyph-name="uni020E" unicode="&#x20e;" horiz-adv-x="708" 
d="M173.5 24q-67.5 30 -102.5 112t-35 236t35 236t102.5 112t180.5 30t180.5 -30t102.5 -112t35 -236t-35 -236t-102.5 -112t-180.5 -30t-180.5 30zM431.5 184.5q25.5 16.5 36 59.5t10.5 128q0 88 -10 130.5t-36 58t-78 15.5t-78 -15.5t-36 -58t-10 -130.5q0 -85 10.5 -128
t36 -59.5t77.5 -16.5t77.5 16.5zM464.5 900.5q36.5 -39.5 36.5 -117.5h-89q0 37 -16 53.5t-39 16.5q-55 0 -55 -70h-91q0 157 146 157q71 0 107.5 -39.5z" />
    <glyph glyph-name="Omacron" unicode="&#x14c;" horiz-adv-x="708" 
d="M173.5 24q-67.5 30 -102.5 112t-35 236t35 236t102.5 112t180.5 30t180.5 -30t102.5 -112t35 -236t-35 -236t-102.5 -112t-180.5 -30t-180.5 30zM431.5 184.5q25.5 16.5 36 59.5t10.5 128q0 88 -10 130.5t-36 58t-78 15.5t-78 -15.5t-36 -58t-10 -130.5q0 -85 10.5 -128
t36 -59.5t77.5 -16.5t77.5 16.5zM203 905h292v-114h-292v114z" />
    <glyph glyph-name="uni1E52" unicode="&#x1e52;" horiz-adv-x="708" 
d="M173.5 24q-67.5 30 -102.5 112t-35 236t35 236t102.5 112t180.5 30t180.5 -30t102.5 -112t35 -236t-35 -236t-102.5 -112t-180.5 -30t-180.5 30zM431.5 184.5q25.5 16.5 36 59.5t10.5 128q0 88 -10 130.5t-36 58t-78 15.5t-78 -15.5t-36 -58t-10 -130.5q0 -85 10.5 -128
t36 -59.5t77.5 -16.5t77.5 16.5zM203 905h292v-114h-292v114zM362 1094h154l-108 -143h-114z" />
    <glyph glyph-name="uni1E50" unicode="&#x1e50;" horiz-adv-x="708" 
d="M173.5 24q-67.5 30 -102.5 112t-35 236t35 236t102.5 112t180.5 30t180.5 -30t102.5 -112t35 -236t-35 -236t-102.5 -112t-180.5 -30t-180.5 30zM431.5 184.5q25.5 16.5 36 59.5t10.5 128q0 88 -10 130.5t-36 58t-78 15.5t-78 -15.5t-36 -58t-10 -130.5q0 -85 10.5 -128
t36 -59.5t77.5 -16.5t77.5 16.5zM203 905h292v-114h-292v114zM184 1094h154l68 -143h-114z" />
    <glyph glyph-name="uni01EA" unicode="&#x1ea;" horiz-adv-x="708" 
d="M400 -29.5q-8 -12.5 -8 -29.5q0 -19 12.5 -30.5t29.5 -11.5h10v-90q-10 -5 -36 -5q-56 0 -81.5 27.5t-25.5 64.5q0 62 51 98q-112 0 -179.5 30.5t-102 112.5t-34.5 235q0 154 35 236t102.5 112t180.5 30t180.5 -30t102.5 -112t35 -236q0 -135 -27 -214.5t-80 -116
t-138 -44.5q-19 -14 -27 -26.5zM240.5 244q10.5 -43 36 -59.5t77.5 -16.5t77.5 16.5t36 59.5t10.5 128q0 88 -10 130.5t-36 58t-78 15.5t-78 -15.5t-36 -58t-10 -130.5q0 -85 10.5 -128z" />
    <glyph glyph-name="Oslash" unicode="&#xd8;" horiz-adv-x="708" 
d="M656.5 546q15.5 -70 15.5 -174q0 -154 -35 -236t-102.5 -112t-180.5 -30q-108 0 -171 26l-13 -20h-125l55 83q-64 87 -64 289q0 154 35 236t102.5 112t180.5 30q109 0 172 -26l13 19h125l-56 -84q33 -43 48.5 -113zM234 284l187 282q-24 10 -67 10q-52 0 -78 -15.5
t-36 -58t-10 -130.5q0 -56 4 -88zM431.5 184.5q25.5 16.5 36 59.5t10.5 128q0 52 -3 86l-187 -280q24 -10 66 -10q52 0 77.5 16.5z" />
    <glyph glyph-name="Oslashacute" unicode="&#x1fe;" horiz-adv-x="708" 
d="M656.5 546q15.5 -70 15.5 -174q0 -154 -35 -236t-102.5 -112t-180.5 -30q-108 0 -171 26l-13 -20h-125l55 83q-64 87 -64 289q0 154 35 236t102.5 112t180.5 30q109 0 172 -26l13 19h125l-56 -84q33 -43 48.5 -113zM234 284l187 282q-24 10 -67 10q-52 0 -78 -15.5
t-36 -58t-10 -130.5q0 -56 4 -88zM431.5 184.5q25.5 16.5 36 59.5t10.5 128q0 52 -3 86l-187 -280q24 -10 66 -10q52 0 77.5 16.5zM372 934h154l-108 -143h-114z" />
    <glyph glyph-name="Otilde" unicode="&#xd5;" horiz-adv-x="708" 
d="M173.5 24q-67.5 30 -102.5 112t-35 236t35 236t102.5 112t180.5 30t180.5 -30t102.5 -112t35 -236t-35 -236t-102.5 -112t-180.5 -30t-180.5 30zM431.5 184.5q25.5 16.5 36 59.5t10.5 128q0 88 -10 130.5t-36 58t-78 15.5t-78 -15.5t-36 -58t-10 -130.5q0 -85 10.5 -128
t36 -59.5t77.5 -16.5t77.5 16.5zM190.5 887.5q29.5 34.5 76.5 34.5q26 0 45.5 -6t40.5 -16q17 -8 29 -11.5t25 -3.5q28 0 31 44h96q-7 -150 -108 -150q-25 0 -46.5 6t-44.5 17q-3 1 -19.5 7.5t-30.5 6.5q-27 0 -33 -39h-96q5 76 34.5 110.5z" />
    <glyph glyph-name="uni1E4C" unicode="&#x1e4c;" horiz-adv-x="708" 
d="M173.5 24q-67.5 30 -102.5 112t-35 236t35 236t102.5 112t180.5 30t180.5 -30t102.5 -112t35 -236t-35 -236t-102.5 -112t-180.5 -30t-180.5 30zM431.5 184.5q25.5 16.5 36 59.5t10.5 128q0 88 -10 130.5t-36 58t-78 15.5t-78 -15.5t-36 -58t-10 -130.5q0 -85 10.5 -128
t36 -59.5t77.5 -16.5t77.5 16.5zM190.5 887.5q29.5 34.5 76.5 34.5q26 0 45.5 -6t40.5 -16q17 -8 29 -11.5t25 -3.5q28 0 31 44h96q-7 -150 -108 -150q-25 0 -46.5 6t-44.5 17q-3 1 -19.5 7.5t-30.5 6.5q-27 0 -33 -39h-96q5 76 34.5 110.5zM342 1104h154l-108 -143h-114z
" />
    <glyph glyph-name="uni1E4E" unicode="&#x1e4e;" horiz-adv-x="708" 
d="M173.5 24q-67.5 30 -102.5 112t-35 236t35 236t102.5 112t180.5 30t180.5 -30t102.5 -112t35 -236t-35 -236t-102.5 -112t-180.5 -30t-180.5 30zM431.5 184.5q25.5 16.5 36 59.5t10.5 128q0 88 -10 130.5t-36 58t-78 15.5t-78 -15.5t-36 -58t-10 -130.5q0 -85 10.5 -128
t36 -59.5t77.5 -16.5t77.5 16.5zM190.5 887.5q29.5 34.5 76.5 34.5q26 0 45.5 -6t40.5 -16q17 -8 29 -11.5t25 -3.5q28 0 31 44h96q-7 -150 -108 -150q-25 0 -46.5 6t-44.5 17q-3 1 -19.5 7.5t-30.5 6.5q-27 0 -33 -39h-96q5 76 34.5 110.5zM187.5 963.5q-6.5 6.5 -6.5 16.5
v111q0 12 6 18.5t18 6.5h90q11 0 17 -7t6 -18v-111q0 -11 -6 -17t-17 -6h-90q-11 0 -17.5 6.5zM384.5 963.5q-6.5 6.5 -6.5 16.5v111q0 12 6 18.5t18 6.5h90q11 0 17 -7t6 -18v-111q0 -11 -6 -17t-17 -6h-90q-11 0 -17.5 6.5z" />
    <glyph glyph-name="uni022C" unicode="&#x22c;" horiz-adv-x="708" 
d="M173.5 24q-67.5 30 -102.5 112t-35 236t35 236t102.5 112t180.5 30t180.5 -30t102.5 -112t35 -236t-35 -236t-102.5 -112t-180.5 -30t-180.5 30zM431.5 184.5q25.5 16.5 36 59.5t10.5 128q0 88 -10 130.5t-36 58t-78 15.5t-78 -15.5t-36 -58t-10 -130.5q0 -85 10.5 -128
t36 -59.5t77.5 -16.5t77.5 16.5zM213 1075h292v-114h-292v114zM190.5 887.5q29.5 34.5 76.5 34.5q26 0 45.5 -6t40.5 -16q17 -8 29 -11.5t25 -3.5q28 0 31 44h96q-7 -150 -108 -150q-25 0 -46.5 6t-44.5 17q-3 1 -19.5 7.5t-30.5 6.5q-27 0 -33 -39h-96q5 76 34.5 110.5z
" />
    <glyph glyph-name="OE" unicode="&#x152;" horiz-adv-x="1027" 
d="M672 520v-62l269 -10v-154l-269 -10v-56q0 -26 11.5 -39t31.5 -13h276v-164q-62 -9 -149.5 -13.5t-167.5 -4.5q-84 0 -133 33q-35 -18 -81 -25.5t-106 -7.5q-113 0 -180.5 30t-102.5 112t-35 236t35 236t102.5 112t180.5 30q64 0 111.5 -8.5t83.5 -29.5q46 31 114 31
q180 0 328 -15v-164h-268q-51 0 -51 -44zM431.5 184.5q25.5 16.5 36 59.5t10.5 128q0 88 -10 130.5t-36 58t-78 15.5t-78 -15.5t-36 -58t-10 -130.5q0 -85 10.5 -128t36 -59.5t77.5 -16.5t77.5 16.5z" />
    <glyph glyph-name="P" unicode="P" horiz-adv-x="633" 
d="M55 743h326q62 0 111 -19t82 -77.5t33 -169.5q0 -161 -61.5 -217t-153.5 -56q-45 0 -91.5 9.5t-51.5 10.5v-224h-194v743zM361 378q29 0 40.5 23.5t11.5 73.5q0 47 -12.5 70.5t-39.5 23.5h-112v-191h112z" />
    <glyph glyph-name="uni1E56" unicode="&#x1e56;" horiz-adv-x="633" 
d="M55 743h326q62 0 111 -19t82 -77.5t33 -169.5q0 -161 -61.5 -217t-153.5 -56q-45 0 -91.5 9.5t-51.5 10.5v-224h-194v743zM361 378q29 0 40.5 23.5t11.5 73.5q0 47 -12.5 70.5t-39.5 23.5h-112v-191h112zM248.5 800.5q-6.5 6.5 -6.5 16.5v111q0 12 6 18.5t18 6.5h90
q11 0 17 -7t6 -18v-111q0 -11 -6 -17t-17 -6h-90q-11 0 -17.5 6.5z" />
    <glyph glyph-name="Thorn" unicode="&#xde;" horiz-adv-x="603" 
d="M55 743h194v-110h102q62 0 111 -18t82 -74.5t33 -163.5q0 -155 -61.5 -209t-153.5 -54q-20 0 -46 5t-47 10l-20 5v-134h-194v743zM331 288q29 0 40.5 21t11.5 66q0 42 -12.5 63t-39.5 21h-82v-171h82z" />
    <glyph glyph-name="Q" unicode="Q" horiz-adv-x="708" 
d="M173.5 24q-67.5 30 -102.5 112t-35 236t35 236t102.5 112t180.5 30t180.5 -30t102.5 -112t35 -236t-35 -236t-102.5 -112t-180.5 -30t-180.5 30zM431.5 184.5q25.5 16.5 36 59.5t10.5 128q0 88 -10 130.5t-36 58t-78 15.5t-78 -15.5t-36 -58t-10 -130.5q0 -85 10.5 -128
t36 -59.5t77.5 -16.5t77.5 16.5zM412 -196q-50 19 -81.5 59t-31.5 99h134q3 -22 24 -31.5t51 -9.5q18 0 39.5 5t28.5 6v-140l-23 -3q-22 -4 -34 -4q-57 0 -107 19z" />
    <glyph glyph-name="R" unicode="R" horiz-adv-x="640" 
d="M55 743h317q106 0 165 -56.5t59 -193.5q0 -86 -26.5 -131.5t-74.5 -73.5l129 -288h-197l-104 256h-74v-256h-194v743zM337 410q33 0 49 19.5t16 62.5t-15.5 60t-49.5 17h-88v-159h88z" />
    <glyph glyph-name="Racute" unicode="&#x154;" horiz-adv-x="640" 
d="M55 743h317q106 0 165 -56.5t59 -193.5q0 -86 -26.5 -131.5t-74.5 -73.5l129 -288h-197l-104 256h-74v-256h-194v743zM337 410q33 0 49 19.5t16 62.5t-15.5 60t-49.5 17h-88v-159h88zM322 934h154l-108 -143h-114z" />
    <glyph glyph-name="Rcaron" unicode="&#x158;" horiz-adv-x="640" 
d="M55 743h317q106 0 165 -56.5t59 -193.5q0 -86 -26.5 -131.5t-74.5 -73.5l129 -288h-197l-104 256h-74v-256h-194v743zM337 410q33 0 49 19.5t16 62.5t-15.5 60t-49.5 17h-88v-159h88zM144 937h111l49 -61l50 61h112l-100 -146h-131z" />
    <glyph glyph-name="Rcommaaccent" unicode="&#x156;" horiz-adv-x="640" 
d="M55 743h317q106 0 165 -56.5t59 -193.5q0 -86 -26.5 -131.5t-74.5 -73.5l129 -288h-197l-104 256h-74v-256h-194v743zM337 410q33 0 49 19.5t16 62.5t-15.5 60t-49.5 17h-88v-159h88zM221 -146l26 9q24 8 31.5 19t7.5 39h117q0 -78 -26.5 -112t-94.5 -34h-61v79z" />
    <glyph glyph-name="uni0210" unicode="&#x210;" horiz-adv-x="640" 
d="M55 743h317q106 0 165 -56.5t59 -193.5q0 -86 -26.5 -131.5t-74.5 -73.5l129 -288h-197l-104 256h-74v-256h-194v743zM337 410q33 0 49 19.5t16 62.5t-15.5 60t-49.5 17h-88v-159h88zM55 934h154l68 -143h-114zM255 934h154l68 -143h-114z" />
    <glyph glyph-name="uni1E5A" unicode="&#x1e5a;" horiz-adv-x="640" 
d="M55 743h317q106 0 165 -56.5t59 -193.5q0 -86 -26.5 -131.5t-74.5 -73.5l129 -288h-197l-104 256h-74v-256h-194v743zM337 410q33 0 49 19.5t16 62.5t-15.5 60t-49.5 17h-88v-159h88zM248.5 -229.5q-6.5 6.5 -6.5 16.5v111q0 12 6 18.5t18 6.5h90q11 0 17 -7t6 -18v-111
q0 -11 -6 -17t-17 -6h-90q-11 0 -17.5 6.5z" />
    <glyph glyph-name="uni0212" unicode="&#x212;" horiz-adv-x="640" 
d="M55 743h317q106 0 165 -56.5t59 -193.5q0 -86 -26.5 -131.5t-74.5 -73.5l129 -288h-197l-104 256h-74v-256h-194v743zM337 410q33 0 49 19.5t16 62.5t-15.5 60t-49.5 17h-88v-159h88zM414.5 900.5q36.5 -39.5 36.5 -117.5h-89q0 37 -16 53.5t-39 16.5q-55 0 -55 -70h-91
q0 157 146 157q71 0 107.5 -39.5z" />
    <glyph glyph-name="uni1E5E" unicode="&#x1e5e;" horiz-adv-x="640" 
d="M55 743h317q106 0 165 -56.5t59 -193.5q0 -86 -26.5 -131.5t-74.5 -73.5l129 -288h-197l-104 256h-74v-256h-194v743zM337 410q33 0 49 19.5t16 62.5t-15.5 60t-49.5 17h-88v-159h88zM169 -115h292v-114h-292v114z" />
    <glyph glyph-name="S" unicode="S" horiz-adv-x="597" 
d="M49 23v154q100 -9 229 -9q51 0 75 11.5t24 39.5v12q0 21 -15 32.5t-37 11.5h-53q-119 0 -177.5 52.5t-58.5 169.5v33q0 109 65 164t191 55q110 0 232 -29v-154q-112 9 -208 9q-48 0 -72 -11.5t-24 -43.5v-10q0 -51 65 -51h66q101 0 155.5 -56t54.5 -146v-33
q0 -92 -32 -142.5t-90.5 -69t-150.5 -18.5q-128 0 -239 29z" />
    <glyph glyph-name="Sacute" unicode="&#x15a;" horiz-adv-x="597" 
d="M49 23v154q100 -9 229 -9q51 0 75 11.5t24 39.5v12q0 21 -15 32.5t-37 11.5h-53q-119 0 -177.5 52.5t-58.5 169.5v33q0 109 65 164t191 55q110 0 232 -29v-154q-112 9 -208 9q-48 0 -72 -11.5t-24 -43.5v-10q0 -51 65 -51h66q101 0 155.5 -56t54.5 -146v-33
q0 -92 -32 -142.5t-90.5 -69t-150.5 -18.5q-128 0 -239 29zM312 934h154l-108 -143h-114z" />
    <glyph glyph-name="uni1E64" unicode="&#x1e64;" horiz-adv-x="597" 
d="M49 23v154q100 -9 229 -9q51 0 75 11.5t24 39.5v12q0 21 -15 32.5t-37 11.5h-53q-119 0 -177.5 52.5t-58.5 169.5v33q0 109 65 164t191 55q110 0 232 -29v-154q-112 9 -208 9q-48 0 -72 -11.5t-24 -43.5v-10q0 -51 65 -51h66q101 0 155.5 -56t54.5 -146v-33
q0 -92 -32 -142.5t-90.5 -69t-150.5 -18.5q-128 0 -239 29zM292 934h154l-108 -143h-114zM278.5 970.5q-6.5 6.5 -6.5 16.5v111q0 12 6 18.5t18 6.5h90q11 0 17 -7t6 -18v-111q0 -11 -6 -17t-17 -6h-90q-11 0 -17.5 6.5z" />
    <glyph glyph-name="Scaron" unicode="&#x160;" horiz-adv-x="597" 
d="M49 23v154q100 -9 229 -9q51 0 75 11.5t24 39.5v12q0 21 -15 32.5t-37 11.5h-53q-119 0 -177.5 52.5t-58.5 169.5v33q0 109 65 164t191 55q110 0 232 -29v-154q-112 9 -208 9q-48 0 -72 -11.5t-24 -43.5v-10q0 -51 65 -51h66q101 0 155.5 -56t54.5 -146v-33
q0 -92 -32 -142.5t-90.5 -69t-150.5 -18.5q-128 0 -239 29zM134 937h111l49 -61l50 61h112l-100 -146h-131z" />
    <glyph glyph-name="uni1E66" unicode="&#x1e66;" horiz-adv-x="597" 
d="M49 23v154q100 -9 229 -9q51 0 75 11.5t24 39.5v12q0 21 -15 32.5t-37 11.5h-53q-119 0 -177.5 52.5t-58.5 169.5v33q0 109 65 164t191 55q110 0 232 -29v-154q-112 9 -208 9q-48 0 -72 -11.5t-24 -43.5v-10q0 -51 65 -51h66q101 0 155.5 -56t54.5 -146v-33
q0 -92 -32 -142.5t-90.5 -69t-150.5 -18.5q-128 0 -239 29zM134 937h111l49 -61l50 61h112l-100 -146h-131zM228.5 980.5q-6.5 6.5 -6.5 16.5v111q0 12 6 18.5t18 6.5h90q11 0 17 -7t6 -18v-111q0 -11 -6 -17t-17 -6h-90q-11 0 -17.5 6.5z" />
    <glyph glyph-name="Scedilla" unicode="&#x15e;" horiz-adv-x="597" 
d="M506.5 403q54.5 -56 54.5 -146v-33q0 -118 -52 -168.5t-157 -59.5l-28 -45q27 -4 45 -21t18 -47q0 -41 -28 -63.5t-85 -22.5h-59v79l15 3q32 6 32 27q0 23 -32 32l34 56q-112 3 -215 29v154q100 -9 229 -9q51 0 75 11.5t24 39.5v12q0 21 -15 32.5t-37 11.5h-53
q-119 0 -177.5 52.5t-58.5 169.5v33q0 109 65 164t191 55q110 0 232 -29v-154q-112 9 -208 9q-48 0 -72 -11.5t-24 -43.5v-10q0 -51 65 -51h66q101 0 155.5 -56z" />
    <glyph glyph-name="Scircumflex" unicode="&#x15c;" horiz-adv-x="597" 
d="M49 23v154q100 -9 229 -9q51 0 75 11.5t24 39.5v12q0 21 -15 32.5t-37 11.5h-53q-119 0 -177.5 52.5t-58.5 169.5v33q0 109 65 164t191 55q110 0 232 -29v-154q-112 9 -208 9q-48 0 -72 -11.5t-24 -43.5v-10q0 -51 65 -51h66q101 0 155.5 -56t54.5 -146v-33
q0 -92 -32 -142.5t-90.5 -69t-150.5 -18.5q-128 0 -239 29zM232 937h131l91 -146h-111l-49 61l-50 -61h-112z" />
    <glyph glyph-name="Scommaaccent" unicode="&#x218;" horiz-adv-x="597" 
d="M49 23v154q100 -9 229 -9q51 0 75 11.5t24 39.5v12q0 21 -15 32.5t-37 11.5h-53q-119 0 -177.5 52.5t-58.5 169.5v33q0 109 65 164t191 55q110 0 232 -29v-154q-112 9 -208 9q-48 0 -72 -11.5t-24 -43.5v-10q0 -51 65 -51h66q101 0 155.5 -56t54.5 -146v-33
q0 -92 -32 -142.5t-90.5 -69t-150.5 -18.5q-128 0 -239 29zM205 -146l26 9q24 8 31.5 19t7.5 39h117q0 -78 -26.5 -112t-94.5 -34h-61v79z" />
    <glyph glyph-name="uni1E60" unicode="&#x1e60;" horiz-adv-x="597" 
d="M49 23v154q100 -9 229 -9q51 0 75 11.5t24 39.5v12q0 21 -15 32.5t-37 11.5h-53q-119 0 -177.5 52.5t-58.5 169.5v33q0 109 65 164t191 55q110 0 232 -29v-154q-112 9 -208 9q-48 0 -72 -11.5t-24 -43.5v-10q0 -51 65 -51h66q101 0 155.5 -56t54.5 -146v-33
q0 -92 -32 -142.5t-90.5 -69t-150.5 -18.5q-128 0 -239 29zM228.5 800.5q-6.5 6.5 -6.5 16.5v111q0 12 6 18.5t18 6.5h90q11 0 17 -7t6 -18v-111q0 -11 -6 -17t-17 -6h-90q-11 0 -17.5 6.5z" />
    <glyph glyph-name="uni1E62" unicode="&#x1e62;" horiz-adv-x="597" 
d="M49 23v154q100 -9 229 -9q51 0 75 11.5t24 39.5v12q0 21 -15 32.5t-37 11.5h-53q-119 0 -177.5 52.5t-58.5 169.5v33q0 109 65 164t191 55q110 0 232 -29v-154q-112 9 -208 9q-48 0 -72 -11.5t-24 -43.5v-10q0 -51 65 -51h66q101 0 155.5 -56t54.5 -146v-33
q0 -92 -32 -142.5t-90.5 -69t-150.5 -18.5q-128 0 -239 29zM232.5 -229.5q-6.5 6.5 -6.5 16.5v111q0 12 6 18.5t18 6.5h90q11 0 17 -7t6 -18v-111q0 -11 -6 -17t-17 -6h-90q-11 0 -17.5 6.5z" />
    <glyph glyph-name="uni1E68" unicode="&#x1e68;" horiz-adv-x="597" 
d="M49 23v154q100 -9 229 -9q51 0 75 11.5t24 39.5v12q0 21 -15 32.5t-37 11.5h-53q-119 0 -177.5 52.5t-58.5 169.5v33q0 109 65 164t191 55q110 0 232 -29v-154q-112 9 -208 9q-48 0 -72 -11.5t-24 -43.5v-10q0 -51 65 -51h66q101 0 155.5 -56t54.5 -146v-33
q0 -92 -32 -142.5t-90.5 -69t-150.5 -18.5q-128 0 -239 29zM232.5 -229.5q-6.5 6.5 -6.5 16.5v111q0 12 6 18.5t18 6.5h90q11 0 17 -7t6 -18v-111q0 -11 -6 -17t-17 -6h-90q-11 0 -17.5 6.5zM228.5 800.5q-6.5 6.5 -6.5 16.5v111q0 12 6 18.5t18 6.5h90q11 0 17 -7t6 -18
v-111q0 -11 -6 -17t-17 -6h-90q-11 0 -17.5 6.5z" />
    <glyph glyph-name="uni1E9E" unicode="&#x1e9e;" horiz-adv-x="757" 
d="M673.5 370.5q47.5 -45.5 47.5 -131.5v-33q0 -85 -28.5 -131.5t-80.5 -63.5t-134 -17q-90 0 -169 21v154h139q41 0 60 11t19 39v7q0 26 -17 35t-55 9h-123v154l116 145h-142q-29 0 -43 -13t-14 -34v-522h-194v519q0 116 67.5 170t175.5 54q120 0 200.5 -3t168.5 -10v-151
l-125 -156q84 -7 131.5 -52.5z" />
    <glyph glyph-name="uni018F" unicode="&#x18f;" horiz-adv-x="635" 
d="M99.5 72.5q-74.5 78.5 -74.5 251.5v120h379q-4 74 -46 103t-127 29q-97 0 -169 -9v151q83 32 214 32q103 0 173 -29.5t110 -109.5t40 -225q0 -156 -37 -242t-100.5 -118t-155.5 -32q-132 0 -206.5 78.5zM401 290h-179q3 -68 21.5 -95t64.5 -27q84 0 93 122z" />
    <glyph glyph-name="T" unicode="T" horiz-adv-x="600" 
d="M203 569h-187v174h568v-174h-187v-569h-194v569z" />
    <glyph glyph-name="Tbar" unicode="&#x166;" horiz-adv-x="600" 
d="M397 569v-142h163v-94h-163v-333h-194v333h-163v94h163v142h-187v174h568v-174h-187z" />
    <glyph glyph-name="Tcaron" unicode="&#x164;" horiz-adv-x="600" 
d="M203 569h-187v174h568v-174h-187v-569h-194v569zM140 937h111l49 -61l50 61h112l-100 -146h-131z" />
    <glyph glyph-name="uni0162" unicode="&#x162;" horiz-adv-x="600" 
d="M584 743v-174h-187v-569h-37l-30 -49q27 -4 45 -21t18 -47q0 -41 -28 -63.5t-85 -22.5h-59v79l15 3q32 6 32 27q0 23 -32 32l38 62h-71v569h-187v174h568z" />
    <glyph glyph-name="uni021A" unicode="&#x21a;" horiz-adv-x="600" 
d="M203 569h-187v174h568v-174h-187v-569h-194v569zM181 -146l26 9q24 8 31.5 19t7.5 39h117q0 -78 -26.5 -112t-94.5 -34h-61v79z" />
    <glyph glyph-name="uni1E6A" unicode="&#x1e6a;" horiz-adv-x="600" 
d="M203 569h-187v174h568v-174h-187v-569h-194v569zM234.5 800.5q-6.5 6.5 -6.5 16.5v111q0 12 6 18.5t18 6.5h90q11 0 17 -7t6 -18v-111q0 -11 -6 -17t-17 -6h-90q-11 0 -17.5 6.5z" />
    <glyph glyph-name="uni1E6C" unicode="&#x1e6c;" horiz-adv-x="600" 
d="M203 569h-187v174h568v-174h-187v-569h-194v569zM238.5 -229.5q-6.5 6.5 -6.5 16.5v111q0 12 6 18.5t18 6.5h90q11 0 17 -7t6 -18v-111q0 -11 -6 -17t-17 -6h-90q-11 0 -17.5 6.5z" />
    <glyph glyph-name="uni1E6E" unicode="&#x1e6e;" horiz-adv-x="600" 
d="M203 569h-187v174h568v-174h-187v-569h-194v569zM159 -115h292v-114h-292v114z" />
    <glyph glyph-name="U" unicode="U" horiz-adv-x="692" 
d="M124.5 48q-79.5 53 -79.5 197v498h194v-497q0 -38 27.5 -57.5t79.5 -19.5t79.5 19.5t27.5 57.5v497h194v-498q0 -144 -79.5 -197t-221.5 -53t-221.5 53z" />
    <glyph glyph-name="Uacute" unicode="&#xda;" horiz-adv-x="692" 
d="M124.5 48q-79.5 53 -79.5 197v498h194v-497q0 -38 27.5 -57.5t79.5 -19.5t79.5 19.5t27.5 57.5v497h194v-498q0 -144 -79.5 -197t-221.5 -53t-221.5 53zM352 934h154l-108 -143h-114z" />
    <glyph glyph-name="Ubreve" unicode="&#x16c;" horiz-adv-x="692" 
d="M124.5 48q-79.5 53 -79.5 197v498h194v-497q0 -38 27.5 -57.5t79.5 -19.5t79.5 19.5t27.5 57.5v497h194v-498q0 -144 -79.5 -197t-221.5 -53t-221.5 53zM219.5 819.5q-36.5 39.5 -36.5 117.5h89q0 -37 16 -53.5t39 -16.5q55 0 55 70h91q0 -157 -146 -157
q-71 0 -107.5 39.5z" />
    <glyph glyph-name="Ucircumflex" unicode="&#xdb;" horiz-adv-x="692" 
d="M124.5 48q-79.5 53 -79.5 197v498h194v-497q0 -38 27.5 -57.5t79.5 -19.5t79.5 19.5t27.5 57.5v497h194v-498q0 -144 -79.5 -197t-221.5 -53t-221.5 53zM272 937h131l91 -146h-111l-49 61l-50 -61h-112z" />
    <glyph glyph-name="uni0214" unicode="&#x214;" horiz-adv-x="692" 
d="M124.5 48q-79.5 53 -79.5 197v498h194v-497q0 -38 27.5 -57.5t79.5 -19.5t79.5 19.5t27.5 57.5v497h194v-498q0 -144 -79.5 -197t-221.5 -53t-221.5 53zM85 934h154l68 -143h-114zM285 934h154l68 -143h-114z" />
    <glyph glyph-name="Udieresis" unicode="&#xdc;" horiz-adv-x="692" 
d="M124.5 48q-79.5 53 -79.5 197v498h194v-497q0 -38 27.5 -57.5t79.5 -19.5t79.5 19.5t27.5 57.5v497h194v-498q0 -144 -79.5 -197t-221.5 -53t-221.5 53zM167.5 793.5q-6.5 6.5 -6.5 16.5v111q0 12 6 18.5t18 6.5h90q11 0 17 -7t6 -18v-111q0 -11 -6 -17t-17 -6h-90
q-11 0 -17.5 6.5zM364.5 793.5q-6.5 6.5 -6.5 16.5v111q0 12 6 18.5t18 6.5h90q11 0 17 -7t6 -18v-111q0 -11 -6 -17t-17 -6h-90q-11 0 -17.5 6.5z" />
    <glyph glyph-name="uni1EE4" unicode="&#x1ee4;" horiz-adv-x="692" 
d="M124.5 48q-79.5 53 -79.5 197v498h194v-497q0 -38 27.5 -57.5t79.5 -19.5t79.5 19.5t27.5 57.5v497h194v-498q0 -144 -79.5 -197t-221.5 -53t-221.5 53zM272.5 -229.5q-6.5 6.5 -6.5 16.5v111q0 12 6 18.5t18 6.5h90q11 0 17 -7t6 -18v-111q0 -11 -6 -17t-17 -6h-90
q-11 0 -17.5 6.5z" />
    <glyph glyph-name="Ugrave" unicode="&#xd9;" horiz-adv-x="692" 
d="M124.5 48q-79.5 53 -79.5 197v498h194v-497q0 -38 27.5 -57.5t79.5 -19.5t79.5 19.5t27.5 57.5v497h194v-498q0 -144 -79.5 -197t-221.5 -53t-221.5 53zM194 934h154l68 -143h-114z" />
    <glyph glyph-name="uni1EE6" unicode="&#x1ee6;" horiz-adv-x="692" 
d="M124.5 48q-79.5 53 -79.5 197v498h194v-497q0 -38 27.5 -57.5t79.5 -19.5t79.5 19.5t27.5 57.5v497h194v-498q0 -144 -79.5 -197t-221.5 -53t-221.5 53zM300 852q29 8 29 28q0 16 -24 16q-10 0 -30 -6v74q27 9 56 9q49 0 73.5 -22t24.5 -64q0 -45 -30 -72t-99 -47v84z
" />
    <glyph glyph-name="Uhorn" unicode="&#x1af;" horiz-adv-x="692" 
d="M709.5 731q-21.5 -49 -62.5 -72v-414q0 -144 -79.5 -197t-221.5 -53t-221.5 53t-79.5 197v498h194v-497q0 -38 27.5 -57.5t79.5 -19.5t79.5 19.5t27.5 57.5v497h79q34 0 50.5 24.5t16.5 83.5h132q0 -71 -21.5 -120z" />
    <glyph glyph-name="uni1EE8" unicode="&#x1ee8;" horiz-adv-x="692" 
d="M709.5 731q-21.5 -49 -62.5 -72v-414q0 -144 -79.5 -197t-221.5 -53t-221.5 53t-79.5 197v498h194v-497q0 -38 27.5 -57.5t79.5 -19.5t79.5 19.5t27.5 57.5v497h79q34 0 50.5 24.5t16.5 83.5h132q0 -71 -21.5 -120zM349 934h154l-108 -143h-114z" />
    <glyph glyph-name="uni1EF0" unicode="&#x1ef0;" horiz-adv-x="692" 
d="M709.5 731q-21.5 -49 -62.5 -72v-414q0 -144 -79.5 -197t-221.5 -53t-221.5 53t-79.5 197v498h194v-497q0 -38 27.5 -57.5t79.5 -19.5t79.5 19.5t27.5 57.5v497h79q34 0 50.5 24.5t16.5 83.5h132q0 -71 -21.5 -120zM271.5 -229.5q-6.5 6.5 -6.5 16.5v111q0 12 6 18.5
t18 6.5h90q11 0 17 -7t6 -18v-111q0 -11 -6 -17t-17 -6h-90q-11 0 -17.5 6.5z" />
    <glyph glyph-name="uni1EEA" unicode="&#x1eea;" horiz-adv-x="692" 
d="M709.5 731q-21.5 -49 -62.5 -72v-414q0 -144 -79.5 -197t-221.5 -53t-221.5 53t-79.5 197v498h194v-497q0 -38 27.5 -57.5t79.5 -19.5t79.5 19.5t27.5 57.5v497h79q34 0 50.5 24.5t16.5 83.5h132q0 -71 -21.5 -120zM191 934h154l68 -143h-114z" />
    <glyph glyph-name="uni1EEC" unicode="&#x1eec;" horiz-adv-x="692" 
d="M709.5 731q-21.5 -49 -62.5 -72v-414q0 -144 -79.5 -197t-221.5 -53t-221.5 53t-79.5 197v498h194v-497q0 -38 27.5 -57.5t79.5 -19.5t79.5 19.5t27.5 57.5v497h79q34 0 50.5 24.5t16.5 83.5h132q0 -71 -21.5 -120zM316 852q29 8 29 28q0 16 -24 16q-10 0 -30 -6v74
q27 9 56 9q49 0 73.5 -22t24.5 -64q0 -45 -30 -72t-99 -47v84z" />
    <glyph glyph-name="uni1EEE" unicode="&#x1eee;" horiz-adv-x="692" 
d="M709.5 731q-21.5 -49 -62.5 -72v-414q0 -144 -79.5 -197t-221.5 -53t-221.5 53t-79.5 197v498h194v-497q0 -38 27.5 -57.5t79.5 -19.5t79.5 19.5t27.5 57.5v497h79q34 0 50.5 24.5t16.5 83.5h132q0 -71 -21.5 -120zM197.5 887.5q29.5 34.5 76.5 34.5q26 0 45.5 -6
t40.5 -16q17 -8 29 -11.5t25 -3.5q28 0 31 44h96q-7 -150 -108 -150q-25 0 -46.5 6t-44.5 17q-3 1 -19.5 7.5t-30.5 6.5q-27 0 -33 -39h-96q5 76 34.5 110.5z" />
    <glyph glyph-name="Uhungarumlaut" unicode="&#x170;" horiz-adv-x="692" 
d="M124.5 48q-79.5 53 -79.5 197v498h194v-497q0 -38 27.5 -57.5t79.5 -19.5t79.5 19.5t27.5 57.5v497h194v-498q0 -144 -79.5 -197t-221.5 -53t-221.5 53zM242 934h144l-88 -143h-114zM415 934h144l-88 -143h-114z" />
    <glyph glyph-name="uni0216" unicode="&#x216;" horiz-adv-x="692" 
d="M124.5 48q-79.5 53 -79.5 197v498h194v-497q0 -38 27.5 -57.5t79.5 -19.5t79.5 19.5t27.5 57.5v497h194v-498q0 -144 -79.5 -197t-221.5 -53t-221.5 53zM444.5 900.5q36.5 -39.5 36.5 -117.5h-89q0 37 -16 53.5t-39 16.5q-55 0 -55 -70h-91q0 157 146 157
q71 0 107.5 -39.5z" />
    <glyph glyph-name="Umacron" unicode="&#x16a;" horiz-adv-x="692" 
d="M124.5 48q-79.5 53 -79.5 197v498h194v-497q0 -38 27.5 -57.5t79.5 -19.5t79.5 19.5t27.5 57.5v497h194v-498q0 -144 -79.5 -197t-221.5 -53t-221.5 53zM183 905h292v-114h-292v114z" />
    <glyph glyph-name="uni1E7A" unicode="&#x1e7a;" horiz-adv-x="692" 
d="M124.5 48q-79.5 53 -79.5 197v498h194v-497q0 -38 27.5 -57.5t79.5 -19.5t79.5 19.5t27.5 57.5v497h194v-498q0 -144 -79.5 -197t-221.5 -53t-221.5 53zM183 905h292v-114h-292v114zM167.5 943.5q-6.5 6.5 -6.5 16.5v111q0 12 6 18.5t18 6.5h90q11 0 17 -7t6 -18v-111
q0 -11 -6 -17t-17 -6h-90q-11 0 -17.5 6.5zM364.5 943.5q-6.5 6.5 -6.5 16.5v111q0 12 6 18.5t18 6.5h90q11 0 17 -7t6 -18v-111q0 -11 -6 -17t-17 -6h-90q-11 0 -17.5 6.5z" />
    <glyph glyph-name="Uogonek" unicode="&#x172;" horiz-adv-x="692" 
d="M647 743v-498q0 -119 -56.5 -175.5t-158.5 -69.5q-22 -15 -30.5 -28.5t-8.5 -30.5q0 -19 12.5 -30.5t29.5 -11.5h10v-90q-10 -5 -36 -5q-56 0 -81.5 27.5t-25.5 64.5q0 33 14 58t39 41h-9q-142 0 -221.5 53t-79.5 197v498h194v-497q0 -38 27.5 -57.5t79.5 -19.5
t79.5 19.5t27.5 57.5v497h194z" />
    <glyph glyph-name="Uring" unicode="&#x16e;" horiz-adv-x="692" 
d="M124.5 48q-79.5 53 -79.5 197v498h194v-497q0 -38 27.5 -57.5t79.5 -19.5t79.5 19.5t27.5 57.5v497h194v-498q0 -144 -79.5 -197t-221.5 -53t-221.5 53zM235.5 796.5q-32.5 26.5 -32.5 90.5t33 91t99 27q67 0 99 -27t32 -91t-32 -90.5t-99 -26.5t-99.5 26.5zM368 849.5
q10 10.5 10 37.5t-10 38t-33 11t-33.5 -11t-10.5 -38q0 -26 10.5 -37t33.5 -11t33 10.5z" />
    <glyph glyph-name="Utilde" unicode="&#x168;" horiz-adv-x="692" 
d="M124.5 48q-79.5 53 -79.5 197v498h194v-497q0 -38 27.5 -57.5t79.5 -19.5t79.5 19.5t27.5 57.5v497h194v-498q0 -144 -79.5 -197t-221.5 -53t-221.5 53zM170.5 887.5q29.5 34.5 76.5 34.5q26 0 45.5 -6t40.5 -16q17 -8 29 -11.5t25 -3.5q28 0 31 44h96q-7 -150 -108 -150
q-25 0 -46.5 6t-44.5 17q-3 1 -19.5 7.5t-30.5 6.5q-27 0 -33 -39h-96q5 76 34.5 110.5z" />
    <glyph glyph-name="uni1E78" unicode="&#x1e78;" horiz-adv-x="692" 
d="M124.5 48q-79.5 53 -79.5 197v498h194v-497q0 -38 27.5 -57.5t79.5 -19.5t79.5 19.5t27.5 57.5v497h194v-498q0 -144 -79.5 -197t-221.5 -53t-221.5 53zM170.5 887.5q29.5 34.5 76.5 34.5q26 0 45.5 -6t40.5 -16q17 -8 29 -11.5t25 -3.5q28 0 31 44h96q-7 -150 -108 -150
q-25 0 -46.5 6t-44.5 17q-3 1 -19.5 7.5t-30.5 6.5q-27 0 -33 -39h-96q5 76 34.5 110.5zM352 1084h154l-108 -143h-114z" />
    <glyph glyph-name="V" unicode="V" horiz-adv-x="692" 
d="M5 743h201l141 -532l141 532h199l-220 -743h-242z" />
    <glyph glyph-name="W" unicode="W" horiz-adv-x="991" 
d="M5 743h201l92 -452l111 452h174l110 -452l92 452h201l-170 -743h-194l-126 454l-127 -454h-194z" />
    <glyph glyph-name="Wacute" unicode="&#x1e82;" horiz-adv-x="991" 
d="M5 743h201l92 -452l111 452h174l110 -452l92 452h201l-170 -743h-194l-126 454l-127 -454h-194zM552 934h154l-108 -143h-114z" />
    <glyph glyph-name="Wcircumflex" unicode="&#x174;" horiz-adv-x="991" 
d="M5 743h201l92 -452l111 452h174l110 -452l92 452h201l-170 -743h-194l-126 454l-127 -454h-194zM472 937h131l91 -146h-111l-49 61l-50 -61h-112z" />
    <glyph glyph-name="Wdieresis" unicode="&#x1e84;" horiz-adv-x="991" 
d="M5 743h201l92 -452l111 452h174l110 -452l92 452h201l-170 -743h-194l-126 454l-127 -454h-194zM367.5 793.5q-6.5 6.5 -6.5 16.5v111q0 12 6 18.5t18 6.5h90q11 0 17 -7t6 -18v-111q0 -11 -6 -17t-17 -6h-90q-11 0 -17.5 6.5zM564.5 793.5q-6.5 6.5 -6.5 16.5v111
q0 12 6 18.5t18 6.5h90q11 0 17 -7t6 -18v-111q0 -11 -6 -17t-17 -6h-90q-11 0 -17.5 6.5z" />
    <glyph glyph-name="Wgrave" unicode="&#x1e80;" horiz-adv-x="991" 
d="M5 743h201l92 -452l111 452h174l110 -452l92 452h201l-170 -743h-194l-126 454l-127 -454h-194zM394 934h154l68 -143h-114z" />
    <glyph glyph-name="X" unicode="X" horiz-adv-x="690" 
d="M454 364l226 -364h-214l-130 209l-114 -209h-214l226 373l-229 370h214l134 -217l118 217h214z" />
    <glyph glyph-name="Y" unicode="Y" horiz-adv-x="634" 
d="M220 211l-215 532h201l115 -334l115 334h193l-215 -532v-211h-194v211z" />
    <glyph glyph-name="Yacute" unicode="&#xdd;" horiz-adv-x="634" 
d="M220 211l-215 532h201l115 -334l115 334h193l-215 -532v-211h-194v211zM339 934h154l-108 -143h-114z" />
    <glyph glyph-name="Ycircumflex" unicode="&#x176;" horiz-adv-x="634" 
d="M220 211l-215 532h201l115 -334l115 334h193l-215 -532v-211h-194v211zM259 937h131l91 -146h-111l-49 61l-50 -61h-112z" />
    <glyph glyph-name="Ydieresis" unicode="&#x178;" horiz-adv-x="634" 
d="M220 211l-215 532h201l115 -334l115 334h193l-215 -532v-211h-194v211zM154.5 793.5q-6.5 6.5 -6.5 16.5v111q0 12 6 18.5t18 6.5h90q11 0 17 -7t6 -18v-111q0 -11 -6 -17t-17 -6h-90q-11 0 -17.5 6.5zM351.5 793.5q-6.5 6.5 -6.5 16.5v111q0 12 6 18.5t18 6.5h90
q11 0 17 -7t6 -18v-111q0 -11 -6 -17t-17 -6h-90q-11 0 -17.5 6.5z" />
    <glyph glyph-name="uni1E8E" unicode="&#x1e8e;" horiz-adv-x="634" 
d="M220 211l-215 532h201l115 -334l115 334h193l-215 -532v-211h-194v211zM259.5 -229.5q-6.5 6.5 -6.5 16.5v111q0 12 6 18.5t18 6.5h90q11 0 17 -7t6 -18v-111q0 -11 -6 -17t-17 -6h-90q-11 0 -17.5 6.5z" />
    <glyph glyph-name="uni1EF4" unicode="&#x1ef4;" horiz-adv-x="634" 
d="M220 211l-215 532h201l115 -334l115 334h193l-215 -532v-211h-194v211zM259.5 -229.5q-6.5 6.5 -6.5 16.5v111q0 12 6 18.5t18 6.5h90q11 0 17 -7t6 -18v-111q0 -11 -6 -17t-17 -6h-90q-11 0 -17.5 6.5z" />
    <glyph glyph-name="Ygrave" unicode="&#x1ef2;" horiz-adv-x="634" 
d="M220 211l-215 532h201l115 -334l115 334h193l-215 -532v-211h-194v211zM181 934h154l68 -143h-114z" />
    <glyph glyph-name="uni1EF6" unicode="&#x1ef6;" horiz-adv-x="634" 
d="M220 211l-215 532h201l115 -334l115 334h193l-215 -532v-211h-194v211zM287 852q29 8 29 28q0 16 -24 16q-10 0 -30 -6v74q27 9 56 9q49 0 73.5 -22t24.5 -64q0 -45 -30 -72t-99 -47v84z" />
    <glyph glyph-name="uni0232" unicode="&#x232;" horiz-adv-x="634" 
d="M220 211l-215 532h201l115 -334l115 334h193l-215 -532v-211h-194v211zM170 905h292v-114h-292v114z" />
    <glyph glyph-name="uni1EF8" unicode="&#x1ef8;" horiz-adv-x="634" 
d="M220 211l-215 532h201l115 -334l115 334h193l-215 -532v-211h-194v211zM157.5 887.5q29.5 34.5 76.5 34.5q26 0 45.5 -6t40.5 -16q17 -8 29 -11.5t25 -3.5q28 0 31 44h96q-7 -150 -108 -150q-25 0 -46.5 6t-44.5 17q-3 1 -19.5 7.5t-30.5 6.5q-27 0 -33 -39h-96
q5 76 34.5 110.5z" />
    <glyph glyph-name="Z" unicode="Z" horiz-adv-x="583" 
d="M35 154l277 415h-277v174h513v-154l-277 -415h277v-174h-513v154z" />
    <glyph glyph-name="Zacute" unicode="&#x179;" horiz-adv-x="583" 
d="M35 154l277 415h-277v174h513v-154l-277 -415h277v-174h-513v154zM303 934h154l-108 -143h-114z" />
    <glyph glyph-name="Zcaron" unicode="&#x17d;" horiz-adv-x="583" 
d="M35 154l277 415h-277v174h513v-154l-277 -415h277v-174h-513v154zM125 937h111l49 -61l50 61h112l-100 -146h-131z" />
    <glyph glyph-name="Zdotaccent" unicode="&#x17b;" horiz-adv-x="583" 
d="M35 154l277 415h-277v174h513v-154l-277 -415h277v-174h-513v154zM219.5 800.5q-6.5 6.5 -6.5 16.5v111q0 12 6 18.5t18 6.5h90q11 0 17 -7t6 -18v-111q0 -11 -6 -17t-17 -6h-90q-11 0 -17.5 6.5z" />
    <glyph glyph-name="uni1E92" unicode="&#x1e92;" horiz-adv-x="583" 
d="M35 154l277 415h-277v174h513v-154l-277 -415h277v-174h-513v154zM223.5 -229.5q-6.5 6.5 -6.5 16.5v111q0 12 6 18.5t18 6.5h90q11 0 17 -7t6 -18v-111q0 -11 -6 -17t-17 -6h-90q-11 0 -17.5 6.5z" />
    <glyph glyph-name="M.salt" horiz-adv-x="906" 
d="M118.5 721q48.5 39 120.5 39q71 0 114 -37t56 -129l32 -239q4 -24 18 -24q15 0 18 24l30 239q12 94 55.5 129.5t115.5 35.5q71 0 118 -38t52 -128l32 -593h-187l-25 546q-1 12 -4 16.5t-9 4.5q-5 0 -8 -4.5t-5 -16.5l-44 -293q-10 -67 -48.5 -96.5t-92.5 -29.5t-92 29.5
t-48 96.5l-43 295q-1 10 -4 14t-8 4q-7 0 -10.5 -5.5t-4.5 -19.5l-25 -541h-187l30 591q5 91 53.5 130z" />
    <glyph glyph-name="uni1E40.salt" horiz-adv-x="906" 
d="M118.5 721q48.5 39 120.5 39q71 0 114 -37t56 -129l32 -239q4 -24 18 -24q15 0 18 24l30 239q12 94 55.5 129.5t115.5 35.5q71 0 118 -38t52 -128l32 -593h-187l-25 546q-1 12 -4 16.5t-9 4.5q-5 0 -8 -4.5t-5 -16.5l-44 -293q-10 -67 -48.5 -96.5t-92.5 -29.5t-92 29.5
t-48 96.5l-43 295q-1 10 -4 14t-8 4q-7 0 -10.5 -5.5t-4.5 -19.5l-25 -541h-187l30 591q5 91 53.5 130zM381.5 800.5q-6.5 6.5 -6.5 16.5v111q0 12 6 18.5t18 6.5h90q11 0 17 -7t6 -18v-111q0 -11 -6 -17t-17 -6h-90q-11 0 -17.5 6.5z" />
    <glyph glyph-name="uni1E42.salt" horiz-adv-x="906" 
d="M118.5 721q48.5 39 120.5 39q71 0 114 -37t56 -129l32 -239q4 -24 18 -24q15 0 18 24l30 239q12 94 55.5 129.5t115.5 35.5q71 0 118 -38t52 -128l32 -593h-187l-25 546q-1 12 -4 16.5t-9 4.5q-5 0 -8 -4.5t-5 -16.5l-44 -293q-10 -67 -48.5 -96.5t-92.5 -29.5t-92 29.5
t-48 96.5l-43 295q-1 10 -4 14t-8 4q-7 0 -10.5 -5.5t-4.5 -19.5l-25 -541h-187l30 591q5 91 53.5 130zM385.5 -229.5q-6.5 6.5 -6.5 16.5v111q0 12 6 18.5t18 6.5h90q11 0 17 -7t6 -18v-111q0 -11 -6 -17t-17 -6h-90q-11 0 -17.5 6.5z" />
    <glyph glyph-name="N.salt" horiz-adv-x="826" 
d="M103.5 705q48.5 44 138.5 44q85 0 128 -42.5t68 -123.5l120 -384q4 -11 10 -11q9 0 9 14v541h194v-568q0 -97 -49.5 -139t-139.5 -42q-79 0 -121 38t-68 121l-124 393q-3 9 -10 9q-10 0 -10 -16v-539h-194v559q0 102 48.5 146z" />
    <glyph glyph-name="Nacute.salt" horiz-adv-x="826" 
d="M103.5 705q48.5 44 138.5 44q85 0 128 -42.5t68 -123.5l120 -384q4 -11 10 -11q9 0 9 14v541h194v-568q0 -97 -49.5 -139t-139.5 -42q-79 0 -121 38t-68 121l-124 393q-3 9 -10 9q-10 0 -10 -16v-539h-194v559q0 102 48.5 146zM469 934h154l-108 -143h-114z" />
    <glyph glyph-name="Ncaron.salt" horiz-adv-x="826" 
d="M103.5 705q48.5 44 138.5 44q85 0 128 -42.5t68 -123.5l120 -384q4 -11 10 -11q9 0 9 14v541h194v-568q0 -97 -49.5 -139t-139.5 -42q-79 0 -121 38t-68 121l-124 393q-3 9 -10 9q-10 0 -10 -16v-539h-194v559q0 102 48.5 146zM291 937h111l49 -61l50 61h112l-100 -146
h-131z" />
    <glyph glyph-name="Ncommaaccent.salt" horiz-adv-x="826" 
d="M103.5 705q48.5 44 138.5 44q85 0 128 -42.5t68 -123.5l120 -384q4 -11 10 -11q9 0 9 14v541h194v-568q0 -97 -49.5 -139t-139.5 -42q-79 0 -121 38t-68 121l-124 393q-3 9 -10 9q-10 0 -10 -16v-539h-194v559q0 102 48.5 146zM342 -146l26 9q24 8 31.5 19t7.5 39h117
q0 -78 -26.5 -112t-94.5 -34h-61v79z" />
    <glyph glyph-name="uni1E44.salt" horiz-adv-x="826" 
d="M103.5 705q48.5 44 138.5 44q85 0 128 -42.5t68 -123.5l120 -384q4 -11 10 -11q9 0 9 14v541h194v-568q0 -97 -49.5 -139t-139.5 -42q-79 0 -121 38t-68 121l-124 393q-3 9 -10 9q-10 0 -10 -16v-539h-194v559q0 102 48.5 146zM369.5 -229.5q-6.5 6.5 -6.5 16.5v111
q0 12 6 18.5t18 6.5h90q11 0 17 -7t6 -18v-111q0 -11 -6 -17t-17 -6h-90q-11 0 -17.5 6.5z" />
    <glyph glyph-name="uni1E46.salt" horiz-adv-x="826" 
d="M103.5 705q48.5 44 138.5 44q85 0 128 -42.5t68 -123.5l120 -384q4 -11 10 -11q9 0 9 14v541h194v-568q0 -97 -49.5 -139t-139.5 -42q-79 0 -121 38t-68 121l-124 393q-3 9 -10 9q-10 0 -10 -16v-539h-194v559q0 102 48.5 146zM369.5 -229.5q-6.5 6.5 -6.5 16.5v111
q0 12 6 18.5t18 6.5h90q11 0 17 -7t6 -18v-111q0 -11 -6 -17t-17 -6h-90q-11 0 -17.5 6.5z" />
    <glyph glyph-name="uni1E48.salt" horiz-adv-x="826" 
d="M103.5 705q48.5 44 138.5 44q85 0 128 -42.5t68 -123.5l120 -384q4 -11 10 -11q9 0 9 14v541h194v-568q0 -97 -49.5 -139t-139.5 -42q-79 0 -121 38t-68 121l-124 393q-3 9 -10 9q-10 0 -10 -16v-539h-194v559q0 102 48.5 146zM290 -115h292v-114h-292v114z" />
    <glyph glyph-name="Ntilde.salt" horiz-adv-x="826" 
d="M103.5 705q48.5 44 138.5 44q85 0 128 -42.5t68 -123.5l120 -384q4 -11 10 -11q9 0 9 14v541h194v-568q0 -97 -49.5 -139t-139.5 -42q-79 0 -121 38t-68 121l-124 393q-3 9 -10 9q-10 0 -10 -16v-539h-194v559q0 102 48.5 146zM287.5 887.5q29.5 34.5 76.5 34.5
q26 0 45.5 -6t40.5 -16q17 -8 29 -11.5t25 -3.5q28 0 31 44h96q-7 -150 -108 -150q-25 0 -46.5 6t-44.5 17q-3 1 -19.5 7.5t-30.5 6.5q-27 0 -33 -39h-96q5 76 34.5 110.5z" />
    <glyph glyph-name="W.salt" horiz-adv-x="1051" 
d="M338 221l130 522h200l-46 -202l105 -320l120 522h199l-180 -743h-252l-84 248l-83 -248h-252l-190 743h201z" />
    <glyph glyph-name="Wacute.salt" horiz-adv-x="1051" 
d="M338 221l130 522h200l-46 -202l105 -320l120 522h199l-180 -743h-252l-84 248l-83 -248h-252l-190 743h201zM552 934h154l-108 -143h-114z" />
    <glyph glyph-name="Wcircumflex.salt" horiz-adv-x="1051" 
d="M338 221l130 522h200l-46 -202l105 -320l120 522h199l-180 -743h-252l-84 248l-83 -248h-252l-190 743h201zM472 937h131l91 -146h-111l-49 61l-50 -61h-112z" />
    <glyph glyph-name="Wdieresis.salt" horiz-adv-x="1051" 
d="M338 221l130 522h200l-46 -202l105 -320l120 522h199l-180 -743h-252l-84 248l-83 -248h-252l-190 743h201zM367.5 793.5q-6.5 6.5 -6.5 16.5v111q0 12 6 18.5t18 6.5h90q11 0 17 -7t6 -18v-111q0 -11 -6 -17t-17 -6h-90q-11 0 -17.5 6.5zM564.5 793.5
q-6.5 6.5 -6.5 16.5v111q0 12 6 18.5t18 6.5h90q11 0 17 -7t6 -18v-111q0 -11 -6 -17t-17 -6h-90q-11 0 -17.5 6.5z" />
    <glyph glyph-name="Wgrave.salt" horiz-adv-x="1051" 
d="M338 221l130 522h200l-46 -202l105 -320l120 522h199l-180 -743h-252l-84 248l-83 -248h-252l-190 743h201zM394 934h154l68 -143h-114z" />
    <glyph glyph-name="X.salt" horiz-adv-x="725" 
d="M153 372q0 38 -20 84l-128 287h200l120 -245q26 -54 26 -124q0 -71 -26 -128l-110 -246h-210l128 288q20 46 20 84zM374 374q0 70 26 124l120 245h200l-128 -287q-20 -46 -20 -84t20 -84l128 -288h-210l-110 246q-26 57 -26 128z" />
    <glyph glyph-name="a" unicode="a" horiz-adv-x="554" 
d="M64 31q-38 37 -38 100v55q0 63 46 101.5t138 38.5h108v17q0 22 -7 32.5t-28.5 15t-67.5 4.5h-157v111q47 18 102 28.5t128 10.5q111 0 167.5 -40.5t56.5 -147.5v-357h-154l-30 54q-24 -24 -65 -42t-98 -18q-63 0 -101 37zM294.5 130.5q15.5 4.5 23.5 8.5v97l-41 -6
q-29 -4 -43 -15t-14 -32v-20q0 -20 12 -28.5t35 -8.5q12 0 27.5 4.5z" />
    <glyph glyph-name="aacute" unicode="&#xe1;" horiz-adv-x="554" 
d="M64 31q-38 37 -38 100v55q0 63 46 101.5t138 38.5h108v17q0 22 -7 32.5t-28.5 15t-67.5 4.5h-157v111q47 18 102 28.5t128 10.5q111 0 167.5 -40.5t56.5 -147.5v-357h-154l-30 54q-24 -24 -65 -42t-98 -18q-63 0 -101 37zM294.5 130.5q15.5 4.5 23.5 8.5v97l-41 -6
q-29 -4 -43 -15t-14 -32v-20q0 -20 12 -28.5t35 -8.5q12 0 27.5 4.5zM288 774h154l-108 -143h-114z" />
    <glyph glyph-name="abreve" unicode="&#x103;" horiz-adv-x="554" 
d="M64 31q-38 37 -38 100v55q0 63 46 101.5t138 38.5h108v17q0 22 -7 32.5t-28.5 15t-67.5 4.5h-157v111q47 18 102 28.5t128 10.5q111 0 167.5 -40.5t56.5 -147.5v-357h-154l-30 54q-24 -24 -65 -42t-98 -18q-63 0 -101 37zM294.5 130.5q15.5 4.5 23.5 8.5v97l-41 -6
q-29 -4 -43 -15t-14 -32v-20q0 -20 12 -28.5t35 -8.5q12 0 27.5 4.5zM155.5 659.5q-36.5 39.5 -36.5 117.5h89q0 -37 16 -53.5t39 -16.5q55 0 55 70h91q0 -157 -146 -157q-71 0 -107.5 39.5z" />
    <glyph glyph-name="uni1EAF" unicode="&#x1eaf;" horiz-adv-x="554" 
d="M64 31q-38 37 -38 100v55q0 63 46 101.5t138 38.5h108v17q0 22 -7 32.5t-28.5 15t-67.5 4.5h-157v111q47 18 102 28.5t128 10.5q111 0 167.5 -40.5t56.5 -147.5v-357h-154l-30 54q-24 -24 -65 -42t-98 -18q-63 0 -101 37zM294.5 130.5q15.5 4.5 23.5 8.5v97l-41 -6
q-29 -4 -43 -15t-14 -32v-20q0 -20 12 -28.5t35 -8.5q12 0 27.5 4.5zM278 904h154l-108 -143h-114zM223.5 688.5q15.5 -11.5 39.5 -11.5q55 0 55 50h91q0 -127 -146 -127q-71 0 -107.5 32t-36.5 95h89q0 -27 15.5 -38.5z" />
    <glyph glyph-name="uni1EB7" unicode="&#x1eb7;" horiz-adv-x="554" 
d="M64 31q-38 37 -38 100v55q0 63 46 101.5t138 38.5h108v17q0 22 -7 32.5t-28.5 15t-67.5 4.5h-157v111q47 18 102 28.5t128 10.5q111 0 167.5 -40.5t56.5 -147.5v-357h-154l-30 54q-24 -24 -65 -42t-98 -18q-63 0 -101 37zM294.5 130.5q15.5 4.5 23.5 8.5v97l-41 -6
q-29 -4 -43 -15t-14 -32v-20q0 -20 12 -28.5t35 -8.5q12 0 27.5 4.5zM155.5 659.5q-36.5 39.5 -36.5 117.5h89q0 -37 16 -53.5t39 -16.5q55 0 55 70h91q0 -157 -146 -157q-71 0 -107.5 39.5zM202.5 -229.5q-6.5 6.5 -6.5 16.5v111q0 12 6 18.5t18 6.5h90q11 0 17 -7t6 -18
v-111q0 -11 -6 -17t-17 -6h-90q-11 0 -17.5 6.5z" />
    <glyph glyph-name="uni1EB1" unicode="&#x1eb1;" horiz-adv-x="554" 
d="M64 31q-38 37 -38 100v55q0 63 46 101.5t138 38.5h108v17q0 22 -7 32.5t-28.5 15t-67.5 4.5h-157v111q47 18 102 28.5t128 10.5q111 0 167.5 -40.5t56.5 -147.5v-357h-154l-30 54q-24 -24 -65 -42t-98 -18q-63 0 -101 37zM294.5 130.5q15.5 4.5 23.5 8.5v97l-41 -6
q-29 -4 -43 -15t-14 -32v-20q0 -20 12 -28.5t35 -8.5q12 0 27.5 4.5zM100 904h154l68 -143h-114zM223.5 688.5q15.5 -11.5 39.5 -11.5q55 0 55 50h91q0 -127 -146 -127q-71 0 -107.5 32t-36.5 95h89q0 -27 15.5 -38.5z" />
    <glyph glyph-name="uni1EB3" unicode="&#x1eb3;" horiz-adv-x="554" 
d="M64 31q-38 37 -38 100v55q0 63 46 101.5t138 38.5h108v17q0 22 -7 32.5t-28.5 15t-67.5 4.5h-157v111q47 18 102 28.5t128 10.5q111 0 167.5 -40.5t56.5 -147.5v-357h-154l-30 54q-24 -24 -65 -42t-98 -18q-63 0 -101 37zM294.5 130.5q15.5 4.5 23.5 8.5v97l-41 -6
q-29 -4 -43 -15t-14 -32v-20q0 -20 12 -28.5t35 -8.5q12 0 27.5 4.5zM239 802q29 8 29 28q0 16 -24 16q-10 0 -30 -6v74q27 9 56 9q49 0 73.5 -22t24.5 -64q0 -45 -30 -72t-99 -47v84zM155.5 632q-36.5 32 -36.5 95h89q0 -27 15.5 -38.5t39.5 -11.5q55 0 55 50h91
q0 -127 -146 -127q-71 0 -107.5 32z" />
    <glyph glyph-name="uni1EB5" unicode="&#x1eb5;" horiz-adv-x="554" 
d="M64 31q-38 37 -38 100v55q0 63 46 101.5t138 38.5h108v17q0 22 -7 32.5t-28.5 15t-67.5 4.5h-157v111q47 18 102 28.5t128 10.5q111 0 167.5 -40.5t56.5 -147.5v-357h-154l-30 54q-24 -24 -65 -42t-98 -18q-63 0 -101 37zM294.5 130.5q15.5 4.5 23.5 8.5v97l-41 -6
q-29 -4 -43 -15t-14 -32v-20q0 -20 12 -28.5t35 -8.5q12 0 27.5 4.5zM258 866q28 -8 37 -8q29 0 29 26h96q-4 -47 -14.5 -72.5t-28 -35t-45.5 -9.5q-21 0 -43.5 5.5t-26.5 6.5q-24 7 -33 7q-14 0 -21.5 -6.5t-9.5 -14.5h-96q6 67 28 89.5t63 22.5q23 0 65 -11zM223.5 688.5
q15.5 -11.5 39.5 -11.5q55 0 55 50h91q0 -127 -146 -127q-71 0 -107.5 32t-36.5 95h89q0 -27 15.5 -38.5z" />
    <glyph glyph-name="acircumflex" unicode="&#xe2;" horiz-adv-x="554" 
d="M64 31q-38 37 -38 100v55q0 63 46 101.5t138 38.5h108v17q0 22 -7 32.5t-28.5 15t-67.5 4.5h-157v111q47 18 102 28.5t128 10.5q111 0 167.5 -40.5t56.5 -147.5v-357h-154l-30 54q-24 -24 -65 -42t-98 -18q-63 0 -101 37zM294.5 130.5q15.5 4.5 23.5 8.5v97l-41 -6
q-29 -4 -43 -15t-14 -32v-20q0 -20 12 -28.5t35 -8.5q12 0 27.5 4.5zM208 777h131l91 -146h-111l-49 61l-50 -61h-112z" />
    <glyph glyph-name="uni1EA5" unicode="&#x1ea5;" horiz-adv-x="554" 
d="M64 31q-38 37 -38 100v55q0 63 46 101.5t138 38.5h108v17q0 22 -7 32.5t-28.5 15t-67.5 4.5h-157v111q47 18 102 28.5t128 10.5q111 0 167.5 -40.5t56.5 -147.5v-357h-154l-30 54q-24 -24 -65 -42t-98 -18q-63 0 -101 37zM294.5 130.5q15.5 4.5 23.5 8.5v97l-41 -6
q-29 -4 -43 -15t-14 -32v-20q0 -20 12 -28.5t35 -8.5q12 0 27.5 4.5zM542 844l-58 -123h-114l18 123h154zM339 747l91 -116h-111l-49 31l-50 -31h-112l100 116h131z" />
    <glyph glyph-name="uni1EAD" unicode="&#x1ead;" horiz-adv-x="554" 
d="M64 31q-38 37 -38 100v55q0 63 46 101.5t138 38.5h108v17q0 22 -7 32.5t-28.5 15t-67.5 4.5h-157v111q47 18 102 28.5t128 10.5q111 0 167.5 -40.5t56.5 -147.5v-357h-154l-30 54q-24 -24 -65 -42t-98 -18q-63 0 -101 37zM294.5 130.5q15.5 4.5 23.5 8.5v97l-41 -6
q-29 -4 -43 -15t-14 -32v-20q0 -20 12 -28.5t35 -8.5q12 0 27.5 4.5zM208 777h131l91 -146h-111l-49 61l-50 -61h-112zM202.5 -229.5q-6.5 6.5 -6.5 16.5v111q0 12 6 18.5t18 6.5h90q11 0 17 -7t6 -18v-111q0 -11 -6 -17t-17 -6h-90q-11 0 -17.5 6.5z" />
    <glyph glyph-name="uni1EA7" unicode="&#x1ea7;" horiz-adv-x="554" 
d="M64 31q-38 37 -38 100v55q0 63 46 101.5t138 38.5h108v17q0 22 -7 32.5t-28.5 15t-67.5 4.5h-157v111q47 18 102 28.5t128 10.5q111 0 167.5 -40.5t56.5 -147.5v-357h-154l-30 54q-24 -24 -65 -42t-98 -18q-63 0 -101 37zM294.5 130.5q15.5 4.5 23.5 8.5v97l-41 -6
q-29 -4 -43 -15t-14 -32v-20q0 -20 12 -28.5t35 -8.5q12 0 27.5 4.5zM154 844l18 -123h-114l-58 123h154zM339 747l91 -116h-111l-49 31l-50 -31h-112l100 116h131z" />
    <glyph glyph-name="uni1EA9" unicode="&#x1ea9;" horiz-adv-x="554" 
d="M64 31q-38 37 -38 100v55q0 63 46 101.5t138 38.5h108v17q0 22 -7 32.5t-28.5 15t-67.5 4.5h-157v111q47 18 102 28.5t128 10.5q111 0 167.5 -40.5t56.5 -147.5v-357h-154l-30 54q-24 -24 -65 -42t-98 -18q-63 0 -101 37zM294.5 130.5q15.5 4.5 23.5 8.5v97l-41 -6
q-29 -4 -43 -15t-14 -32v-20q0 -20 12 -28.5t35 -8.5q12 0 27.5 4.5zM395 772q19 6 19 22q0 14 -14 14q-10 0 -30 -6v64q27 9 56 9q78 0 78 -68q0 -46 -26 -74.5t-83 -44.5v84zM208 747h131l91 -116h-111l-49 31l-50 -31h-112z" />
    <glyph glyph-name="uni1EAB" unicode="&#x1eab;" horiz-adv-x="554" 
d="M64 31q-38 37 -38 100v55q0 63 46 101.5t138 38.5h108v17q0 22 -7 32.5t-28.5 15t-67.5 4.5h-157v111q47 18 102 28.5t128 10.5q111 0 167.5 -40.5t56.5 -147.5v-357h-154l-30 54q-24 -24 -65 -42t-98 -18q-63 0 -101 37zM294.5 130.5q15.5 4.5 23.5 8.5v97l-41 -6
q-29 -4 -43 -15t-14 -32v-20q0 -20 12 -28.5t35 -8.5q12 0 27.5 4.5zM225.5 893.5q16.5 -3.5 31.5 -7.5q28 -8 38 -8q29 0 29 26h96q-4 -47 -14.5 -72.5t-28 -35t-45.5 -9.5q-24 0 -48 5.5t-28 6.5q-28 7 -37 7q-16 0 -21 -21h-96q6 67 28 89.5t63 22.5q16 0 32.5 -3.5z
M430 631h-111l-49 31l-50 -31h-112l100 116h131z" />
    <glyph glyph-name="uni0201" unicode="&#x201;" horiz-adv-x="554" 
d="M64 31q-38 37 -38 100v55q0 63 46 101.5t138 38.5h108v17q0 22 -7 32.5t-28.5 15t-67.5 4.5h-157v111q47 18 102 28.5t128 10.5q111 0 167.5 -40.5t56.5 -147.5v-357h-154l-30 54q-24 -24 -65 -42t-98 -18q-63 0 -101 37zM294.5 130.5q15.5 4.5 23.5 8.5v97l-41 -6
q-29 -4 -43 -15t-14 -32v-20q0 -20 12 -28.5t35 -8.5q12 0 27.5 4.5zM21 774h154l68 -143h-114zM221 774h154l68 -143h-114z" />
    <glyph glyph-name="adieresis" unicode="&#xe4;" horiz-adv-x="554" 
d="M64 31q-38 37 -38 100v55q0 63 46 101.5t138 38.5h108v17q0 22 -7 32.5t-28.5 15t-67.5 4.5h-157v111q47 18 102 28.5t128 10.5q111 0 167.5 -40.5t56.5 -147.5v-357h-154l-30 54q-24 -24 -65 -42t-98 -18q-63 0 -101 37zM294.5 130.5q15.5 4.5 23.5 8.5v97l-41 -6
q-29 -4 -43 -15t-14 -32v-20q0 -20 12 -28.5t35 -8.5q12 0 27.5 4.5zM103.5 633.5q-6.5 6.5 -6.5 16.5v111q0 12 6 18.5t18 6.5h90q11 0 17 -7t6 -18v-111q0 -11 -6 -17t-17 -6h-90q-11 0 -17.5 6.5zM300.5 633.5q-6.5 6.5 -6.5 16.5v111q0 12 6 18.5t18 6.5h90q11 0 17 -7
t6 -18v-111q0 -11 -6 -17t-17 -6h-90q-11 0 -17.5 6.5z" />
    <glyph glyph-name="uni1EA1" unicode="&#x1ea1;" horiz-adv-x="554" 
d="M64 31q-38 37 -38 100v55q0 63 46 101.5t138 38.5h108v17q0 22 -7 32.5t-28.5 15t-67.5 4.5h-157v111q47 18 102 28.5t128 10.5q111 0 167.5 -40.5t56.5 -147.5v-357h-154l-30 54q-24 -24 -65 -42t-98 -18q-63 0 -101 37zM294.5 130.5q15.5 4.5 23.5 8.5v97l-41 -6
q-29 -4 -43 -15t-14 -32v-20q0 -20 12 -28.5t35 -8.5q12 0 27.5 4.5zM202.5 -229.5q-6.5 6.5 -6.5 16.5v111q0 12 6 18.5t18 6.5h90q11 0 17 -7t6 -18v-111q0 -11 -6 -17t-17 -6h-90q-11 0 -17.5 6.5z" />
    <glyph glyph-name="agrave" unicode="&#xe0;" horiz-adv-x="554" 
d="M64 31q-38 37 -38 100v55q0 63 46 101.5t138 38.5h108v17q0 22 -7 32.5t-28.5 15t-67.5 4.5h-157v111q47 18 102 28.5t128 10.5q111 0 167.5 -40.5t56.5 -147.5v-357h-154l-30 54q-24 -24 -65 -42t-98 -18q-63 0 -101 37zM294.5 130.5q15.5 4.5 23.5 8.5v97l-41 -6
q-29 -4 -43 -15t-14 -32v-20q0 -20 12 -28.5t35 -8.5q12 0 27.5 4.5zM130 774h154l68 -143h-114z" />
    <glyph glyph-name="uni1EA3" unicode="&#x1ea3;" horiz-adv-x="554" 
d="M64 31q-38 37 -38 100v55q0 63 46 101.5t138 38.5h108v17q0 22 -7 32.5t-28.5 15t-67.5 4.5h-157v111q47 18 102 28.5t128 10.5q111 0 167.5 -40.5t56.5 -147.5v-357h-154l-30 54q-24 -24 -65 -42t-98 -18q-63 0 -101 37zM294.5 130.5q15.5 4.5 23.5 8.5v97l-41 -6
q-29 -4 -43 -15t-14 -32v-20q0 -20 12 -28.5t35 -8.5q12 0 27.5 4.5zM236 672q29 8 29 28q0 16 -24 16q-10 0 -30 -6v74q27 9 56 9q49 0 73.5 -22t24.5 -64q0 -45 -30 -72t-99 -47v84z" />
    <glyph glyph-name="uni0203" unicode="&#x203;" horiz-adv-x="554" 
d="M64 31q-38 37 -38 100v55q0 63 46 101.5t138 38.5h108v17q0 22 -7 32.5t-28.5 15t-67.5 4.5h-157v111q47 18 102 28.5t128 10.5q111 0 167.5 -40.5t56.5 -147.5v-357h-154l-30 54q-24 -24 -65 -42t-98 -18q-63 0 -101 37zM294.5 130.5q15.5 4.5 23.5 8.5v97l-41 -6
q-29 -4 -43 -15t-14 -32v-20q0 -20 12 -28.5t35 -8.5q12 0 27.5 4.5zM382.5 740.5q36.5 -39.5 36.5 -117.5h-89q0 37 -16 53.5t-39 16.5q-55 0 -55 -70h-91q0 157 146 157q71 0 107.5 -39.5z" />
    <glyph glyph-name="amacron" unicode="&#x101;" horiz-adv-x="554" 
d="M64 31q-38 37 -38 100v55q0 63 46 101.5t138 38.5h108v17q0 22 -7 32.5t-28.5 15t-67.5 4.5h-157v111q47 18 102 28.5t128 10.5q111 0 167.5 -40.5t56.5 -147.5v-357h-154l-30 54q-24 -24 -65 -42t-98 -18q-63 0 -101 37zM294.5 130.5q15.5 4.5 23.5 8.5v97l-41 -6
q-29 -4 -43 -15t-14 -32v-20q0 -20 12 -28.5t35 -8.5q12 0 27.5 4.5zM119 745h292v-114h-292v114z" />
    <glyph glyph-name="aogonek" unicode="&#x105;" horiz-adv-x="554" 
d="M525 -101v-90q-10 -5 -36 -5q-56 0 -81.5 27.5t-25.5 64.5q0 36 16.5 62t44.5 42h-85l-30 54q-24 -24 -65 -42t-98 -18q-63 0 -101 37t-38 100v55q0 63 46 101.5t138 38.5h108v17q0 22 -7 32.5t-28.5 15t-67.5 4.5h-157v111q47 18 102 28.5t128 10.5q111 0 167.5 -40.5
t56.5 -147.5v-357q-22 -15 -30.5 -28.5t-8.5 -30.5q0 -19 12.5 -30.5t29.5 -11.5h10zM318 236l-41 -6q-29 -4 -43 -15t-14 -32v-20q0 -20 12 -28.5t35 -8.5q12 0 27.5 4.5t23.5 8.5v97z" />
    <glyph glyph-name="aring" unicode="&#xe5;" horiz-adv-x="554" 
d="M64 31q-38 37 -38 100v55q0 63 46 101.5t138 38.5h108v17q0 22 -7 32.5t-28.5 15t-67.5 4.5h-157v111q47 18 102 28.5t128 10.5q111 0 167.5 -40.5t56.5 -147.5v-357h-154l-30 54q-24 -24 -65 -42t-98 -18q-63 0 -101 37zM294.5 130.5q15.5 4.5 23.5 8.5v97l-41 -6
q-29 -4 -43 -15t-14 -32v-20q0 -20 12 -28.5t35 -8.5q12 0 27.5 4.5zM171.5 606.5q-32.5 26.5 -32.5 90.5t33 91t99 27q67 0 99 -27t32 -91t-32 -90.5t-99 -26.5t-99.5 26.5zM304 659.5q10 10.5 10 37.5t-10 38t-33 11t-33.5 -11t-10.5 -38q0 -26 10.5 -37t33.5 -11t33 10.5
z" />
    <glyph glyph-name="aringacute" unicode="&#x1fb;" horiz-adv-x="554" 
d="M171.5 606.5q-32.5 26.5 -32.5 90.5q0 53 23 80.5t69 34.5l58 122h154l-99 -131q58 -23 58 -106q0 -64 -32 -90.5t-99 -26.5t-99.5 26.5zM304 659.5q10 10.5 10 37.5t-10 38t-33 11t-33.5 -11t-10.5 -38q0 -26 10.5 -37t33.5 -11t33 10.5zM455.5 504.5
q56.5 -40.5 56.5 -147.5v-357h-154l-30 54q-24 -24 -65 -42t-98 -18q-63 0 -101 37t-38 100v55q0 63 46 101.5t138 38.5h108v17q0 22 -7 32.5t-28.5 15t-67.5 4.5h-157v111q47 18 102 28.5t128 10.5q111 0 167.5 -40.5zM318 236l-41 -6q-29 -4 -43 -15t-14 -32v-20
q0 -20 12 -28.5t35 -8.5q12 0 27.5 4.5t23.5 8.5v97z" />
    <glyph glyph-name="atilde" unicode="&#xe3;" horiz-adv-x="554" 
d="M64 31q-38 37 -38 100v55q0 63 46 101.5t138 38.5h108v17q0 22 -7 32.5t-28.5 15t-67.5 4.5h-157v111q47 18 102 28.5t128 10.5q111 0 167.5 -40.5t56.5 -147.5v-357h-154l-30 54q-24 -24 -65 -42t-98 -18q-63 0 -101 37zM294.5 130.5q15.5 4.5 23.5 8.5v97l-41 -6
q-29 -4 -43 -15t-14 -32v-20q0 -20 12 -28.5t35 -8.5q12 0 27.5 4.5zM116.5 727.5q29.5 34.5 76.5 34.5q26 0 45.5 -6t40.5 -16q17 -8 29 -11.5t25 -3.5q28 0 31 44h96q-7 -150 -108 -150q-25 0 -46.5 6t-44.5 17q-3 1 -19.5 7.5t-30.5 6.5q-27 0 -33 -39h-96
q5 76 34.5 110.5z" />
    <glyph glyph-name="ae" unicode="&#xe6;" horiz-adv-x="832" 
d="M64.5 34.5q-34.5 40.5 -34.5 98.5v51q0 62 44.5 102t141.5 40h106v21q0 29 -19.5 38.5t-70.5 9.5h-170v111q50 20 94.5 29.5t96.5 9.5q53 0 96.5 -12.5t72.5 -31.5q36 22 72.5 34.5t86.5 12.5q78 0 123 -17t66.5 -60t21.5 -122t-49 -112.5t-149 -33.5h-83q1 -29 15 -42.5
t41 -18t75 -4.5h131v-113q-49 -17 -105.5 -24t-125.5 -7q-53 0 -103 21t-72 55q-31 -31 -82 -53.5t-110 -22.5q-76 0 -110.5 40.5zM588 322q19 0 25 9t6 23q0 30 -14 40t-40 10q-33 0 -43.5 -18t-10.5 -64h77zM329 147q-4 14 -7 38.5t-3 50.5l-63 -12q-15 -3 -23.5 -14.5
t-8.5 -24.5v-19q0 -23 12.5 -31.5t34.5 -8.5q27 0 58 21z" />
    <glyph glyph-name="aeacute" unicode="&#x1fd;" horiz-adv-x="832" 
d="M64.5 34.5q-34.5 40.5 -34.5 98.5v51q0 62 44.5 102t141.5 40h106v21q0 29 -19.5 38.5t-70.5 9.5h-170v111q50 20 94.5 29.5t96.5 9.5q53 0 96.5 -12.5t72.5 -31.5q36 22 72.5 34.5t86.5 12.5q78 0 123 -17t66.5 -60t21.5 -122t-49 -112.5t-149 -33.5h-83q1 -29 15 -42.5
t41 -18t75 -4.5h131v-113q-49 -17 -105.5 -24t-125.5 -7q-53 0 -103 21t-72 55q-31 -31 -82 -53.5t-110 -22.5q-76 0 -110.5 40.5zM588 322q19 0 25 9t6 23q0 30 -14 40t-40 10q-33 0 -43.5 -18t-10.5 -64h77zM329 147q-4 14 -7 38.5t-3 50.5l-63 -12q-15 -3 -23.5 -14.5
t-8.5 -24.5v-19q0 -23 12.5 -31.5t34.5 -8.5q27 0 58 21zM438 774h154l-108 -143h-114z" />
    <glyph glyph-name="b" unicode="b" horiz-adv-x="590" 
d="M302 7.5q-30 13.5 -64 41.5l-30 -49h-164v763h194v-254q74 39 132 39q72 0 113 -29.5t59 -91.5t18 -164q0 -141 -44.5 -205t-135.5 -64q-48 0 -78 13.5zM349 175.5q17 24.5 17 97.5q0 52 -9 78.5t-22 34t-31 7.5q-17 0 -37.5 -6.5t-28.5 -13.5v-207q26 -15 66 -15
q28 0 45 24.5z" />
    <glyph glyph-name="uni1E03" unicode="&#x1e03;" horiz-adv-x="590" 
d="M302 7.5q-30 13.5 -64 41.5l-30 -49h-164v763h194v-254q74 39 132 39q72 0 113 -29.5t59 -91.5t18 -164q0 -141 -44.5 -205t-135.5 -64q-48 0 -78 13.5zM349 175.5q17 24.5 17 97.5q0 52 -9 78.5t-22 34t-31 7.5q-17 0 -37.5 -6.5t-28.5 -13.5v-207q26 -15 66 -15
q28 0 45 24.5zM76.5 840.5q-6.5 6.5 -6.5 16.5v111q0 12 6 18.5t18 6.5h90q11 0 17 -7t6 -18v-111q0 -11 -6 -17t-17 -6h-90q-11 0 -17.5 6.5z" />
    <glyph glyph-name="c" unicode="c" horiz-adv-x="490" 
d="M91 56.5q-61 62.5 -61 209.5q0 107 26.5 168.5t78.5 87.5t134 26q54 0 97.5 -7t96.5 -24v-111h-131q-44 0 -67 -11.5t-32 -40.5t-9 -85q0 -58 8.5 -84.5t31 -36t70.5 -9.5h136v-109q-38 -16 -96.5 -26t-110.5 -10q-111 0 -172 62.5z" />
    <glyph glyph-name="cacute" unicode="&#x107;" horiz-adv-x="490" 
d="M91 56.5q-61 62.5 -61 209.5q0 107 26.5 168.5t78.5 87.5t134 26q54 0 97.5 -7t96.5 -24v-111h-131q-44 0 -67 -11.5t-32 -40.5t-9 -85q0 -58 8.5 -84.5t31 -36t70.5 -9.5h136v-109q-38 -16 -96.5 -26t-110.5 -10q-111 0 -172 62.5zM288 774h154l-108 -143h-114z" />
    <glyph glyph-name="ccaron" unicode="&#x10d;" horiz-adv-x="490" 
d="M91 56.5q-61 62.5 -61 209.5q0 107 26.5 168.5t78.5 87.5t134 26q54 0 97.5 -7t96.5 -24v-111h-131q-44 0 -67 -11.5t-32 -40.5t-9 -85q0 -58 8.5 -84.5t31 -36t70.5 -9.5h136v-109q-38 -16 -96.5 -26t-110.5 -10q-111 0 -172 62.5zM110 777h111l49 -61l50 61h112
l-100 -146h-131z" />
    <glyph glyph-name="ccedilla" unicode="&#xe7;" horiz-adv-x="490" 
d="M328 -2l-28 -47q27 -4 45 -21t18 -47q0 -41 -28 -63.5t-85 -22.5h-59v79l15 3q32 6 32 27q0 23 -32 32l35 57q-101 6 -156 69t-55 202q0 107 26.5 168.5t78.5 87.5t134 26q54 0 97.5 -7t96.5 -24v-111h-131q-44 0 -67 -11.5t-32 -40.5t-9 -85q0 -58 8.5 -84.5t31 -36
t70.5 -9.5h136v-109q-52 -22 -142 -32z" />
    <glyph glyph-name="uni1E09" unicode="&#x1e09;" horiz-adv-x="490" 
d="M334 631h-114l68 143h154zM328 -2l-28 -47q27 -4 45 -21t18 -47q0 -41 -28 -63.5t-85 -22.5h-59v79l15 3q32 6 32 27q0 23 -32 32l35 57q-101 6 -156 69t-55 202q0 107 26.5 168.5t78.5 87.5t134 26q54 0 97.5 -7t96.5 -24v-111h-131q-44 0 -67 -11.5t-32 -40.5t-9 -85
q0 -58 8.5 -84.5t31 -36t70.5 -9.5h136v-109q-52 -22 -142 -32z" />
    <glyph glyph-name="ccircumflex" unicode="&#x109;" horiz-adv-x="490" 
d="M91 56.5q-61 62.5 -61 209.5q0 107 26.5 168.5t78.5 87.5t134 26q54 0 97.5 -7t96.5 -24v-111h-131q-44 0 -67 -11.5t-32 -40.5t-9 -85q0 -58 8.5 -84.5t31 -36t70.5 -9.5h136v-109q-38 -16 -96.5 -26t-110.5 -10q-111 0 -172 62.5zM208 777h131l91 -146h-111l-49 61
l-50 -61h-112z" />
    <glyph glyph-name="cdotaccent" unicode="&#x10b;" horiz-adv-x="490" 
d="M91 56.5q-61 62.5 -61 209.5q0 107 26.5 168.5t78.5 87.5t134 26q54 0 97.5 -7t96.5 -24v-111h-131q-44 0 -67 -11.5t-32 -40.5t-9 -85q0 -58 8.5 -84.5t31 -36t70.5 -9.5h136v-109q-38 -16 -96.5 -26t-110.5 -10q-111 0 -172 62.5zM205.5 640.5q-6.5 6.5 -6.5 16.5v111
q0 12 6 18.5t18 6.5h90q11 0 17 -7t6 -18v-111q0 -11 -6 -17t-17 -6h-90q-11 0 -17.5 6.5z" />
    <glyph glyph-name="d" unicode="d" horiz-adv-x="588" 
d="M78 56q-48 62 -48 207q0 103 18 164.5t62 91t122 29.5q61 0 120 -21v236h194v-763h-164l-30 49q-61 -55 -130 -55q-96 0 -144 62zM352 169v218q-11 6 -26 11.5t-28 5.5q-29 0 -44.5 -9.5t-22.5 -37.5t-7 -84q0 -55 6.5 -81t20.5 -34.5t42 -8.5q35 0 59 20z" />
    <glyph glyph-name="eth" unicode="&#xf0;" horiz-adv-x="574" 
d="M544 271q0 -106 -23.5 -165t-78.5 -85t-155 -26q-97 0 -152.5 26.5t-80 84t-24.5 155.5q0 101 26.5 159t76.5 81.5t126 23.5q55 0 93 -15q-16 56 -51 88l-163 -62l-23 60l108 42q-47 11 -109 11v114q95 0 164.5 -14.5t118.5 -44.5l112 43l23 -61l-79 -30q49 -56 70 -149
t21 -235v-1zM326.5 156q12.5 7 18 30.5t5.5 75.5t-5.5 75t-18 30t-39.5 7t-39.5 -7t-18 -30t-5.5 -75t5.5 -75.5t18 -30.5t39.5 -7t39.5 7z" />
    <glyph glyph-name="dcaron" unicode="&#x10f;" horiz-adv-x="588" 
d="M78 56q-48 62 -48 207q0 103 18 164.5t62 91t122 29.5q61 0 120 -21v236h194v-763h-164l-30 49q-61 -55 -130 -55q-96 0 -144 62zM352 169v218q-11 6 -26 11.5t-28 5.5q-29 0 -44.5 -9.5t-22.5 -37.5t-7 -84q0 -55 6.5 -81t20.5 -34.5t42 -8.5q35 0 59 20zM587 716v67
h175v-67l-10 -134h-154z" />
    <glyph glyph-name="dcroat" unicode="&#x111;" horiz-adv-x="588" 
d="M598 606h-52v-606h-164l-30 49q-61 -55 -130 -55q-96 0 -144 62t-48 207q0 103 18 164.5t62 91t122 29.5q61 0 120 -21v79h-102v74h102v83h194v-83h52v-74zM352 387q-11 6 -26 11.5t-28 5.5q-29 0 -44.5 -9.5t-22.5 -37.5t-7 -84q0 -55 6.5 -81t20.5 -34.5t42 -8.5
q35 0 59 20v218z" />
    <glyph glyph-name="uni1E0B" unicode="&#x1e0b;" horiz-adv-x="588" 
d="M78 56q-48 62 -48 207q0 103 18 164.5t62 91t122 29.5q61 0 120 -21v236h194v-763h-164l-30 49q-61 -55 -130 -55q-96 0 -144 62zM352 169v218q-11 6 -26 11.5t-28 5.5q-29 0 -44.5 -9.5t-22.5 -37.5t-7 -84q0 -55 6.5 -81t20.5 -34.5t42 -8.5q35 0 59 20zM384.5 840.5
q-6.5 6.5 -6.5 16.5v111q0 12 6 18.5t18 6.5h90q11 0 17 -7t6 -18v-111q0 -11 -6 -17t-17 -6h-90q-11 0 -17.5 6.5z" />
    <glyph glyph-name="uni1E0D" unicode="&#x1e0d;" horiz-adv-x="588" 
d="M78 56q-48 62 -48 207q0 103 18 164.5t62 91t122 29.5q61 0 120 -21v236h194v-763h-164l-30 49q-61 -55 -130 -55q-96 0 -144 62zM352 169v218q-11 6 -26 11.5t-28 5.5q-29 0 -44.5 -9.5t-22.5 -37.5t-7 -84q0 -55 6.5 -81t20.5 -34.5t42 -8.5q35 0 59 20zM212.5 -229.5
q-6.5 6.5 -6.5 16.5v111q0 12 6 18.5t18 6.5h90q11 0 17 -7t6 -18v-111q0 -11 -6 -17t-17 -6h-90q-11 0 -17.5 6.5z" />
    <glyph glyph-name="uni1E0F" unicode="&#x1e0f;" horiz-adv-x="588" 
d="M78 56q-48 62 -48 207q0 103 18 164.5t62 91t122 29.5q61 0 120 -21v236h194v-763h-164l-30 49q-61 -55 -130 -55q-96 0 -144 62zM352 169v218q-11 6 -26 11.5t-28 5.5q-29 0 -44.5 -9.5t-22.5 -37.5t-7 -84q0 -55 6.5 -81t20.5 -34.5t42 -8.5q35 0 59 20zM139 -115h292
v-114h-292v114z" />
    <glyph glyph-name="e" unicode="e" horiz-adv-x="535" 
d="M134.5 18.5q-54.5 23.5 -79.5 82.5t-25 167q0 112 22.5 172t75 84t148.5 24q89 0 137.5 -16.5t70 -57t21.5 -117.5q0 -84 -48 -119t-139 -35h-96q3 -26 12.5 -39.5t33 -19.5t70.5 -6h147v-113q-46 -14 -92.5 -22t-107.5 -8q-96 0 -150.5 23.5zM297 316q20 0 29 9t9 31
q0 29 -14 41.5t-45 12.5q-30 0 -43 -20t-13 -74h77z" />
    <glyph glyph-name="eacute" unicode="&#xe9;" horiz-adv-x="535" 
d="M134.5 18.5q-54.5 23.5 -79.5 82.5t-25 167q0 112 22.5 172t75 84t148.5 24q89 0 137.5 -16.5t70 -57t21.5 -117.5q0 -84 -48 -119t-139 -35h-96q3 -26 12.5 -39.5t33 -19.5t70.5 -6h147v-113q-46 -14 -92.5 -22t-107.5 -8q-96 0 -150.5 23.5zM297 316q20 0 29 9t9 31
q0 29 -14 41.5t-45 12.5q-30 0 -43 -20t-13 -74h77zM288 774h154l-108 -143h-114z" />
    <glyph glyph-name="ebreve" unicode="&#x115;" horiz-adv-x="535" 
d="M134.5 18.5q-54.5 23.5 -79.5 82.5t-25 167q0 112 22.5 172t75 84t148.5 24q89 0 137.5 -16.5t70 -57t21.5 -117.5q0 -84 -48 -119t-139 -35h-96q3 -26 12.5 -39.5t33 -19.5t70.5 -6h147v-113q-46 -14 -92.5 -22t-107.5 -8q-96 0 -150.5 23.5zM297 316q20 0 29 9t9 31
q0 29 -14 41.5t-45 12.5q-30 0 -43 -20t-13 -74h77zM155.5 659.5q-36.5 39.5 -36.5 117.5h89q0 -37 16 -53.5t39 -16.5q55 0 55 70h91q0 -157 -146 -157q-71 0 -107.5 39.5z" />
    <glyph glyph-name="ecaron" unicode="&#x11b;" horiz-adv-x="535" 
d="M134.5 18.5q-54.5 23.5 -79.5 82.5t-25 167q0 112 22.5 172t75 84t148.5 24q89 0 137.5 -16.5t70 -57t21.5 -117.5q0 -84 -48 -119t-139 -35h-96q3 -26 12.5 -39.5t33 -19.5t70.5 -6h147v-113q-46 -14 -92.5 -22t-107.5 -8q-96 0 -150.5 23.5zM297 316q20 0 29 9t9 31
q0 29 -14 41.5t-45 12.5q-30 0 -43 -20t-13 -74h77zM110 777h111l49 -61l50 61h112l-100 -146h-131z" />
    <glyph glyph-name="uni1E1D" unicode="&#x1e1d;" horiz-adv-x="535" 
d="M155.5 659.5q-36.5 39.5 -36.5 117.5h89q0 -37 16 -53.5t39 -16.5q55 0 55 70h91q0 -157 -146 -157q-71 0 -107.5 39.5zM234.5 163.5q9.5 -13.5 33 -19.5t70.5 -6h147v-113q-79 -24 -158 -29l-27 -45q27 -4 45 -21t18 -47q0 -41 -28 -63.5t-85 -22.5h-59v79l15 3
q32 6 32 27q0 23 -32 32l35 58q-78 5 -123.5 31.5t-66.5 83.5t-21 157q0 112 22.5 172t75 84t148.5 24q89 0 137.5 -16.5t70 -57t21.5 -117.5q0 -84 -48 -119t-139 -35h-96q3 -26 12.5 -39.5zM233 390q-13 -20 -13 -74h77q20 0 29 9t9 31q0 29 -14 41.5t-45 12.5
q-30 0 -43 -20z" />
    <glyph glyph-name="ecircumflex" unicode="&#xea;" horiz-adv-x="535" 
d="M134.5 18.5q-54.5 23.5 -79.5 82.5t-25 167q0 112 22.5 172t75 84t148.5 24q89 0 137.5 -16.5t70 -57t21.5 -117.5q0 -84 -48 -119t-139 -35h-96q3 -26 12.5 -39.5t33 -19.5t70.5 -6h147v-113q-46 -14 -92.5 -22t-107.5 -8q-96 0 -150.5 23.5zM297 316q20 0 29 9t9 31
q0 29 -14 41.5t-45 12.5q-30 0 -43 -20t-13 -74h77zM208 777h131l91 -146h-111l-49 61l-50 -61h-112z" />
    <glyph glyph-name="uni1EBF" unicode="&#x1ebf;" horiz-adv-x="535" 
d="M134.5 18.5q-54.5 23.5 -79.5 82.5t-25 167q0 112 22.5 172t75 84t148.5 24q89 0 137.5 -16.5t70 -57t21.5 -117.5q0 -84 -48 -119t-139 -35h-96q3 -26 12.5 -39.5t33 -19.5t70.5 -6h147v-113q-46 -14 -92.5 -22t-107.5 -8q-96 0 -150.5 23.5zM297 316q20 0 29 9t9 31
q0 29 -14 41.5t-45 12.5q-30 0 -43 -20t-13 -74h77zM542 844l-58 -123h-114l18 123h154zM339 747l91 -116h-111l-49 31l-50 -31h-112l100 116h131z" />
    <glyph glyph-name="uni1EC7" unicode="&#x1ec7;" horiz-adv-x="535" 
d="M134.5 18.5q-54.5 23.5 -79.5 82.5t-25 167q0 112 22.5 172t75 84t148.5 24q89 0 137.5 -16.5t70 -57t21.5 -117.5q0 -84 -48 -119t-139 -35h-96q3 -26 12.5 -39.5t33 -19.5t70.5 -6h147v-113q-46 -14 -92.5 -22t-107.5 -8q-96 0 -150.5 23.5zM297 316q20 0 29 9t9 31
q0 29 -14 41.5t-45 12.5q-30 0 -43 -20t-13 -74h77zM208 777h131l91 -146h-111l-49 61l-50 -61h-112zM202.5 -229.5q-6.5 6.5 -6.5 16.5v111q0 12 6 18.5t18 6.5h90q11 0 17 -7t6 -18v-111q0 -11 -6 -17t-17 -6h-90q-11 0 -17.5 6.5z" />
    <glyph glyph-name="uni1EC1" unicode="&#x1ec1;" horiz-adv-x="535" 
d="M134.5 18.5q-54.5 23.5 -79.5 82.5t-25 167q0 112 22.5 172t75 84t148.5 24q89 0 137.5 -16.5t70 -57t21.5 -117.5q0 -84 -48 -119t-139 -35h-96q3 -26 12.5 -39.5t33 -19.5t70.5 -6h147v-113q-46 -14 -92.5 -22t-107.5 -8q-96 0 -150.5 23.5zM297 316q20 0 29 9t9 31
q0 29 -14 41.5t-45 12.5q-30 0 -43 -20t-13 -74h77zM154 844l18 -123h-114l-58 123h154zM339 747l91 -116h-111l-49 31l-50 -31h-112l100 116h131z" />
    <glyph glyph-name="uni1EC3" unicode="&#x1ec3;" horiz-adv-x="535" 
d="M134.5 18.5q-54.5 23.5 -79.5 82.5t-25 167q0 112 22.5 172t75 84t148.5 24q89 0 137.5 -16.5t70 -57t21.5 -117.5q0 -84 -48 -119t-139 -35h-96q3 -26 12.5 -39.5t33 -19.5t70.5 -6h147v-113q-46 -14 -92.5 -22t-107.5 -8q-96 0 -150.5 23.5zM297 316q20 0 29 9t9 31
q0 29 -14 41.5t-45 12.5q-30 0 -43 -20t-13 -74h77zM395 772q19 6 19 22q0 14 -14 14q-10 0 -30 -6v64q27 9 56 9q78 0 78 -68q0 -46 -26 -74.5t-83 -44.5v84zM208 747h131l91 -116h-111l-49 31l-50 -31h-112z" />
    <glyph glyph-name="uni1EC5" unicode="&#x1ec5;" horiz-adv-x="535" 
d="M134.5 18.5q-54.5 23.5 -79.5 82.5t-25 167q0 112 22.5 172t75 84t148.5 24q89 0 137.5 -16.5t70 -57t21.5 -117.5q0 -84 -48 -119t-139 -35h-96q3 -26 12.5 -39.5t33 -19.5t70.5 -6h147v-113q-46 -14 -92.5 -22t-107.5 -8q-96 0 -150.5 23.5zM297 316q20 0 29 9t9 31
q0 29 -14 41.5t-45 12.5q-30 0 -43 -20t-13 -74h77zM225.5 893.5q16.5 -3.5 31.5 -7.5q28 -8 38 -8q29 0 29 26h96q-4 -47 -14.5 -72.5t-28 -35t-45.5 -9.5q-24 0 -48 5.5t-28 6.5q-28 7 -37 7q-16 0 -21 -21h-96q6 67 28 89.5t63 22.5q16 0 32.5 -3.5zM430 631h-111l-49 31
l-50 -31h-112l100 116h131z" />
    <glyph glyph-name="uni0205" unicode="&#x205;" horiz-adv-x="535" 
d="M134.5 18.5q-54.5 23.5 -79.5 82.5t-25 167q0 112 22.5 172t75 84t148.5 24q89 0 137.5 -16.5t70 -57t21.5 -117.5q0 -84 -48 -119t-139 -35h-96q3 -26 12.5 -39.5t33 -19.5t70.5 -6h147v-113q-46 -14 -92.5 -22t-107.5 -8q-96 0 -150.5 23.5zM297 316q20 0 29 9t9 31
q0 29 -14 41.5t-45 12.5q-30 0 -43 -20t-13 -74h77zM21 774h154l68 -143h-114zM221 774h154l68 -143h-114z" />
    <glyph glyph-name="edieresis" unicode="&#xeb;" horiz-adv-x="535" 
d="M134.5 18.5q-54.5 23.5 -79.5 82.5t-25 167q0 112 22.5 172t75 84t148.5 24q89 0 137.5 -16.5t70 -57t21.5 -117.5q0 -84 -48 -119t-139 -35h-96q3 -26 12.5 -39.5t33 -19.5t70.5 -6h147v-113q-46 -14 -92.5 -22t-107.5 -8q-96 0 -150.5 23.5zM297 316q20 0 29 9t9 31
q0 29 -14 41.5t-45 12.5q-30 0 -43 -20t-13 -74h77zM103.5 633.5q-6.5 6.5 -6.5 16.5v111q0 12 6 18.5t18 6.5h90q11 0 17 -7t6 -18v-111q0 -11 -6 -17t-17 -6h-90q-11 0 -17.5 6.5zM300.5 633.5q-6.5 6.5 -6.5 16.5v111q0 12 6 18.5t18 6.5h90q11 0 17 -7t6 -18v-111
q0 -11 -6 -17t-17 -6h-90q-11 0 -17.5 6.5z" />
    <glyph glyph-name="edotaccent" unicode="&#x117;" horiz-adv-x="535" 
d="M134.5 18.5q-54.5 23.5 -79.5 82.5t-25 167q0 112 22.5 172t75 84t148.5 24q89 0 137.5 -16.5t70 -57t21.5 -117.5q0 -84 -48 -119t-139 -35h-96q3 -26 12.5 -39.5t33 -19.5t70.5 -6h147v-113q-46 -14 -92.5 -22t-107.5 -8q-96 0 -150.5 23.5zM297 316q20 0 29 9t9 31
q0 29 -14 41.5t-45 12.5q-30 0 -43 -20t-13 -74h77zM205.5 640.5q-6.5 6.5 -6.5 16.5v111q0 12 6 18.5t18 6.5h90q11 0 17 -7t6 -18v-111q0 -11 -6 -17t-17 -6h-90q-11 0 -17.5 6.5z" />
    <glyph glyph-name="uni1EB9" unicode="&#x1eb9;" horiz-adv-x="535" 
d="M134.5 18.5q-54.5 23.5 -79.5 82.5t-25 167q0 112 22.5 172t75 84t148.5 24q89 0 137.5 -16.5t70 -57t21.5 -117.5q0 -84 -48 -119t-139 -35h-96q3 -26 12.5 -39.5t33 -19.5t70.5 -6h147v-113q-46 -14 -92.5 -22t-107.5 -8q-96 0 -150.5 23.5zM297 316q20 0 29 9t9 31
q0 29 -14 41.5t-45 12.5q-30 0 -43 -20t-13 -74h77zM202.5 -229.5q-6.5 6.5 -6.5 16.5v111q0 12 6 18.5t18 6.5h90q11 0 17 -7t6 -18v-111q0 -11 -6 -17t-17 -6h-90q-11 0 -17.5 6.5z" />
    <glyph glyph-name="egrave" unicode="&#xe8;" horiz-adv-x="535" 
d="M134.5 18.5q-54.5 23.5 -79.5 82.5t-25 167q0 112 22.5 172t75 84t148.5 24q89 0 137.5 -16.5t70 -57t21.5 -117.5q0 -84 -48 -119t-139 -35h-96q3 -26 12.5 -39.5t33 -19.5t70.5 -6h147v-113q-46 -14 -92.5 -22t-107.5 -8q-96 0 -150.5 23.5zM297 316q20 0 29 9t9 31
q0 29 -14 41.5t-45 12.5q-30 0 -43 -20t-13 -74h77zM130 774h154l68 -143h-114z" />
    <glyph glyph-name="uni1EBB" unicode="&#x1ebb;" horiz-adv-x="535" 
d="M134.5 18.5q-54.5 23.5 -79.5 82.5t-25 167q0 112 22.5 172t75 84t148.5 24q89 0 137.5 -16.5t70 -57t21.5 -117.5q0 -84 -48 -119t-139 -35h-96q3 -26 12.5 -39.5t33 -19.5t70.5 -6h147v-113q-46 -14 -92.5 -22t-107.5 -8q-96 0 -150.5 23.5zM297 316q20 0 29 9t9 31
q0 29 -14 41.5t-45 12.5q-30 0 -43 -20t-13 -74h77zM236 672q29 8 29 28q0 16 -24 16q-10 0 -30 -6v74q27 9 56 9q49 0 73.5 -22t24.5 -64q0 -45 -30 -72t-99 -47v84z" />
    <glyph glyph-name="uni0207" unicode="&#x207;" horiz-adv-x="535" 
d="M134.5 18.5q-54.5 23.5 -79.5 82.5t-25 167q0 112 22.5 172t75 84t148.5 24q89 0 137.5 -16.5t70 -57t21.5 -117.5q0 -84 -48 -119t-139 -35h-96q3 -26 12.5 -39.5t33 -19.5t70.5 -6h147v-113q-46 -14 -92.5 -22t-107.5 -8q-96 0 -150.5 23.5zM297 316q20 0 29 9t9 31
q0 29 -14 41.5t-45 12.5q-30 0 -43 -20t-13 -74h77zM382.5 740.5q36.5 -39.5 36.5 -117.5h-89q0 37 -16 53.5t-39 16.5q-55 0 -55 -70h-91q0 157 146 157q71 0 107.5 -39.5z" />
    <glyph glyph-name="emacron" unicode="&#x113;" horiz-adv-x="535" 
d="M134.5 18.5q-54.5 23.5 -79.5 82.5t-25 167q0 112 22.5 172t75 84t148.5 24q89 0 137.5 -16.5t70 -57t21.5 -117.5q0 -84 -48 -119t-139 -35h-96q3 -26 12.5 -39.5t33 -19.5t70.5 -6h147v-113q-46 -14 -92.5 -22t-107.5 -8q-96 0 -150.5 23.5zM297 316q20 0 29 9t9 31
q0 29 -14 41.5t-45 12.5q-30 0 -43 -20t-13 -74h77zM119 745h292v-114h-292v114z" />
    <glyph glyph-name="uni1E17" unicode="&#x1e17;" horiz-adv-x="535" 
d="M134.5 18.5q-54.5 23.5 -79.5 82.5t-25 167q0 112 22.5 172t75 84t148.5 24q89 0 137.5 -16.5t70 -57t21.5 -117.5q0 -84 -48 -119t-139 -35h-96q3 -26 12.5 -39.5t33 -19.5t70.5 -6h147v-113q-46 -14 -92.5 -22t-107.5 -8q-96 0 -150.5 23.5zM297 316q20 0 29 9t9 31
q0 29 -14 41.5t-45 12.5q-30 0 -43 -20t-13 -74h77zM119 745h292v-114h-292v114zM278 914h154l-108 -143h-114z" />
    <glyph glyph-name="uni1E15" unicode="&#x1e15;" horiz-adv-x="535" 
d="M134.5 18.5q-54.5 23.5 -79.5 82.5t-25 167q0 112 22.5 172t75 84t148.5 24q89 0 137.5 -16.5t70 -57t21.5 -117.5q0 -84 -48 -119t-139 -35h-96q3 -26 12.5 -39.5t33 -19.5t70.5 -6h147v-113q-46 -14 -92.5 -22t-107.5 -8q-96 0 -150.5 23.5zM297 316q20 0 29 9t9 31
q0 29 -14 41.5t-45 12.5q-30 0 -43 -20t-13 -74h77zM119 745h292v-114h-292v114zM100 914h154l68 -143h-114z" />
    <glyph glyph-name="eogonek" unicode="&#x119;" horiz-adv-x="535" 
d="M458.5 -64.5q12.5 -11.5 29.5 -11.5h10v-90q-10 -5 -36 -5q-56 0 -81.5 27.5t-25.5 64.5q0 49 32 81q-52 -7 -102 -7q-96 0 -150.5 23.5t-79.5 82.5t-25 167q0 112 22.5 172t75 84t148.5 24q89 0 137.5 -16.5t70 -57t21.5 -117.5q0 -84 -48 -119t-139 -35h-96
q3 -26 12.5 -39.5t33 -19.5t70.5 -6h147v-113q-22 -15 -30.5 -28.5t-8.5 -30.5q0 -19 12.5 -30.5zM233 390q-13 -20 -13 -74h77q20 0 29 9t9 31q0 29 -14 41.5t-45 12.5q-30 0 -43 -20z" />
    <glyph glyph-name="uni1EBD" unicode="&#x1ebd;" horiz-adv-x="535" 
d="M134.5 18.5q-54.5 23.5 -79.5 82.5t-25 167q0 112 22.5 172t75 84t148.5 24q89 0 137.5 -16.5t70 -57t21.5 -117.5q0 -84 -48 -119t-139 -35h-96q3 -26 12.5 -39.5t33 -19.5t70.5 -6h147v-113q-46 -14 -92.5 -22t-107.5 -8q-96 0 -150.5 23.5zM297 316q20 0 29 9t9 31
q0 29 -14 41.5t-45 12.5q-30 0 -43 -20t-13 -74h77zM116.5 727.5q29.5 34.5 76.5 34.5q26 0 45.5 -6t40.5 -16q17 -8 29 -11.5t25 -3.5q28 0 31 44h96q-7 -150 -108 -150q-25 0 -46.5 6t-44.5 17q-3 1 -19.5 7.5t-30.5 6.5q-27 0 -33 -39h-96q5 76 34.5 110.5z" />
    <glyph glyph-name="uni0259" unicode="&#x259;" horiz-adv-x="535" 
d="M400.5 523.5q54.5 -23.5 79.5 -82.5t25 -167q0 -112 -22.5 -172t-75 -84t-148.5 -24q-89 0 -137.5 16.5t-70 57t-21.5 117.5q0 84 48 119t139 35h96q-3 26 -12.5 39.5t-33 19.5t-70.5 6h-147v113q46 14 92.5 22t107.5 8q96 0 150.5 -23.5zM238 226q-20 0 -29 -9t-9 -31
q0 -29 14 -41.5t45 -12.5q30 0 43 20t13 74h-77z" />
    <glyph glyph-name="f" unicode="f" horiz-adv-x="409" 
d="M87 385h-72v124l72 30v19q0 113 46.5 162t148.5 49q32 0 64 -5.5t53 -12.5v-139h-77q-22 0 -31.5 -9.5t-9.5 -33.5v-30h118v-154h-118v-385h-194v385z" />
    <glyph glyph-name="uni1E1F" unicode="&#x1e1f;" horiz-adv-x="409" 
d="M87 385h-72v124l72 30v19q0 113 46.5 162t148.5 49q32 0 64 -5.5t53 -12.5v-139h-77q-22 0 -31.5 -9.5t-9.5 -33.5v-30h118v-154h-118v-385h-194v385zM215.5 870.5q-6.5 6.5 -6.5 16.5v111q0 12 6 18.5t18 6.5h90q11 0 17 -7t6 -18v-111q0 -11 -6 -17t-17 -6h-90
q-11 0 -17.5 6.5z" />
    <glyph glyph-name="g" unicode="g" horiz-adv-x="586" 
d="M571 433l-57 -18q21 -31 21 -95q0 -78 -48 -121.5t-149 -43.5h-102q-18 0 -29 -6t-11 -18q0 -21 40 -21h130q97 0 149 -39.5t52 -131.5v-9q0 -86 -52 -133t-158 -47h-169q-76 0 -126 34t-50 93v11q0 37 20.5 66t56.5 47q-55 35 -55 96q0 41 23.5 71t63.5 40
q-79 51 -79 153q0 89 56 133.5t179 44.5h294v-106zM351 310.5q10 11.5 10 37.5t-10 36.5t-35 10.5h-55q-25 0 -35 -10.5t-10 -36.5t10 -37.5t35 -11.5h55q25 0 35 11.5zM245 -34q-25 0 -37 -10.5t-12 -27.5v-5q0 -17 12 -28t37 -11h88q22 0 36 9t14 26v12q0 17 -14 26t-36 9
h-88z" />
    <glyph glyph-name="gbreve" unicode="&#x11f;" horiz-adv-x="586" 
d="M571 433l-57 -18q21 -31 21 -95q0 -78 -48 -121.5t-149 -43.5h-102q-18 0 -29 -6t-11 -18q0 -21 40 -21h130q97 0 149 -39.5t52 -131.5v-9q0 -86 -52 -133t-158 -47h-169q-76 0 -126 34t-50 93v11q0 37 20.5 66t56.5 47q-55 35 -55 96q0 41 23.5 71t63.5 40
q-79 51 -79 153q0 89 56 133.5t179 44.5h294v-106zM351 310.5q10 11.5 10 37.5t-10 36.5t-35 10.5h-55q-25 0 -35 -10.5t-10 -36.5t10 -37.5t35 -11.5h55q25 0 35 11.5zM245 -34q-25 0 -37 -10.5t-12 -27.5v-5q0 -17 12 -28t37 -11h88q22 0 36 9t14 26v12q0 17 -14 26t-36 9
h-88zM176.5 659.5q-36.5 39.5 -36.5 117.5h89q0 -37 16 -53.5t39 -16.5q55 0 55 70h91q0 -157 -146 -157q-71 0 -107.5 39.5z" />
    <glyph glyph-name="gcaron" unicode="&#x1e7;" horiz-adv-x="586" 
d="M571 433l-57 -18q21 -31 21 -95q0 -78 -48 -121.5t-149 -43.5h-102q-18 0 -29 -6t-11 -18q0 -21 40 -21h130q97 0 149 -39.5t52 -131.5v-9q0 -86 -52 -133t-158 -47h-169q-76 0 -126 34t-50 93v11q0 37 20.5 66t56.5 47q-55 35 -55 96q0 41 23.5 71t63.5 40
q-79 51 -79 153q0 89 56 133.5t179 44.5h294v-106zM351 310.5q10 11.5 10 37.5t-10 36.5t-35 10.5h-55q-25 0 -35 -10.5t-10 -36.5t10 -37.5t35 -11.5h55q25 0 35 11.5zM245 -34q-25 0 -37 -10.5t-12 -27.5v-5q0 -17 12 -28t37 -11h88q22 0 36 9t14 26v12q0 17 -14 26t-36 9
h-88zM131 777h111l49 -61l50 61h112l-100 -146h-131z" />
    <glyph glyph-name="gcircumflex" unicode="&#x11d;" horiz-adv-x="586" 
d="M571 433l-57 -18q21 -31 21 -95q0 -78 -48 -121.5t-149 -43.5h-102q-18 0 -29 -6t-11 -18q0 -21 40 -21h130q97 0 149 -39.5t52 -131.5v-9q0 -86 -52 -133t-158 -47h-169q-76 0 -126 34t-50 93v11q0 37 20.5 66t56.5 47q-55 35 -55 96q0 41 23.5 71t63.5 40
q-79 51 -79 153q0 89 56 133.5t179 44.5h294v-106zM351 310.5q10 11.5 10 37.5t-10 36.5t-35 10.5h-55q-25 0 -35 -10.5t-10 -36.5t10 -37.5t35 -11.5h55q25 0 35 11.5zM245 -34q-25 0 -37 -10.5t-12 -27.5v-5q0 -17 12 -28t37 -11h88q22 0 36 9t14 26v12q0 17 -14 26t-36 9
h-88zM229 777h131l91 -146h-111l-49 61l-50 -61h-112z" />
    <glyph glyph-name="gcommaaccent" unicode="&#x123;" horiz-adv-x="586" 
d="M571 433l-57 -18q21 -31 21 -95q0 -78 -48 -121.5t-149 -43.5h-102q-18 0 -29 -6t-11 -18q0 -21 40 -21h130q97 0 149 -39.5t52 -131.5v-9q0 -86 -52 -133t-158 -47h-169q-76 0 -126 34t-50 93v11q0 37 20.5 66t56.5 47q-55 35 -55 96q0 41 23.5 71t63.5 40
q-79 51 -79 153q0 89 56 133.5t179 44.5h294v-106zM351 310.5q10 11.5 10 37.5t-10 36.5t-35 10.5h-55q-25 0 -35 -10.5t-10 -36.5t10 -37.5t35 -11.5h55q25 0 35 11.5zM245 -34q-25 0 -37 -10.5t-12 -27.5v-5q0 -17 12 -28t37 -11h88q22 0 36 9t14 26v12q0 17 -14 26t-36 9
h-88zM238.5 737q26.5 34 94.5 34h61v-79l-26 -9q-24 -8 -31.5 -19t-7.5 -39h-117q0 78 26.5 112z" />
    <glyph glyph-name="gdotaccent" unicode="&#x121;" horiz-adv-x="586" 
d="M571 433l-57 -18q21 -31 21 -95q0 -78 -48 -121.5t-149 -43.5h-102q-18 0 -29 -6t-11 -18q0 -21 40 -21h130q97 0 149 -39.5t52 -131.5v-9q0 -86 -52 -133t-158 -47h-169q-76 0 -126 34t-50 93v11q0 37 20.5 66t56.5 47q-55 35 -55 96q0 41 23.5 71t63.5 40
q-79 51 -79 153q0 89 56 133.5t179 44.5h294v-106zM351 310.5q10 11.5 10 37.5t-10 36.5t-35 10.5h-55q-25 0 -35 -10.5t-10 -36.5t10 -37.5t35 -11.5h55q25 0 35 11.5zM245 -34q-25 0 -37 -10.5t-12 -27.5v-5q0 -17 12 -28t37 -11h88q22 0 36 9t14 26v12q0 17 -14 26t-36 9
h-88zM226.5 640.5q-6.5 6.5 -6.5 16.5v111q0 12 6 18.5t18 6.5h90q11 0 17 -7t6 -18v-111q0 -11 -6 -17t-17 -6h-90q-11 0 -17.5 6.5z" />
    <glyph glyph-name="uni1E21" unicode="&#x1e21;" horiz-adv-x="586" 
d="M571 433l-57 -18q21 -31 21 -95q0 -78 -48 -121.5t-149 -43.5h-102q-18 0 -29 -6t-11 -18q0 -21 40 -21h130q97 0 149 -39.5t52 -131.5v-9q0 -86 -52 -133t-158 -47h-169q-76 0 -126 34t-50 93v11q0 37 20.5 66t56.5 47q-55 35 -55 96q0 41 23.5 71t63.5 40
q-79 51 -79 153q0 89 56 133.5t179 44.5h294v-106zM351 310.5q10 11.5 10 37.5t-10 36.5t-35 10.5h-55q-25 0 -35 -10.5t-10 -36.5t10 -37.5t35 -11.5h55q25 0 35 11.5zM245 -34q-25 0 -37 -10.5t-12 -27.5v-5q0 -17 12 -28t37 -11h88q22 0 36 9t14 26v12q0 17 -14 26t-36 9
h-88zM140 745h292v-114h-292v114z" />
    <glyph glyph-name="h" unicode="h" horiz-adv-x="600" 
d="M44 762h194v-275q25 24 68.5 42.5t85.5 18.5q91 0 128.5 -50t37.5 -148v-350h-194v324q0 50 -53 50q-19 0 -39.5 -9t-33.5 -22v-343h-194v762z" />
    <glyph glyph-name="hbar" unicode="&#x127;" horiz-adv-x="600" 
d="M520.5 498q37.5 -50 37.5 -148v-350h-194v324q0 50 -53 50q-19 0 -39.5 -9t-33.5 -22v-343h-194v606h-54v74h54v82h194v-82h100v-74h-100v-119q25 24 68.5 42.5t85.5 18.5q91 0 128.5 -50z" />
    <glyph glyph-name="uni1E2B" unicode="&#x1e2b;" horiz-adv-x="600" 
d="M44 762h194v-275q25 24 68.5 42.5t85.5 18.5q91 0 128.5 -50t37.5 -148v-350h-194v324q0 50 -53 50q-19 0 -39.5 -9t-33.5 -22v-343h-194v762zM194.5 -190.5q-36.5 39.5 -36.5 117.5h89q0 -37 16 -53.5t39 -16.5q55 0 55 70h91q0 -157 -146 -157q-71 0 -107.5 39.5z" />
    <glyph glyph-name="hcircumflex" unicode="&#x125;" horiz-adv-x="600" 
d="M44 762h194v-275q25 24 68.5 42.5t85.5 18.5q91 0 128.5 -50t37.5 -148v-350h-194v324q0 50 -53 50q-19 0 -39.5 -9t-33.5 -22v-343h-194v762zM79 977h131l91 -146h-111l-49 61l-50 -61h-112z" />
    <glyph glyph-name="uni1E25" unicode="&#x1e25;" horiz-adv-x="600" 
d="M44 762h194v-275q25 24 68.5 42.5t85.5 18.5q91 0 128.5 -50t37.5 -148v-350h-194v324q0 50 -53 50q-19 0 -39.5 -9t-33.5 -22v-343h-194v762zM231.5 -229.5q-6.5 6.5 -6.5 16.5v111q0 12 6 18.5t18 6.5h90q11 0 17 -7t6 -18v-111q0 -11 -6 -17t-17 -6h-90
q-11 0 -17.5 6.5z" />
    <glyph glyph-name="i" unicode="i" horiz-adv-x="282" 
d="M48.5 613.5q-6.5 6.5 -6.5 16.5v111q0 12 6 18.5t18 6.5h152q11 0 16.5 -7t5.5 -18v-111q0 -23 -22 -23h-152q-11 0 -17.5 6.5zM44 539h194v-539h-194v539z" />
    <glyph glyph-name="dotlessi" unicode="&#x131;" horiz-adv-x="282" 
d="M44 539h194v-539h-194v539z" />
    <glyph glyph-name="iacute" unicode="&#xed;" horiz-adv-x="282" 
d="M44 539h194v-539h-194v539zM159 774h154l-108 -143h-114z" />
    <glyph glyph-name="ibreve" unicode="&#x12d;" horiz-adv-x="282" 
d="M44 539h194v-539h-194v539zM26.5 659.5q-36.5 39.5 -36.5 117.5h89q0 -37 16 -53.5t39 -16.5q55 0 55 70h91q0 -157 -146 -157q-71 0 -107.5 39.5z" />
    <glyph glyph-name="icircumflex" unicode="&#xee;" horiz-adv-x="282" 
d="M44 539h194v-539h-194v539zM79 777h131l91 -146h-111l-49 61l-50 -61h-112z" />
    <glyph glyph-name="uni0209" unicode="&#x209;" horiz-adv-x="282" 
d="M44 539h194v-539h-194v539zM-108 774h154l68 -143h-114zM92 774h154l68 -143h-114z" />
    <glyph glyph-name="idieresis" unicode="&#xef;" horiz-adv-x="282" 
d="M44 539h194v-539h-194v539zM-25.5 633.5q-6.5 6.5 -6.5 16.5v111q0 12 6 18.5t18 6.5h90q11 0 17 -7t6 -18v-111q0 -11 -6 -17t-17 -6h-90q-11 0 -17.5 6.5zM171.5 633.5q-6.5 6.5 -6.5 16.5v111q0 12 6 18.5t18 6.5h90q11 0 17 -7t6 -18v-111q0 -11 -6 -17t-17 -6h-90
q-11 0 -17.5 6.5z" />
    <glyph glyph-name="uni1E2F" unicode="&#x1e2f;" horiz-adv-x="282" 
d="M44 539h194v-539h-194v539zM-25.5 633.5q-6.5 6.5 -6.5 16.5v111q0 12 6 18.5t18 6.5h90q11 0 17 -7t6 -18v-111q0 -11 -6 -17t-17 -6h-90q-11 0 -17.5 6.5zM171.5 633.5q-6.5 6.5 -6.5 16.5v111q0 12 6 18.5t18 6.5h90q11 0 17 -7t6 -18v-111q0 -11 -6 -17t-17 -6h-90
q-11 0 -17.5 6.5zM149 974h154l-108 -143h-114z" />
    <glyph glyph-name="i.loclTRK" horiz-adv-x="282" 
d="M44 539h194v-539h-194v539zM76.5 640.5q-6.5 6.5 -6.5 16.5v111q0 12 6 18.5t18 6.5h90q11 0 17 -7t6 -18v-111q0 -11 -6 -17t-17 -6h-90q-11 0 -17.5 6.5z" />
    <glyph glyph-name="uni1ECB" unicode="&#x1ecb;" horiz-adv-x="282" 
d="M48.5 613.5q-6.5 6.5 -6.5 16.5v111q0 12 6 18.5t18 6.5h152q11 0 16.5 -7t5.5 -18v-111q0 -23 -22 -23h-152q-11 0 -17.5 6.5zM44 539h194v-539h-194v539zM73.5 -229.5q-6.5 6.5 -6.5 16.5v111q0 12 6 18.5t18 6.5h90q11 0 17 -7t6 -18v-111q0 -11 -6 -17t-17 -6h-90
q-11 0 -17.5 6.5z" />
    <glyph glyph-name="igrave" unicode="&#xec;" horiz-adv-x="282" 
d="M44 539h194v-539h-194v539zM1 774h154l68 -143h-114z" />
    <glyph glyph-name="uni1EC9" unicode="&#x1ec9;" horiz-adv-x="282" 
d="M44 539h194v-539h-194v539zM107 672q29 8 29 28q0 16 -24 16q-10 0 -30 -6v74q27 9 56 9q49 0 73.5 -22t24.5 -64q0 -45 -30 -72t-99 -47v84z" />
    <glyph glyph-name="uni020B" unicode="&#x20b;" horiz-adv-x="282" 
d="M44 539h194v-539h-194v539zM253.5 740.5q36.5 -39.5 36.5 -117.5h-89q0 37 -16 53.5t-39 16.5q-55 0 -55 -70h-91q0 157 146 157q71 0 107.5 -39.5z" />
    <glyph glyph-name="imacron" unicode="&#x12b;" horiz-adv-x="282" 
d="M44 539h194v-539h-194v539zM-10 745h292v-114h-292v114z" />
    <glyph glyph-name="iogonek" unicode="&#x12f;" horiz-adv-x="282" 
d="M48.5 613.5q-6.5 6.5 -6.5 16.5v111q0 12 6 18.5t18 6.5h152q11 0 16.5 -7t5.5 -18v-111q0 -23 -22 -23h-152q-11 0 -17.5 6.5zM44 539h194v-539h-194v539zM133.5 -168.5q-25.5 27.5 -25.5 64.5q0 36 16.5 62t44.5 42h69q-22 -15 -30.5 -28.5t-8.5 -30.5
q0 -19 12.5 -30.5t29.5 -11.5h10v-90q-10 -5 -36 -5q-56 0 -81.5 27.5z" />
    <glyph glyph-name="itilde" unicode="&#x129;" horiz-adv-x="282" 
d="M44 539h194v-539h-194v539zM-12.5 727.5q29.5 34.5 76.5 34.5q26 0 45.5 -6t40.5 -16q17 -8 29 -11.5t25 -3.5q28 0 31 44h96q-7 -150 -108 -150q-25 0 -46.5 6t-44.5 17q-3 1 -19.5 7.5t-30.5 6.5q-27 0 -33 -39h-96q5 76 34.5 110.5z" />
    <glyph glyph-name="j" unicode="j" horiz-adv-x="282" 
d="M47.5 613.5q-6.5 6.5 -6.5 16.5v111q0 12 6 18.5t18 6.5h152q11 0 16.5 -7t5.5 -18v-111q0 -23 -22 -23h-152q-11 0 -17.5 6.5zM44 539h194v-543q0 -59 -12.5 -123.5t-33.5 -109.5h-148v776z" />
    <glyph glyph-name="uni0237" unicode="&#x237;" horiz-adv-x="282" 
d="M44 539h194v-543q0 -59 -12.5 -123.5t-33.5 -109.5h-148v776z" />
    <glyph glyph-name="jcircumflex" unicode="&#x135;" horiz-adv-x="282" 
d="M44 539h194v-543q0 -59 -12.5 -123.5t-33.5 -109.5h-148v776zM79 777h131l91 -146h-111l-49 61l-50 -61h-112z" />
    <glyph glyph-name="k" unicode="k" horiz-adv-x="586" 
d="M44 763h194v-393h54l88 169h195l-139 -256l157 -283h-194l-108 196h-53v-196h-194v763z" />
    <glyph glyph-name="kcommaaccent" unicode="&#x137;" horiz-adv-x="586" 
d="M44 763h194v-393h54l88 169h195l-139 -256l157 -283h-194l-108 196h-53v-196h-194v763zM201 -146l26 9q24 8 31.5 19t7.5 39h117q0 -78 -26.5 -112t-94.5 -34h-61v79z" />
    <glyph glyph-name="kgreenlandic" unicode="&#x138;" horiz-adv-x="586" 
d="M44 539h194v-183h48l88 183h201l-139 -270l157 -269h-195l-106 182h-54v-182h-194v539z" />
    <glyph glyph-name="l" unicode="l" horiz-adv-x="326" 
d="M90 41.5q-46 44.5 -46 133.5v588h194v-558q0 -29 10 -43.5t33 -18.5l33 -5v-141h-83q-95 0 -141 44.5z" />
    <glyph glyph-name="lacute" unicode="&#x13a;" horiz-adv-x="326" 
d="M90 41.5q-46 44.5 -46 133.5v588h194v-558q0 -29 10 -43.5t33 -18.5l33 -5v-141h-83q-95 0 -141 44.5zM159 974h154l-108 -143h-114z" />
    <glyph glyph-name="lcaron" unicode="&#x13e;" horiz-adv-x="326" 
d="M90 41.5q-46 44.5 -46 133.5v588h194v-558q0 -29 10 -43.5t33 -18.5l33 -5v-141h-83q-95 0 -141 44.5zM278 716v67h175v-67l-10 -134h-154z" />
    <glyph glyph-name="lcommaaccent" unicode="&#x13c;" horiz-adv-x="326" 
d="M90 41.5q-46 44.5 -46 133.5v588h194v-558q0 -29 10 -43.5t33 -18.5l33 -5v-141h-83q-95 0 -141 44.5zM109 -146l26 9q24 8 31.5 19t7.5 39h117q0 -78 -26.5 -112t-94.5 -34h-61v79z" />
    <glyph glyph-name="ldot" unicode="&#x140;" horiz-adv-x="412" 
d="M90 41.5q-46 44.5 -46 133.5v588h194v-558q0 -29 10 -43.5t33 -18.5l33 -5v-141h-83q-95 0 -141 44.5zM276.5 291.5q-6.5 6.5 -6.5 16.5v117q0 12 6 18.5t18 6.5h113q25 0 25 -25v-117q0 -23 -25 -23h-113q-11 0 -17.5 6.5z" />
    <glyph glyph-name="uni1E37" unicode="&#x1e37;" horiz-adv-x="326" 
d="M90 41.5q-46 44.5 -46 133.5v588h194v-558q0 -29 10 -43.5t33 -18.5l33 -5v-141h-83q-95 0 -141 44.5zM130.5 -229.5q-6.5 6.5 -6.5 16.5v111q0 12 6 18.5t18 6.5h90q11 0 17 -7t6 -18v-111q0 -11 -6 -17t-17 -6h-90q-11 0 -17.5 6.5z" />
    <glyph glyph-name="uni1E3B" unicode="&#x1e3b;" horiz-adv-x="326" 
d="M90 41.5q-46 44.5 -46 133.5v588h194v-558q0 -29 10 -43.5t33 -18.5l33 -5v-141h-83q-95 0 -141 44.5zM57 -115h292v-114h-292v114z" />
    <glyph glyph-name="lslash" unicode="&#x142;" horiz-adv-x="326" 
d="M238 412v-207q0 -29 10 -43.5t33 -18.5l33 -5v-141h-83q-95 0 -141 44.5t-46 133.5v174l-52 -23v101l52 23v313h194v-250l78 34v-101z" />
    <glyph glyph-name="m" unicode="m" horiz-adv-x="920" 
d="M44 539h162l32 -52q40 30 75.5 45.5t90.5 15.5q48 0 81 -19.5t51 -53.5q96 73 170 73q98 0 135 -51t37 -157v-340h-194v322q0 29 -14 40.5t-39 11.5q-20 0 -40 -9t-33 -22v-25v-318h-194v322q0 29 -14 40.5t-39 11.5q-20 0 -40 -9t-33 -22v-343h-194v539z" />
    <glyph glyph-name="uni1E41" unicode="&#x1e41;" horiz-adv-x="920" 
d="M44 539h162l32 -52q40 30 75.5 45.5t90.5 15.5q48 0 81 -19.5t51 -53.5q96 73 170 73q98 0 135 -51t37 -157v-340h-194v322q0 29 -14 40.5t-39 11.5q-20 0 -40 -9t-33 -22v-25v-318h-194v322q0 29 -14 40.5t-39 11.5q-20 0 -40 -9t-33 -22v-343h-194v539zM416.5 640.5
q-6.5 6.5 -6.5 16.5v111q0 12 6 18.5t18 6.5h90q11 0 17 -7t6 -18v-111q0 -11 -6 -17t-17 -6h-90q-11 0 -17.5 6.5z" />
    <glyph glyph-name="uni1E43" unicode="&#x1e43;" horiz-adv-x="920" 
d="M44 539h162l32 -52q40 30 75.5 45.5t90.5 15.5q48 0 81 -19.5t51 -53.5q96 73 170 73q98 0 135 -51t37 -157v-340h-194v322q0 29 -14 40.5t-39 11.5q-20 0 -40 -9t-33 -22v-25v-318h-194v322q0 29 -14 40.5t-39 11.5q-20 0 -40 -9t-33 -22v-343h-194v539zM393.5 -229.5
q-6.5 6.5 -6.5 16.5v111q0 12 6 18.5t18 6.5h90q11 0 17 -7t6 -18v-111q0 -11 -6 -17t-17 -6h-90q-11 0 -17.5 6.5z" />
    <glyph glyph-name="n" unicode="n" horiz-adv-x="600" 
d="M44 539h162l32 -52q27 25 69.5 43t82.5 18q97 0 132.5 -52t35.5 -148v-348h-194v322q0 29 -14 40.5t-39 11.5q-20 0 -40 -9t-33 -22v-343h-194v539z" />
    <glyph glyph-name="nacute" unicode="&#x144;" horiz-adv-x="600" 
d="M44 539h162l32 -52q27 25 69.5 43t82.5 18q97 0 132.5 -52t35.5 -148v-348h-194v322q0 29 -14 40.5t-39 11.5q-20 0 -40 -9t-33 -22v-343h-194v539zM318 774h154l-108 -143h-114z" />
    <glyph glyph-name="ncaron" unicode="&#x148;" horiz-adv-x="600" 
d="M44 539h162l32 -52q27 25 69.5 43t82.5 18q97 0 132.5 -52t35.5 -148v-348h-194v322q0 29 -14 40.5t-39 11.5q-20 0 -40 -9t-33 -22v-343h-194v539zM140 777h111l49 -61l50 61h112l-100 -146h-131z" />
    <glyph glyph-name="ncommaaccent" unicode="&#x146;" horiz-adv-x="600" 
d="M44 539h162l32 -52q27 25 69.5 43t82.5 18q97 0 132.5 -52t35.5 -148v-348h-194v322q0 29 -14 40.5t-39 11.5q-20 0 -40 -9t-33 -22v-343h-194v539zM211 -146l26 9q24 8 31.5 19t7.5 39h117q0 -78 -26.5 -112t-94.5 -34h-61v79z" />
    <glyph glyph-name="uni1E45" unicode="&#x1e45;" horiz-adv-x="600" 
d="M44 539h162l32 -52q27 25 69.5 43t82.5 18q97 0 132.5 -52t35.5 -148v-348h-194v322q0 29 -14 40.5t-39 11.5q-20 0 -40 -9t-33 -22v-343h-194v539zM232.5 -229.5q-6.5 6.5 -6.5 16.5v111q0 12 6 18.5t18 6.5h90q11 0 17 -7t6 -18v-111q0 -11 -6 -17t-17 -6h-90
q-11 0 -17.5 6.5z" />
    <glyph glyph-name="uni1E47" unicode="&#x1e47;" horiz-adv-x="600" 
d="M44 539h162l32 -52q27 25 69.5 43t82.5 18q97 0 132.5 -52t35.5 -148v-348h-194v322q0 29 -14 40.5t-39 11.5q-20 0 -40 -9t-33 -22v-343h-194v539zM232.5 -229.5q-6.5 6.5 -6.5 16.5v111q0 12 6 18.5t18 6.5h90q11 0 17 -7t6 -18v-111q0 -11 -6 -17t-17 -6h-90
q-11 0 -17.5 6.5z" />
    <glyph glyph-name="eng" unicode="&#x14b;" horiz-adv-x="600" 
d="M522.5 496q35.5 -52 35.5 -148v-393q0 -71 -29 -119.5t-73 -72.5h-154q26 31 44 73t18 114v372q0 29 -14 40.5t-39 11.5q-20 0 -40 -9t-33 -22v-343h-194v539h162l32 -52q27 25 69.5 43t82.5 18q97 0 132.5 -52z" />
    <glyph glyph-name="uni1E49" unicode="&#x1e49;" horiz-adv-x="600" 
d="M44 539h162l32 -52q27 25 69.5 43t82.5 18q97 0 132.5 -52t35.5 -148v-348h-194v322q0 29 -14 40.5t-39 11.5q-20 0 -40 -9t-33 -22v-343h-194v539zM159 -115h292v-114h-292v114z" />
    <glyph glyph-name="ntilde" unicode="&#xf1;" horiz-adv-x="600" 
d="M44 539h162l32 -52q27 25 69.5 43t82.5 18q97 0 132.5 -52t35.5 -148v-348h-194v322q0 29 -14 40.5t-39 11.5q-20 0 -40 -9t-33 -22v-343h-194v539zM146.5 727.5q29.5 34.5 76.5 34.5q26 0 45.5 -6t40.5 -16q17 -8 29 -11.5t25 -3.5q28 0 31 44h96q-7 -150 -108 -150
q-25 0 -46.5 6t-44.5 17q-3 1 -19.5 7.5t-30.5 6.5q-27 0 -33 -39h-96q5 76 34.5 110.5z" />
    <glyph glyph-name="o" unicode="o" horiz-adv-x="574" 
d="M134.5 22.5q-55.5 27.5 -80 87t-24.5 161.5q0 109 24.5 168.5t79.5 84t153 24.5t153 -25.5t79.5 -85.5t24.5 -166t-23.5 -165t-78.5 -85t-155 -26q-97 0 -152.5 27.5zM326.5 156.5q12.5 7.5 18 33t5.5 82.5q0 56 -5.5 81.5t-18 33t-39.5 7.5t-39.5 -7.5t-18 -33
t-5.5 -81.5q0 -57 5.5 -82.5t18 -33t39.5 -7.5t39.5 7.5z" />
    <glyph glyph-name="oacute" unicode="&#xf3;" horiz-adv-x="574" 
d="M134.5 22.5q-55.5 27.5 -80 87t-24.5 161.5q0 109 24.5 168.5t79.5 84t153 24.5t153 -25.5t79.5 -85.5t24.5 -166t-23.5 -165t-78.5 -85t-155 -26q-97 0 -152.5 27.5zM326.5 156.5q12.5 7.5 18 33t5.5 82.5q0 56 -5.5 81.5t-18 33t-39.5 7.5t-39.5 -7.5t-18 -33
t-5.5 -81.5q0 -57 5.5 -82.5t18 -33t39.5 -7.5t39.5 7.5zM305 774h154l-108 -143h-114z" />
    <glyph glyph-name="obreve" unicode="&#x14f;" horiz-adv-x="574" 
d="M134.5 22.5q-55.5 27.5 -80 87t-24.5 161.5q0 109 24.5 168.5t79.5 84t153 24.5t153 -25.5t79.5 -85.5t24.5 -166t-23.5 -165t-78.5 -85t-155 -26q-97 0 -152.5 27.5zM326.5 156.5q12.5 7.5 18 33t5.5 82.5q0 56 -5.5 81.5t-18 33t-39.5 7.5t-39.5 -7.5t-18 -33
t-5.5 -81.5q0 -57 5.5 -82.5t18 -33t39.5 -7.5t39.5 7.5zM172.5 659.5q-36.5 39.5 -36.5 117.5h89q0 -37 16 -53.5t39 -16.5q55 0 55 70h91q0 -157 -146 -157q-71 0 -107.5 39.5z" />
    <glyph glyph-name="ocircumflex" unicode="&#xf4;" horiz-adv-x="574" 
d="M134.5 22.5q-55.5 27.5 -80 87t-24.5 161.5q0 109 24.5 168.5t79.5 84t153 24.5t153 -25.5t79.5 -85.5t24.5 -166t-23.5 -165t-78.5 -85t-155 -26q-97 0 -152.5 27.5zM326.5 156.5q12.5 7.5 18 33t5.5 82.5q0 56 -5.5 81.5t-18 33t-39.5 7.5t-39.5 -7.5t-18 -33
t-5.5 -81.5q0 -57 5.5 -82.5t18 -33t39.5 -7.5t39.5 7.5zM225 777h131l91 -146h-111l-49 61l-50 -61h-112z" />
    <glyph glyph-name="uni1ED1" unicode="&#x1ed1;" horiz-adv-x="574" 
d="M134.5 22.5q-55.5 27.5 -80 87t-24.5 161.5q0 109 24.5 168.5t79.5 84t153 24.5t153 -25.5t79.5 -85.5t24.5 -166t-23.5 -165t-78.5 -85t-155 -26q-97 0 -152.5 27.5zM326.5 156.5q12.5 7.5 18 33t5.5 82.5q0 56 -5.5 81.5t-18 33t-39.5 7.5t-39.5 -7.5t-18 -33
t-5.5 -81.5q0 -57 5.5 -82.5t18 -33t39.5 -7.5t39.5 7.5zM559 844l-58 -123h-114l18 123h154zM356 747l91 -116h-111l-49 31l-50 -31h-112l100 116h131z" />
    <glyph glyph-name="uni1ED9" unicode="&#x1ed9;" horiz-adv-x="574" 
d="M134.5 22.5q-55.5 27.5 -80 87t-24.5 161.5q0 109 24.5 168.5t79.5 84t153 24.5t153 -25.5t79.5 -85.5t24.5 -166t-23.5 -165t-78.5 -85t-155 -26q-97 0 -152.5 27.5zM326.5 156.5q12.5 7.5 18 33t5.5 82.5q0 56 -5.5 81.5t-18 33t-39.5 7.5t-39.5 -7.5t-18 -33
t-5.5 -81.5q0 -57 5.5 -82.5t18 -33t39.5 -7.5t39.5 7.5zM225 777h131l91 -146h-111l-49 61l-50 -61h-112zM219.5 -229.5q-6.5 6.5 -6.5 16.5v111q0 12 6 18.5t18 6.5h90q11 0 17 -7t6 -18v-111q0 -11 -6 -17t-17 -6h-90q-11 0 -17.5 6.5z" />
    <glyph glyph-name="uni1ED3" unicode="&#x1ed3;" horiz-adv-x="574" 
d="M134.5 22.5q-55.5 27.5 -80 87t-24.5 161.5q0 109 24.5 168.5t79.5 84t153 24.5t153 -25.5t79.5 -85.5t24.5 -166t-23.5 -165t-78.5 -85t-155 -26q-97 0 -152.5 27.5zM326.5 156.5q12.5 7.5 18 33t5.5 82.5q0 56 -5.5 81.5t-18 33t-39.5 7.5t-39.5 -7.5t-18 -33
t-5.5 -81.5q0 -57 5.5 -82.5t18 -33t39.5 -7.5t39.5 7.5zM171 844l18 -123h-114l-58 123h154zM356 747l91 -116h-111l-49 31l-50 -31h-112l100 116h131z" />
    <glyph glyph-name="uni1ED5" unicode="&#x1ed5;" horiz-adv-x="574" 
d="M134.5 22.5q-55.5 27.5 -80 87t-24.5 161.5q0 109 24.5 168.5t79.5 84t153 24.5t153 -25.5t79.5 -85.5t24.5 -166t-23.5 -165t-78.5 -85t-155 -26q-97 0 -152.5 27.5zM326.5 156.5q12.5 7.5 18 33t5.5 82.5q0 56 -5.5 81.5t-18 33t-39.5 7.5t-39.5 -7.5t-18 -33
t-5.5 -81.5q0 -57 5.5 -82.5t18 -33t39.5 -7.5t39.5 7.5zM412 772q19 6 19 22q0 14 -14 14q-10 0 -30 -6v64q27 9 56 9q78 0 78 -68q0 -46 -26 -74.5t-83 -44.5v84zM225 747h131l91 -116h-111l-49 31l-50 -31h-112z" />
    <glyph glyph-name="uni1ED7" unicode="&#x1ed7;" horiz-adv-x="574" 
d="M134.5 22.5q-55.5 27.5 -80 87t-24.5 161.5q0 109 24.5 168.5t79.5 84t153 24.5t153 -25.5t79.5 -85.5t24.5 -166t-23.5 -165t-78.5 -85t-155 -26q-97 0 -152.5 27.5zM326.5 156.5q12.5 7.5 18 33t5.5 82.5q0 56 -5.5 81.5t-18 33t-39.5 7.5t-39.5 -7.5t-18 -33
t-5.5 -81.5q0 -57 5.5 -82.5t18 -33t39.5 -7.5t39.5 7.5zM242.5 893.5q16.5 -3.5 31.5 -7.5q28 -8 38 -8q29 0 29 26h96q-4 -47 -14.5 -72.5t-28 -35t-45.5 -9.5q-24 0 -48 5.5t-28 6.5q-28 7 -37 7q-16 0 -21 -21h-96q6 67 28 89.5t63 22.5q16 0 32.5 -3.5zM447 631h-111
l-49 31l-50 -31h-112l100 116h131z" />
    <glyph glyph-name="uni020D" unicode="&#x20d;" horiz-adv-x="574" 
d="M134.5 22.5q-55.5 27.5 -80 87t-24.5 161.5q0 109 24.5 168.5t79.5 84t153 24.5t153 -25.5t79.5 -85.5t24.5 -166t-23.5 -165t-78.5 -85t-155 -26q-97 0 -152.5 27.5zM326.5 156.5q12.5 7.5 18 33t5.5 82.5q0 56 -5.5 81.5t-18 33t-39.5 7.5t-39.5 -7.5t-18 -33
t-5.5 -81.5q0 -57 5.5 -82.5t18 -33t39.5 -7.5t39.5 7.5zM38 774h154l68 -143h-114zM238 774h154l68 -143h-114z" />
    <glyph glyph-name="odieresis" unicode="&#xf6;" horiz-adv-x="574" 
d="M134.5 22.5q-55.5 27.5 -80 87t-24.5 161.5q0 109 24.5 168.5t79.5 84t153 24.5t153 -25.5t79.5 -85.5t24.5 -166t-23.5 -165t-78.5 -85t-155 -26q-97 0 -152.5 27.5zM326.5 156.5q12.5 7.5 18 33t5.5 82.5q0 56 -5.5 81.5t-18 33t-39.5 7.5t-39.5 -7.5t-18 -33
t-5.5 -81.5q0 -57 5.5 -82.5t18 -33t39.5 -7.5t39.5 7.5zM120.5 633.5q-6.5 6.5 -6.5 16.5v111q0 12 6 18.5t18 6.5h90q11 0 17 -7t6 -18v-111q0 -11 -6 -17t-17 -6h-90q-11 0 -17.5 6.5zM317.5 633.5q-6.5 6.5 -6.5 16.5v111q0 12 6 18.5t18 6.5h90q11 0 17 -7t6 -18v-111
q0 -11 -6 -17t-17 -6h-90q-11 0 -17.5 6.5z" />
    <glyph glyph-name="uni022B" unicode="&#x22b;" horiz-adv-x="574" 
d="M134.5 22.5q-55.5 27.5 -80 87t-24.5 161.5q0 109 24.5 168.5t79.5 84t153 24.5t153 -25.5t79.5 -85.5t24.5 -166t-23.5 -165t-78.5 -85t-155 -26q-97 0 -152.5 27.5zM326.5 156.5q12.5 7.5 18 33t5.5 82.5q0 56 -5.5 81.5t-18 33t-39.5 7.5t-39.5 -7.5t-18 -33
t-5.5 -81.5q0 -57 5.5 -82.5t18 -33t39.5 -7.5t39.5 7.5zM120.5 633.5q-6.5 6.5 -6.5 16.5v111q0 12 6 18.5t18 6.5h90q11 0 17 -7t6 -18v-111q0 -11 -6 -17t-17 -6h-90q-11 0 -17.5 6.5zM317.5 633.5q-6.5 6.5 -6.5 16.5v111q0 12 6 18.5t18 6.5h90q11 0 17 -7t6 -18v-111
q0 -11 -6 -17t-17 -6h-90q-11 0 -17.5 6.5zM136 945h292v-114h-292v114z" />
    <glyph glyph-name="uni0231" unicode="&#x231;" horiz-adv-x="574" 
d="M134.5 22.5q-55.5 27.5 -80 87t-24.5 161.5q0 109 24.5 168.5t79.5 84t153 24.5t153 -25.5t79.5 -85.5t24.5 -166t-23.5 -165t-78.5 -85t-155 -26q-97 0 -152.5 27.5zM326.5 156.5q12.5 7.5 18 33t5.5 82.5q0 56 -5.5 81.5t-18 33t-39.5 7.5t-39.5 -7.5t-18 -33
t-5.5 -81.5q0 -57 5.5 -82.5t18 -33t39.5 -7.5t39.5 7.5zM222.5 640.5q-6.5 6.5 -6.5 16.5v111q0 12 6 18.5t18 6.5h90q11 0 17 -7t6 -18v-111q0 -11 -6 -17t-17 -6h-90q-11 0 -17.5 6.5zM136 945h292v-114h-292v114z" />
    <glyph glyph-name="uni1ECD" unicode="&#x1ecd;" horiz-adv-x="574" 
d="M134.5 22.5q-55.5 27.5 -80 87t-24.5 161.5q0 109 24.5 168.5t79.5 84t153 24.5t153 -25.5t79.5 -85.5t24.5 -166t-23.5 -165t-78.5 -85t-155 -26q-97 0 -152.5 27.5zM326.5 156.5q12.5 7.5 18 33t5.5 82.5q0 56 -5.5 81.5t-18 33t-39.5 7.5t-39.5 -7.5t-18 -33
t-5.5 -81.5q0 -57 5.5 -82.5t18 -33t39.5 -7.5t39.5 7.5zM219.5 -229.5q-6.5 6.5 -6.5 16.5v111q0 12 6 18.5t18 6.5h90q11 0 17 -7t6 -18v-111q0 -11 -6 -17t-17 -6h-90q-11 0 -17.5 6.5z" />
    <glyph glyph-name="ograve" unicode="&#xf2;" horiz-adv-x="574" 
d="M134.5 22.5q-55.5 27.5 -80 87t-24.5 161.5q0 109 24.5 168.5t79.5 84t153 24.5t153 -25.5t79.5 -85.5t24.5 -166t-23.5 -165t-78.5 -85t-155 -26q-97 0 -152.5 27.5zM326.5 156.5q12.5 7.5 18 33t5.5 82.5q0 56 -5.5 81.5t-18 33t-39.5 7.5t-39.5 -7.5t-18 -33
t-5.5 -81.5q0 -57 5.5 -82.5t18 -33t39.5 -7.5t39.5 7.5zM147 774h154l68 -143h-114z" />
    <glyph glyph-name="uni1ECF" unicode="&#x1ecf;" horiz-adv-x="574" 
d="M134.5 22.5q-55.5 27.5 -80 87t-24.5 161.5q0 109 24.5 168.5t79.5 84t153 24.5t153 -25.5t79.5 -85.5t24.5 -166t-23.5 -165t-78.5 -85t-155 -26q-97 0 -152.5 27.5zM326.5 156.5q12.5 7.5 18 33t5.5 82.5q0 56 -5.5 81.5t-18 33t-39.5 7.5t-39.5 -7.5t-18 -33
t-5.5 -81.5q0 -57 5.5 -82.5t18 -33t39.5 -7.5t39.5 7.5zM253 672q29 8 29 28q0 16 -24 16q-10 0 -30 -6v74q27 9 56 9q49 0 73.5 -22t24.5 -64q0 -45 -30 -72t-99 -47v84z" />
    <glyph glyph-name="ohorn" unicode="&#x1a1;" horiz-adv-x="574" 
d="M556 537.5q-18 -46.5 -51 -72.5q21 -32 30 -79t9 -115q0 -106 -23.5 -165t-78.5 -85t-155 -26q-97 0 -152.5 27.5t-80 87t-24.5 161.5q0 109 24.5 168.5t79.5 84t153 24.5q54 0 99 -8q29 3 42.5 28t13.5 79h132q0 -63 -18 -109.5zM326.5 156.5q12.5 7.5 18 33t5.5 82.5
q0 56 -5.5 81.5t-18 33t-39.5 7.5t-39.5 -7.5t-18 -33t-5.5 -81.5q0 -57 5.5 -82.5t18 -33t39.5 -7.5t39.5 7.5z" />
    <glyph glyph-name="uni1EDB" unicode="&#x1edb;" horiz-adv-x="574" 
d="M556 537.5q-18 -46.5 -51 -72.5q21 -32 30 -79t9 -115q0 -106 -23.5 -165t-78.5 -85t-155 -26q-97 0 -152.5 27.5t-80 87t-24.5 161.5q0 109 24.5 168.5t79.5 84t153 24.5q54 0 99 -8q29 3 42.5 28t13.5 79h132q0 -63 -18 -109.5zM326.5 156.5q12.5 7.5 18 33t5.5 82.5
q0 56 -5.5 81.5t-18 33t-39.5 7.5t-39.5 -7.5t-18 -33t-5.5 -81.5q0 -57 5.5 -82.5t18 -33t39.5 -7.5t39.5 7.5zM279 774h154l-108 -143h-114z" />
    <glyph glyph-name="uni1EE3" unicode="&#x1ee3;" horiz-adv-x="574" 
d="M556 537.5q-18 -46.5 -51 -72.5q21 -32 30 -79t9 -115q0 -106 -23.5 -165t-78.5 -85t-155 -26q-97 0 -152.5 27.5t-80 87t-24.5 161.5q0 109 24.5 168.5t79.5 84t153 24.5q54 0 99 -8q29 3 42.5 28t13.5 79h132q0 -63 -18 -109.5zM326.5 156.5q12.5 7.5 18 33t5.5 82.5
q0 56 -5.5 81.5t-18 33t-39.5 7.5t-39.5 -7.5t-18 -33t-5.5 -81.5q0 -57 5.5 -82.5t18 -33t39.5 -7.5t39.5 7.5zM224.5 -229.5q-6.5 6.5 -6.5 16.5v111q0 12 6 18.5t18 6.5h90q11 0 17 -7t6 -18v-111q0 -11 -6 -17t-17 -6h-90q-11 0 -17.5 6.5z" />
    <glyph glyph-name="uni1EDD" unicode="&#x1edd;" horiz-adv-x="574" 
d="M556 537.5q-18 -46.5 -51 -72.5q21 -32 30 -79t9 -115q0 -106 -23.5 -165t-78.5 -85t-155 -26q-97 0 -152.5 27.5t-80 87t-24.5 161.5q0 109 24.5 168.5t79.5 84t153 24.5q54 0 99 -8q29 3 42.5 28t13.5 79h132q0 -63 -18 -109.5zM326.5 156.5q12.5 7.5 18 33t5.5 82.5
q0 56 -5.5 81.5t-18 33t-39.5 7.5t-39.5 -7.5t-18 -33t-5.5 -81.5q0 -57 5.5 -82.5t18 -33t39.5 -7.5t39.5 7.5zM121 774h154l68 -143h-114z" />
    <glyph glyph-name="uni1EDF" unicode="&#x1edf;" horiz-adv-x="574" 
d="M556 537.5q-18 -46.5 -51 -72.5q21 -32 30 -79t9 -115q0 -106 -23.5 -165t-78.5 -85t-155 -26q-97 0 -152.5 27.5t-80 87t-24.5 161.5q0 109 24.5 168.5t79.5 84t153 24.5q54 0 99 -8q29 3 42.5 28t13.5 79h132q0 -63 -18 -109.5zM326.5 156.5q12.5 7.5 18 33t5.5 82.5
q0 56 -5.5 81.5t-18 33t-39.5 7.5t-39.5 -7.5t-18 -33t-5.5 -81.5q0 -57 5.5 -82.5t18 -33t39.5 -7.5t39.5 7.5zM256 672q29 8 29 28q0 16 -24 16q-10 0 -30 -6v74q27 9 56 9q49 0 73.5 -22t24.5 -64q0 -45 -30 -72t-99 -47v84z" />
    <glyph glyph-name="uni1EE1" unicode="&#x1ee1;" horiz-adv-x="574" 
d="M556 537.5q-18 -46.5 -51 -72.5q21 -32 30 -79t9 -115q0 -106 -23.5 -165t-78.5 -85t-155 -26q-97 0 -152.5 27.5t-80 87t-24.5 161.5q0 109 24.5 168.5t79.5 84t153 24.5q54 0 99 -8q29 3 42.5 28t13.5 79h132q0 -63 -18 -109.5zM326.5 156.5q12.5 7.5 18 33t5.5 82.5
q0 56 -5.5 81.5t-18 33t-39.5 7.5t-39.5 -7.5t-18 -33t-5.5 -81.5q0 -57 5.5 -82.5t18 -33t39.5 -7.5t39.5 7.5zM107.5 727.5q29.5 34.5 76.5 34.5q26 0 45.5 -6t40.5 -16q17 -8 29 -11.5t25 -3.5q28 0 31 44h96q-7 -150 -108 -150q-25 0 -46.5 6t-44.5 17q-3 1 -19.5 7.5
t-30.5 6.5q-27 0 -33 -39h-96q5 76 34.5 110.5z" />
    <glyph glyph-name="ohungarumlaut" unicode="&#x151;" horiz-adv-x="574" 
d="M134.5 22.5q-55.5 27.5 -80 87t-24.5 161.5q0 109 24.5 168.5t79.5 84t153 24.5t153 -25.5t79.5 -85.5t24.5 -166t-23.5 -165t-78.5 -85t-155 -26q-97 0 -152.5 27.5zM326.5 156.5q12.5 7.5 18 33t5.5 82.5q0 56 -5.5 81.5t-18 33t-39.5 7.5t-39.5 -7.5t-18 -33
t-5.5 -81.5q0 -57 5.5 -82.5t18 -33t39.5 -7.5t39.5 7.5zM195 774h144l-88 -143h-114zM368 774h144l-88 -143h-114z" />
    <glyph glyph-name="uni020F" unicode="&#x20f;" horiz-adv-x="574" 
d="M134.5 22.5q-55.5 27.5 -80 87t-24.5 161.5q0 109 24.5 168.5t79.5 84t153 24.5t153 -25.5t79.5 -85.5t24.5 -166t-23.5 -165t-78.5 -85t-155 -26q-97 0 -152.5 27.5zM326.5 156.5q12.5 7.5 18 33t5.5 82.5q0 56 -5.5 81.5t-18 33t-39.5 7.5t-39.5 -7.5t-18 -33
t-5.5 -81.5q0 -57 5.5 -82.5t18 -33t39.5 -7.5t39.5 7.5zM399.5 740.5q36.5 -39.5 36.5 -117.5h-89q0 37 -16 53.5t-39 16.5q-55 0 -55 -70h-91q0 157 146 157q71 0 107.5 -39.5z" />
    <glyph glyph-name="omacron" unicode="&#x14d;" horiz-adv-x="574" 
d="M134.5 22.5q-55.5 27.5 -80 87t-24.5 161.5q0 109 24.5 168.5t79.5 84t153 24.5t153 -25.5t79.5 -85.5t24.5 -166t-23.5 -165t-78.5 -85t-155 -26q-97 0 -152.5 27.5zM326.5 156.5q12.5 7.5 18 33t5.5 82.5q0 56 -5.5 81.5t-18 33t-39.5 7.5t-39.5 -7.5t-18 -33
t-5.5 -81.5q0 -57 5.5 -82.5t18 -33t39.5 -7.5t39.5 7.5zM136 745h292v-114h-292v114z" />
    <glyph glyph-name="uni1E53" unicode="&#x1e53;" horiz-adv-x="574" 
d="M134.5 22.5q-55.5 27.5 -80 87t-24.5 161.5q0 109 24.5 168.5t79.5 84t153 24.5t153 -25.5t79.5 -85.5t24.5 -166t-23.5 -165t-78.5 -85t-155 -26q-97 0 -152.5 27.5zM326.5 156.5q12.5 7.5 18 33t5.5 82.5q0 56 -5.5 81.5t-18 33t-39.5 7.5t-39.5 -7.5t-18 -33
t-5.5 -81.5q0 -57 5.5 -82.5t18 -33t39.5 -7.5t39.5 7.5zM136 745h292v-114h-292v114zM295 914h154l-108 -143h-114z" />
    <glyph glyph-name="uni1E51" unicode="&#x1e51;" horiz-adv-x="574" 
d="M134.5 22.5q-55.5 27.5 -80 87t-24.5 161.5q0 109 24.5 168.5t79.5 84t153 24.5t153 -25.5t79.5 -85.5t24.5 -166t-23.5 -165t-78.5 -85t-155 -26q-97 0 -152.5 27.5zM326.5 156.5q12.5 7.5 18 33t5.5 82.5q0 56 -5.5 81.5t-18 33t-39.5 7.5t-39.5 -7.5t-18 -33
t-5.5 -81.5q0 -57 5.5 -82.5t18 -33t39.5 -7.5t39.5 7.5zM136 745h292v-114h-292v114zM127 914h154l68 -143h-114z" />
    <glyph glyph-name="uni01EB" unicode="&#x1eb;" horiz-adv-x="574" 
d="M326 -29q-8 -13 -8 -30q0 -19 12.5 -30.5t29.5 -11.5h10v-90q-10 -5 -36 -5q-56 0 -81.5 27.5t-25.5 64.5q0 33 14 58t39 41q-95 1 -149 28.5t-77.5 87t-23.5 160.5q0 109 24.5 168.5t79.5 84t153 24.5t153 -25.5t79.5 -85.5t24.5 -166q0 -93 -17.5 -149t-58.5 -86
t-113 -38q-21 -14 -29 -27zM229.5 189.5q5.5 -25.5 18 -33t39.5 -7.5t39.5 7.5t18 33t5.5 82.5q0 56 -5.5 81.5t-18 33t-39.5 7.5t-39.5 -7.5t-18 -33t-5.5 -81.5q0 -57 5.5 -82.5z" />
    <glyph glyph-name="oslash" unicode="&#xf8;" horiz-adv-x="574" 
d="M502 470q22 -32 32 -80.5t10 -118.5q0 -106 -23.5 -165t-78.5 -85t-155 -26q-107 0 -164 33l-24 -28h-86l62 72q-24 32 -34.5 81t-10.5 118q0 109 24.5 168.5t79.5 84t153 24.5q111 0 167 -33l21 24h86zM224 246l112 131q-7 10 -18 13.5t-31 3.5q-27 0 -39.5 -7.5
t-18 -33t-5.5 -81.5v-26zM350 293l-110 -129q6 -9 17 -12t30 -3q27 0 39.5 7.5t18 33t5.5 82.5v21z" />
    <glyph glyph-name="oslashacute" unicode="&#x1ff;" horiz-adv-x="574" 
d="M502 470q22 -32 32 -80.5t10 -118.5q0 -106 -23.5 -165t-78.5 -85t-155 -26q-107 0 -164 33l-24 -28h-86l62 72q-24 32 -34.5 81t-10.5 118q0 109 24.5 168.5t79.5 84t153 24.5q111 0 167 -33l21 24h86zM224 246l112 131q-7 10 -18 13.5t-31 3.5q-27 0 -39.5 -7.5
t-18 -33t-5.5 -81.5v-26zM350 293l-110 -129q6 -9 17 -12t30 -3q27 0 39.5 7.5t18 33t5.5 82.5v21zM305 774h154l-108 -143h-114z" />
    <glyph glyph-name="otilde" unicode="&#xf5;" horiz-adv-x="574" 
d="M134.5 22.5q-55.5 27.5 -80 87t-24.5 161.5q0 109 24.5 168.5t79.5 84t153 24.5t153 -25.5t79.5 -85.5t24.5 -166t-23.5 -165t-78.5 -85t-155 -26q-97 0 -152.5 27.5zM326.5 156.5q12.5 7.5 18 33t5.5 82.5q0 56 -5.5 81.5t-18 33t-39.5 7.5t-39.5 -7.5t-18 -33
t-5.5 -81.5q0 -57 5.5 -82.5t18 -33t39.5 -7.5t39.5 7.5zM133.5 727.5q29.5 34.5 76.5 34.5q26 0 45.5 -6t40.5 -16q17 -8 29 -11.5t25 -3.5q28 0 31 44h96q-7 -150 -108 -150q-25 0 -46.5 6t-44.5 17q-3 1 -19.5 7.5t-30.5 6.5q-27 0 -33 -39h-96q5 76 34.5 110.5z" />
    <glyph glyph-name="uni1E4D" unicode="&#x1e4d;" horiz-adv-x="574" 
d="M134.5 22.5q-55.5 27.5 -80 87t-24.5 161.5q0 109 24.5 168.5t79.5 84t153 24.5t153 -25.5t79.5 -85.5t24.5 -166t-23.5 -165t-78.5 -85t-155 -26q-97 0 -152.5 27.5zM326.5 156.5q12.5 7.5 18 33t5.5 82.5q0 56 -5.5 81.5t-18 33t-39.5 7.5t-39.5 -7.5t-18 -33
t-5.5 -81.5q0 -57 5.5 -82.5t18 -33t39.5 -7.5t39.5 7.5zM133.5 727.5q29.5 34.5 76.5 34.5q26 0 45.5 -6t40.5 -16q17 -8 29 -11.5t25 -3.5q28 0 31 44h96q-7 -150 -108 -150q-25 0 -46.5 6t-44.5 17q-3 1 -19.5 7.5t-30.5 6.5q-27 0 -33 -39h-96q5 76 34.5 110.5zM295 934
h154l-108 -143h-114z" />
    <glyph glyph-name="uni1E4F" unicode="&#x1e4f;" horiz-adv-x="574" 
d="M134.5 22.5q-55.5 27.5 -80 87t-24.5 161.5q0 109 24.5 168.5t79.5 84t153 24.5t153 -25.5t79.5 -85.5t24.5 -166t-23.5 -165t-78.5 -85t-155 -26q-97 0 -152.5 27.5zM326.5 156.5q12.5 7.5 18 33t5.5 82.5q0 56 -5.5 81.5t-18 33t-39.5 7.5t-39.5 -7.5t-18 -33
t-5.5 -81.5q0 -57 5.5 -82.5t18 -33t39.5 -7.5t39.5 7.5zM133.5 727.5q29.5 34.5 76.5 34.5q26 0 45.5 -6t40.5 -16q17 -8 29 -11.5t25 -3.5q28 0 31 44h96q-7 -150 -108 -150q-25 0 -46.5 6t-44.5 17q-3 1 -19.5 7.5t-30.5 6.5q-27 0 -33 -39h-96q5 76 34.5 110.5z
M130.5 803.5q-6.5 6.5 -6.5 16.5v111q0 12 6 18.5t18 6.5h90q11 0 17 -7t6 -18v-111q0 -11 -6 -17t-17 -6h-90q-11 0 -17.5 6.5zM327.5 803.5q-6.5 6.5 -6.5 16.5v111q0 12 6 18.5t18 6.5h90q11 0 17 -7t6 -18v-111q0 -11 -6 -17t-17 -6h-90q-11 0 -17.5 6.5z" />
    <glyph glyph-name="uni022D" unicode="&#x22d;" horiz-adv-x="574" 
d="M134.5 22.5q-55.5 27.5 -80 87t-24.5 161.5q0 109 24.5 168.5t79.5 84t153 24.5t153 -25.5t79.5 -85.5t24.5 -166t-23.5 -165t-78.5 -85t-155 -26q-97 0 -152.5 27.5zM326.5 156.5q12.5 7.5 18 33t5.5 82.5q0 56 -5.5 81.5t-18 33t-39.5 7.5t-39.5 -7.5t-18 -33
t-5.5 -81.5q0 -57 5.5 -82.5t18 -33t39.5 -7.5t39.5 7.5zM136 945h292v-114h-292v114zM113.5 727.5q29.5 34.5 76.5 34.5q26 0 45.5 -6t40.5 -16q17 -8 29 -11.5t25 -3.5q28 0 31 44h96q-7 -150 -108 -150q-25 0 -46.5 6t-44.5 17q-3 1 -19.5 7.5t-30.5 6.5q-27 0 -33 -39
h-96q5 76 34.5 110.5z" />
    <glyph glyph-name="oe" unicode="&#x153;" horiz-adv-x="847" 
d="M559.5 152q23.5 -14 80.5 -14h157v-113q-99 -30 -216 -30q-87 0 -135 41q-49 -41 -159 -41q-97 0 -152.5 27.5t-80 87t-24.5 161.5q0 109 24.5 168.5t79.5 84t153 24.5q54 0 92.5 -10t65.5 -31q48 41 143 41q89 0 138 -18t70 -63t21 -130q0 -66 -47.5 -100t-119.5 -34
h-116q2 -37 25.5 -51zM545 389q-13 -21 -13 -73h80q19 0 27 10.5t8 32.5q0 25 -13.5 38t-44.5 13t-44 -21zM326.5 147.5q12.5 8.5 18 36t5.5 88.5t-5.5 88.5t-18 35.5t-39.5 8t-39.5 -8t-18 -35.5t-5.5 -88.5t5.5 -88.5t18 -36t39.5 -8.5t39.5 8.5z" />
    <glyph glyph-name="p" unicode="p" horiz-adv-x="590" 
d="M44 539h164l30 -49q35 30 63.5 44t68.5 14q97 0 143.5 -68.5t46.5 -211.5q0 -91 -16 -150.5t-58 -92.5t-116 -33q-81 0 -132 25v-254h-194v776zM366 268q0 72 -15 98.5t-46 26.5q-19 0 -37.5 -6t-29.5 -14v-207q10 -7 28.5 -11t37.5 -4q62 0 62 117z" />
    <glyph glyph-name="uni1E57" unicode="&#x1e57;" horiz-adv-x="590" 
d="M44 539h164l30 -49q35 30 63.5 44t68.5 14q97 0 143.5 -68.5t46.5 -211.5q0 -91 -16 -150.5t-58 -92.5t-116 -33q-81 0 -132 25v-254h-194v776zM366 268q0 72 -15 98.5t-46 26.5q-19 0 -37.5 -6t-29.5 -14v-207q10 -7 28.5 -11t37.5 -4q62 0 62 117zM222.5 640.5
q-6.5 6.5 -6.5 16.5v111q0 12 6 18.5t18 6.5h90q11 0 17 -7t6 -18v-111q0 -11 -6 -17t-17 -6h-90q-11 0 -17.5 6.5z" />
    <glyph glyph-name="thorn" unicode="&#xfe;" horiz-adv-x="590" 
d="M44 763h194v-273q35 30 63.5 44t68.5 14q91 0 140.5 -70t49.5 -210q0 -134 -43.5 -205t-146.5 -71q-81 0 -132 25v-254h-194v1000zM366 258q0 78 -15 106.5t-46 28.5q-19 0 -37.5 -6t-29.5 -14v-207q10 -7 28.5 -11t37.5 -4q62 0 62 107z" />
    <glyph glyph-name="q" unicode="q" horiz-adv-x="588" 
d="M352 49q-24 -23 -57.5 -39t-63.5 -16q-76 0 -120 28.5t-62.5 87.5t-18.5 158q0 109 22.5 169.5t67.5 85.5t119 25q67 0 153.5 -8t153.5 -18v-759h-194v286zM322.5 156q20.5 7 29.5 13v235h-50q-30 0 -47 -11.5t-24 -39t-7 -78.5q0 -56 6 -82.5t19.5 -35t40.5 -8.5
q12 0 32.5 7z" />
    <glyph glyph-name="r" unicode="r" horiz-adv-x="430" 
d="M44 539h151l43 -75q28 38 59.5 60.5t72.5 22.5q22 0 40 -5v-199q-46 4 -66 4q-75 0 -106 -42v-305h-194v539z" />
    <glyph glyph-name="racute" unicode="&#x155;" horiz-adv-x="430" 
d="M44 539h151l43 -75q28 38 59.5 60.5t72.5 22.5q22 0 40 -5v-199q-46 4 -66 4q-75 0 -106 -42v-305h-194v539zM248 774h154l-108 -143h-114z" />
    <glyph glyph-name="rcaron" unicode="&#x159;" horiz-adv-x="430" 
d="M44 539h151l43 -75q28 38 59.5 60.5t72.5 22.5q22 0 40 -5v-199q-46 4 -66 4q-75 0 -106 -42v-305h-194v539zM70 777h111l49 -61l50 61h112l-100 -146h-131z" />
    <glyph glyph-name="rcommaaccent" unicode="&#x157;" horiz-adv-x="430" 
d="M44 539h151l43 -75q28 38 59.5 60.5t72.5 22.5q22 0 40 -5v-199q-46 4 -66 4q-75 0 -106 -42v-305h-194v539zM52 -146l26 9q24 8 31.5 19t7.5 39h117q0 -78 -26.5 -112t-94.5 -34h-61v79z" />
    <glyph glyph-name="uni0211" unicode="&#x211;" horiz-adv-x="430" 
d="M44 539h151l43 -75q28 38 59.5 60.5t72.5 22.5q22 0 40 -5v-199q-46 4 -66 4q-75 0 -106 -42v-305h-194v539zM-19 774h154l68 -143h-114zM181 774h154l68 -143h-114z" />
    <glyph glyph-name="uni1E5B" unicode="&#x1e5b;" horiz-adv-x="430" 
d="M44 539h151l43 -75q28 38 59.5 60.5t72.5 22.5q22 0 40 -5v-199q-46 4 -66 4q-75 0 -106 -42v-305h-194v539zM73.5 -229.5q-6.5 6.5 -6.5 16.5v111q0 12 6 18.5t18 6.5h90q11 0 17 -7t6 -18v-111q0 -11 -6 -17t-17 -6h-90q-11 0 -17.5 6.5z" />
    <glyph glyph-name="uni0213" unicode="&#x213;" horiz-adv-x="430" 
d="M44 539h151l43 -75q28 38 59.5 60.5t72.5 22.5q22 0 40 -5v-199q-46 4 -66 4q-75 0 -106 -42v-305h-194v539zM342.5 740.5q36.5 -39.5 36.5 -117.5h-89q0 37 -16 53.5t-39 16.5q-55 0 -55 -70h-91q0 157 146 157q71 0 107.5 -39.5z" />
    <glyph glyph-name="uni1E5F" unicode="&#x1e5f;" horiz-adv-x="430" 
d="M44 539h151l43 -75q28 38 59.5 60.5t72.5 22.5q22 0 40 -5v-199q-46 4 -66 4q-75 0 -106 -42v-305h-194v539zM0 -115h292v-114h-292v114z" />
    <glyph glyph-name="s" unicode="s" horiz-adv-x="508" 
d="M129.5 1.5q-55.5 7.5 -91.5 23.5v113h250q18 0 24 4.5t6 15.5v13q0 11 -7.5 16t-29.5 5h-90q-74 0 -119.5 37t-45.5 118v33q0 55 20.5 90.5t72 54.5t141.5 19q52 0 109.5 -9.5t86.5 -21.5v-113h-237q-15 0 -22 -4.5t-7 -15.5v-13q0 -12 8.5 -16.5t31.5 -4.5h93
q84 0 121.5 -38t37.5 -110v-55q0 -80 -57 -114.5t-178 -34.5q-62 0 -117.5 7.5z" />
    <glyph glyph-name="sacute" unicode="&#x15b;" horiz-adv-x="508" 
d="M129.5 1.5q-55.5 7.5 -91.5 23.5v113h250q18 0 24 4.5t6 15.5v13q0 11 -7.5 16t-29.5 5h-90q-74 0 -119.5 37t-45.5 118v33q0 55 20.5 90.5t72 54.5t141.5 19q52 0 109.5 -9.5t86.5 -21.5v-113h-237q-15 0 -22 -4.5t-7 -15.5v-13q0 -12 8.5 -16.5t31.5 -4.5h93
q84 0 121.5 -38t37.5 -110v-55q0 -80 -57 -114.5t-178 -34.5q-62 0 -117.5 7.5zM268 774h154l-108 -143h-114z" />
    <glyph glyph-name="uni1E65" unicode="&#x1e65;" horiz-adv-x="508" 
d="M129.5 1.5q-55.5 7.5 -91.5 23.5v113h250q18 0 24 4.5t6 15.5v13q0 11 -7.5 16t-29.5 5h-90q-74 0 -119.5 37t-45.5 118v33q0 55 20.5 90.5t72 54.5t141.5 19q52 0 109.5 -9.5t86.5 -21.5v-113h-237q-15 0 -22 -4.5t-7 -15.5v-13q0 -12 8.5 -16.5t31.5 -4.5h93
q84 0 121.5 -38t37.5 -110v-55q0 -80 -57 -114.5t-178 -34.5q-62 0 -117.5 7.5zM238 774h154l-108 -143h-114zM215.5 810.5q-6.5 6.5 -6.5 16.5v111q0 12 6 18.5t18 6.5h90q11 0 17 -7t6 -18v-111q0 -11 -6 -17t-17 -6h-90q-11 0 -17.5 6.5z" />
    <glyph glyph-name="scaron" unicode="&#x161;" horiz-adv-x="508" 
d="M129.5 1.5q-55.5 7.5 -91.5 23.5v113h250q18 0 24 4.5t6 15.5v13q0 11 -7.5 16t-29.5 5h-90q-74 0 -119.5 37t-45.5 118v33q0 55 20.5 90.5t72 54.5t141.5 19q52 0 109.5 -9.5t86.5 -21.5v-113h-237q-15 0 -22 -4.5t-7 -15.5v-13q0 -12 8.5 -16.5t31.5 -4.5h93
q84 0 121.5 -38t37.5 -110v-55q0 -80 -57 -114.5t-178 -34.5q-62 0 -117.5 7.5zM90 777h111l49 -61l50 61h112l-100 -146h-131z" />
    <glyph glyph-name="uni1E67" unicode="&#x1e67;" horiz-adv-x="508" 
d="M129.5 1.5q-55.5 7.5 -91.5 23.5v113h250q18 0 24 4.5t6 15.5v13q0 11 -7.5 16t-29.5 5h-90q-74 0 -119.5 37t-45.5 118v33q0 55 20.5 90.5t72 54.5t141.5 19q52 0 109.5 -9.5t86.5 -21.5v-113h-237q-15 0 -22 -4.5t-7 -15.5v-13q0 -12 8.5 -16.5t31.5 -4.5h93
q84 0 121.5 -38t37.5 -110v-55q0 -80 -57 -114.5t-178 -34.5q-62 0 -117.5 7.5zM90 777h111l49 -61l50 61h112l-100 -146h-131zM185.5 820.5q-6.5 6.5 -6.5 16.5v111q0 12 6 18.5t18 6.5h90q11 0 17 -7t6 -18v-111q0 -11 -6 -17t-17 -6h-90q-11 0 -17.5 6.5z" />
    <glyph glyph-name="scedilla" unicode="&#x15f;" horiz-adv-x="508" 
d="M444.5 308q37.5 -38 37.5 -110v-55q0 -70 -42.5 -104.5t-131.5 -42.5l-28 -45q27 -4 45 -21t18 -47q0 -41 -28 -63.5t-85 -22.5h-59v79l15 3q32 6 32 27q0 23 -32 32l34 56q-53 2 -101 9.5t-81 21.5v113h250q18 0 24 4.5t6 15.5v13q0 11 -7.5 16t-29.5 5h-90
q-74 0 -119.5 37t-45.5 118v33q0 55 20.5 90.5t72 54.5t141.5 19q52 0 109.5 -9.5t86.5 -21.5v-113h-237q-15 0 -22 -4.5t-7 -15.5v-13q0 -12 8.5 -16.5t31.5 -4.5h93q84 0 121.5 -38z" />
    <glyph glyph-name="scircumflex" unicode="&#x15d;" horiz-adv-x="508" 
d="M129.5 1.5q-55.5 7.5 -91.5 23.5v113h250q18 0 24 4.5t6 15.5v13q0 11 -7.5 16t-29.5 5h-90q-74 0 -119.5 37t-45.5 118v33q0 55 20.5 90.5t72 54.5t141.5 19q52 0 109.5 -9.5t86.5 -21.5v-113h-237q-15 0 -22 -4.5t-7 -15.5v-13q0 -12 8.5 -16.5t31.5 -4.5h93
q84 0 121.5 -38t37.5 -110v-55q0 -80 -57 -114.5t-178 -34.5q-62 0 -117.5 7.5zM188 777h131l91 -146h-111l-49 61l-50 -61h-112z" />
    <glyph glyph-name="scommaaccent" unicode="&#x219;" horiz-adv-x="508" 
d="M129.5 1.5q-55.5 7.5 -91.5 23.5v113h250q18 0 24 4.5t6 15.5v13q0 11 -7.5 16t-29.5 5h-90q-74 0 -119.5 37t-45.5 118v33q0 55 20.5 90.5t72 54.5t141.5 19q52 0 109.5 -9.5t86.5 -21.5v-113h-237q-15 0 -22 -4.5t-7 -15.5v-13q0 -12 8.5 -16.5t31.5 -4.5h93
q84 0 121.5 -38t37.5 -110v-55q0 -80 -57 -114.5t-178 -34.5q-62 0 -117.5 7.5zM161 -146l26 9q24 8 31.5 19t7.5 39h117q0 -78 -26.5 -112t-94.5 -34h-61v79z" />
    <glyph glyph-name="uni1E61" unicode="&#x1e61;" horiz-adv-x="508" 
d="M129.5 1.5q-55.5 7.5 -91.5 23.5v113h250q18 0 24 4.5t6 15.5v13q0 11 -7.5 16t-29.5 5h-90q-74 0 -119.5 37t-45.5 118v33q0 55 20.5 90.5t72 54.5t141.5 19q52 0 109.5 -9.5t86.5 -21.5v-113h-237q-15 0 -22 -4.5t-7 -15.5v-13q0 -12 8.5 -16.5t31.5 -4.5h93
q84 0 121.5 -38t37.5 -110v-55q0 -80 -57 -114.5t-178 -34.5q-62 0 -117.5 7.5zM185.5 640.5q-6.5 6.5 -6.5 16.5v111q0 12 6 18.5t18 6.5h90q11 0 17 -7t6 -18v-111q0 -11 -6 -17t-17 -6h-90q-11 0 -17.5 6.5z" />
    <glyph glyph-name="uni1E63" unicode="&#x1e63;" horiz-adv-x="508" 
d="M129.5 1.5q-55.5 7.5 -91.5 23.5v113h250q18 0 24 4.5t6 15.5v13q0 11 -7.5 16t-29.5 5h-90q-74 0 -119.5 37t-45.5 118v33q0 55 20.5 90.5t72 54.5t141.5 19q52 0 109.5 -9.5t86.5 -21.5v-113h-237q-15 0 -22 -4.5t-7 -15.5v-13q0 -12 8.5 -16.5t31.5 -4.5h93
q84 0 121.5 -38t37.5 -110v-55q0 -80 -57 -114.5t-178 -34.5q-62 0 -117.5 7.5zM182.5 -229.5q-6.5 6.5 -6.5 16.5v111q0 12 6 18.5t18 6.5h90q11 0 17 -7t6 -18v-111q0 -11 -6 -17t-17 -6h-90q-11 0 -17.5 6.5z" />
    <glyph glyph-name="uni1E69" unicode="&#x1e69;" horiz-adv-x="508" 
d="M129.5 1.5q-55.5 7.5 -91.5 23.5v113h250q18 0 24 4.5t6 15.5v13q0 11 -7.5 16t-29.5 5h-90q-74 0 -119.5 37t-45.5 118v33q0 55 20.5 90.5t72 54.5t141.5 19q52 0 109.5 -9.5t86.5 -21.5v-113h-237q-15 0 -22 -4.5t-7 -15.5v-13q0 -12 8.5 -16.5t31.5 -4.5h93
q84 0 121.5 -38t37.5 -110v-55q0 -80 -57 -114.5t-178 -34.5q-62 0 -117.5 7.5zM182.5 -229.5q-6.5 6.5 -6.5 16.5v111q0 12 6 18.5t18 6.5h90q11 0 17 -7t6 -18v-111q0 -11 -6 -17t-17 -6h-90q-11 0 -17.5 6.5zM185.5 640.5q-6.5 6.5 -6.5 16.5v111q0 12 6 18.5t18 6.5h90
q11 0 17 -7t6 -18v-111q0 -11 -6 -17t-17 -6h-90q-11 0 -17.5 6.5z" />
    <glyph glyph-name="germandbls" unicode="&#xdf;" horiz-adv-x="620" 
d="M330 -1.5q-38 4.5 -60 11.5v131q42 -3 89 -3q31 0 46 5t15 13v6q0 7 -7.5 14.5t-26.5 22.5q-38 28 -61.5 58t-23.5 76q0 34 11.5 63t32.5 65q16 30 23.5 47t7.5 34q0 38 -17.5 53t-52.5 15q-44 0 -61 -23.5t-17 -80.5v-506h-194v527q0 107 67.5 172t205.5 65
q129 0 191 -56t62 -154q0 -41 -14.5 -73.5t-38.5 -67.5q-9 -13 -15.5 -24.5t-6.5 -18.5q0 -9 7.5 -17.5t27.5 -26.5q39 -33 61.5 -65t22.5 -82v-27q0 -59 -31.5 -94.5t-75.5 -49.5t-86 -14q-43 0 -81 4.5z" />
    <glyph glyph-name="t" unicode="t" horiz-adv-x="403" 
d="M155.5 19q-40.5 19 -58.5 63t-15 121l6 182h-83v124l91 30l24 151h154v-151h109v-154h-109v-181q0 -26 8.5 -38.5t27.5 -14.5l69 -7v-144h-112q-71 0 -111.5 19z" />
    <glyph glyph-name="tbar" unicode="&#x167;" horiz-adv-x="403" 
d="M274 385v-65h109v-74h-109v-42q0 -26 8.5 -38.5t27.5 -14.5l69 -7v-144h-112q-71 0 -111.5 19t-58.5 63t-15 121l1 43h-78v74h81l2 65h-83v124l91 30l24 151h154v-151h109v-154h-109z" />
    <glyph glyph-name="tcaron" unicode="&#x165;" horiz-adv-x="403" 
d="M155.5 19q-40.5 19 -58.5 63t-15 121l6 182h-83v124l91 30l24 151h154v-151h109v-154h-109v-181q0 -26 8.5 -38.5t27.5 -14.5l69 -7v-144h-112q-71 0 -111.5 19zM314 716v67h175v-67l-10 -134h-154z" />
    <glyph glyph-name="uni0163" unicode="&#x163;" horiz-adv-x="403" 
d="M274 385v-181q0 -26 8.5 -38.5t27.5 -14.5l69 -7v-144h-99l-30 -49q27 -4 45 -21t18 -47q0 -41 -28 -63.5t-85 -22.5h-59v79l15 3q32 6 32 27q0 23 -32 32l41 68q-65 12 -91.5 57.5t-23.5 139.5l6 182h-83v124l91 30l24 151h154v-151h109v-154h-109z" />
    <glyph glyph-name="uni021B" unicode="&#x21b;" horiz-adv-x="403" 
d="M155.5 19q-40.5 19 -58.5 63t-15 121l6 182h-83v124l91 30l24 151h154v-151h109v-154h-109v-181q0 -26 8.5 -38.5t27.5 -14.5l69 -7v-144h-112q-71 0 -111.5 19zM121 -146l26 9q24 8 31.5 19t7.5 39h117q0 -78 -26.5 -112t-94.5 -34h-61v79z" />
    <glyph glyph-name="uni1E97" unicode="&#x1e97;" horiz-adv-x="403" 
d="M155.5 19q-40.5 19 -58.5 63t-15 121l6 182h-83v124l91 30l24 151h154v-151h109v-154h-109v-181q0 -26 8.5 -38.5t27.5 -14.5l69 -7v-144h-112q-71 0 -111.5 19zM57.5 733.5q-6.5 6.5 -6.5 16.5v111q0 12 6 18.5t18 6.5h90q11 0 17 -7t6 -18v-111q0 -11 -6 -17t-17 -6
h-90q-11 0 -17.5 6.5zM254.5 733.5q-6.5 6.5 -6.5 16.5v111q0 12 6 18.5t18 6.5h90q11 0 17 -7t6 -18v-111q0 -11 -6 -17t-17 -6h-90q-11 0 -17.5 6.5z" />
    <glyph glyph-name="uni1E6B" unicode="&#x1e6b;" horiz-adv-x="403" 
d="M155.5 19q-40.5 19 -58.5 63t-15 121l6 182h-83v124l91 30l24 151h154v-151h109v-154h-109v-181q0 -26 8.5 -38.5t27.5 -14.5l69 -7v-144h-112q-71 0 -111.5 19zM132.5 740.5q-6.5 6.5 -6.5 16.5v111q0 12 6 18.5t18 6.5h90q11 0 17 -7t6 -18v-111q0 -11 -6 -17t-17 -6
h-90q-11 0 -17.5 6.5z" />
    <glyph glyph-name="uni1E6D" unicode="&#x1e6d;" horiz-adv-x="403" 
d="M155.5 19q-40.5 19 -58.5 63t-15 121l6 182h-83v124l91 30l24 151h154v-151h109v-154h-109v-181q0 -26 8.5 -38.5t27.5 -14.5l69 -7v-144h-112q-71 0 -111.5 19zM152.5 -229.5q-6.5 6.5 -6.5 16.5v111q0 12 6 18.5t18 6.5h90q11 0 17 -7t6 -18v-111q0 -11 -6 -17t-17 -6
h-90q-11 0 -17.5 6.5z" />
    <glyph glyph-name="uni1E6F" unicode="&#x1e6f;" horiz-adv-x="403" 
d="M155.5 19q-40.5 19 -58.5 63t-15 121l6 182h-83v124l91 30l24 151h154v-151h109v-154h-109v-181q0 -26 8.5 -38.5t27.5 -14.5l69 -7v-144h-112q-71 0 -111.5 19zM79 -115h292v-114h-292v114z" />
    <glyph glyph-name="u" unicode="u" horiz-adv-x="600" 
d="M82 38q-40 44 -40 118v383h194v-322q0 -29 13.5 -40.5t39.5 -11.5q16 0 39 9t34 22v343h194v-539h-162l-32 52q-92 -58 -170 -58q-70 0 -110 44z" />
    <glyph glyph-name="uacute" unicode="&#xfa;" horiz-adv-x="600" 
d="M82 38q-40 44 -40 118v383h194v-322q0 -29 13.5 -40.5t39.5 -11.5q16 0 39 9t34 22v343h194v-539h-162l-32 52q-92 -58 -170 -58q-70 0 -110 44zM316 774h154l-108 -143h-114z" />
    <glyph glyph-name="ubreve" unicode="&#x16d;" horiz-adv-x="600" 
d="M82 38q-40 44 -40 118v383h194v-322q0 -29 13.5 -40.5t39.5 -11.5q16 0 39 9t34 22v343h194v-539h-162l-32 52q-92 -58 -170 -58q-70 0 -110 44zM183.5 659.5q-36.5 39.5 -36.5 117.5h89q0 -37 16 -53.5t39 -16.5q55 0 55 70h91q0 -157 -146 -157q-71 0 -107.5 39.5z" />
    <glyph glyph-name="ucircumflex" unicode="&#xfb;" horiz-adv-x="600" 
d="M82 38q-40 44 -40 118v383h194v-322q0 -29 13.5 -40.5t39.5 -11.5q16 0 39 9t34 22v343h194v-539h-162l-32 52q-92 -58 -170 -58q-70 0 -110 44zM236 777h131l91 -146h-111l-49 61l-50 -61h-112z" />
    <glyph glyph-name="uni0215" unicode="&#x215;" horiz-adv-x="600" 
d="M82 38q-40 44 -40 118v383h194v-322q0 -29 13.5 -40.5t39.5 -11.5q16 0 39 9t34 22v343h194v-539h-162l-32 52q-92 -58 -170 -58q-70 0 -110 44zM49 774h154l68 -143h-114zM249 774h154l68 -143h-114z" />
    <glyph glyph-name="udieresis" unicode="&#xfc;" horiz-adv-x="600" 
d="M82 38q-40 44 -40 118v383h194v-322q0 -29 13.5 -40.5t39.5 -11.5q16 0 39 9t34 22v343h194v-539h-162l-32 52q-92 -58 -170 -58q-70 0 -110 44zM131.5 633.5q-6.5 6.5 -6.5 16.5v111q0 12 6 18.5t18 6.5h90q11 0 17 -7t6 -18v-111q0 -11 -6 -17t-17 -6h-90
q-11 0 -17.5 6.5zM328.5 633.5q-6.5 6.5 -6.5 16.5v111q0 12 6 18.5t18 6.5h90q11 0 17 -7t6 -18v-111q0 -11 -6 -17t-17 -6h-90q-11 0 -17.5 6.5z" />
    <glyph glyph-name="uni1EE5" unicode="&#x1ee5;" horiz-adv-x="600" 
d="M82 38q-40 44 -40 118v383h194v-322q0 -29 13.5 -40.5t39.5 -11.5q16 0 39 9t34 22v343h194v-539h-162l-32 52q-92 -58 -170 -58q-70 0 -110 44zM230.5 -229.5q-6.5 6.5 -6.5 16.5v111q0 12 6 18.5t18 6.5h90q11 0 17 -7t6 -18v-111q0 -11 -6 -17t-17 -6h-90
q-11 0 -17.5 6.5z" />
    <glyph glyph-name="ugrave" unicode="&#xf9;" horiz-adv-x="600" 
d="M82 38q-40 44 -40 118v383h194v-322q0 -29 13.5 -40.5t39.5 -11.5q16 0 39 9t34 22v343h194v-539h-162l-32 52q-92 -58 -170 -58q-70 0 -110 44zM158 774h154l68 -143h-114z" />
    <glyph glyph-name="uni1EE7" unicode="&#x1ee7;" horiz-adv-x="600" 
d="M82 38q-40 44 -40 118v383h194v-322q0 -29 13.5 -40.5t39.5 -11.5q16 0 39 9t34 22v343h194v-539h-162l-32 52q-92 -58 -170 -58q-70 0 -110 44zM264 672q29 8 29 28q0 16 -24 16q-10 0 -30 -6v74q27 9 56 9q49 0 73.5 -22t24.5 -64q0 -45 -30 -72t-99 -47v84z" />
    <glyph glyph-name="uhorn" unicode="&#x1b0;" horiz-adv-x="600" 
d="M618.5 527q-21.5 -49 -62.5 -72v-455h-162l-32 52q-92 -58 -170 -58q-70 0 -110 44t-40 118v383h194v-322q0 -29 13.5 -40.5t39.5 -11.5q16 0 39 9t34 22v343h79q34 0 50.5 24.5t16.5 83.5h132q0 -71 -21.5 -120z" />
    <glyph glyph-name="uni1EE9" unicode="&#x1ee9;" horiz-adv-x="600" 
d="M618.5 527q-21.5 -49 -62.5 -72v-455h-162l-32 52q-92 -58 -170 -58q-70 0 -110 44t-40 118v383h194v-322q0 -29 13.5 -40.5t39.5 -11.5q16 0 39 9t34 22v343h79q34 0 50.5 24.5t16.5 83.5h132q0 -71 -21.5 -120zM299 774h154l-108 -143h-114z" />
    <glyph glyph-name="uni1EF1" unicode="&#x1ef1;" horiz-adv-x="600" 
d="M618.5 527q-21.5 -49 -62.5 -72v-455h-162l-32 52q-92 -58 -170 -58q-70 0 -110 44t-40 118v383h194v-322q0 -29 13.5 -40.5t39.5 -11.5q16 0 39 9t34 22v343h79q34 0 50.5 24.5t16.5 83.5h132q0 -71 -21.5 -120zM215.5 -229.5q-6.5 6.5 -6.5 16.5v111q0 12 6 18.5
t18 6.5h90q11 0 17 -7t6 -18v-111q0 -11 -6 -17t-17 -6h-90q-11 0 -17.5 6.5z" />
    <glyph glyph-name="uni1EEB" unicode="&#x1eeb;" horiz-adv-x="600" 
d="M618.5 527q-21.5 -49 -62.5 -72v-455h-162l-32 52q-92 -58 -170 -58q-70 0 -110 44t-40 118v383h194v-322q0 -29 13.5 -40.5t39.5 -11.5q16 0 39 9t34 22v343h79q34 0 50.5 24.5t16.5 83.5h132q0 -71 -21.5 -120zM131 774h154l68 -143h-114z" />
    <glyph glyph-name="uni1EED" unicode="&#x1eed;" horiz-adv-x="600" 
d="M618.5 527q-21.5 -49 -62.5 -72v-455h-162l-32 52q-92 -58 -170 -58q-70 0 -110 44t-40 118v383h194v-322q0 -29 13.5 -40.5t39.5 -11.5q16 0 39 9t34 22v343h79q34 0 50.5 24.5t16.5 83.5h132q0 -71 -21.5 -120zM264 672q29 8 29 28q0 16 -24 16q-10 0 -30 -6v74
q27 9 56 9q49 0 73.5 -22t24.5 -64q0 -45 -30 -72t-99 -47v84z" />
    <glyph glyph-name="uni1EEF" unicode="&#x1eef;" horiz-adv-x="600" 
d="M618.5 527q-21.5 -49 -62.5 -72v-455h-162l-32 52q-92 -58 -170 -58q-70 0 -110 44t-40 118v383h194v-322q0 -29 13.5 -40.5t39.5 -11.5q16 0 39 9t34 22v343h79q34 0 50.5 24.5t16.5 83.5h132q0 -71 -21.5 -120zM147.5 727.5q29.5 34.5 76.5 34.5q26 0 45.5 -6t40.5 -16
q17 -8 29 -11.5t25 -3.5q28 0 31 44h96q-7 -150 -108 -150q-25 0 -46.5 6t-44.5 17q-3 1 -19.5 7.5t-30.5 6.5q-27 0 -33 -39h-96q5 76 34.5 110.5z" />
    <glyph glyph-name="uhungarumlaut" unicode="&#x171;" horiz-adv-x="600" 
d="M82 38q-40 44 -40 118v383h194v-322q0 -29 13.5 -40.5t39.5 -11.5q16 0 39 9t34 22v343h194v-539h-162l-32 52q-92 -58 -170 -58q-70 0 -110 44zM206 774h144l-88 -143h-114zM379 774h144l-88 -143h-114z" />
    <glyph glyph-name="uni0217" unicode="&#x217;" horiz-adv-x="600" 
d="M82 38q-40 44 -40 118v383h194v-322q0 -29 13.5 -40.5t39.5 -11.5q16 0 39 9t34 22v343h194v-539h-162l-32 52q-92 -58 -170 -58q-70 0 -110 44zM410.5 740.5q36.5 -39.5 36.5 -117.5h-89q0 37 -16 53.5t-39 16.5q-55 0 -55 -70h-91q0 157 146 157q71 0 107.5 -39.5z" />
    <glyph glyph-name="umacron" unicode="&#x16b;" horiz-adv-x="600" 
d="M82 38q-40 44 -40 118v383h194v-322q0 -29 13.5 -40.5t39.5 -11.5q16 0 39 9t34 22v343h194v-539h-162l-32 52q-92 -58 -170 -58q-70 0 -110 44zM147 745h292v-114h-292v114z" />
    <glyph glyph-name="uni1E7B" unicode="&#x1e7b;" horiz-adv-x="600" 
d="M82 38q-40 44 -40 118v383h194v-322q0 -29 13.5 -40.5t39.5 -11.5q16 0 39 9t34 22v343h194v-539h-162l-32 52q-92 -58 -170 -58q-70 0 -110 44zM147 745h292v-114h-292v114zM131.5 793.5q-6.5 6.5 -6.5 16.5v111q0 12 6 18.5t18 6.5h90q11 0 17 -7t6 -18v-111
q0 -11 -6 -17t-17 -6h-90q-11 0 -17.5 6.5zM328.5 793.5q-6.5 6.5 -6.5 16.5v111q0 12 6 18.5t18 6.5h90q11 0 17 -7t6 -18v-111q0 -11 -6 -17t-17 -6h-90q-11 0 -17.5 6.5z" />
    <glyph glyph-name="uogonek" unicode="&#x173;" horiz-adv-x="600" 
d="M569 -101v-90q-10 -5 -36 -5q-56 0 -81.5 27.5t-25.5 64.5q0 36 16.5 62t44.5 42h-93l-32 52q-92 -58 -170 -58q-70 0 -110 44t-40 118v383h194v-322q0 -29 13.5 -40.5t39.5 -11.5q16 0 39 9t34 22v343h194v-539q-22 -15 -30.5 -28.5t-8.5 -30.5q0 -19 12.5 -30.5
t29.5 -11.5h10z" />
    <glyph glyph-name="uring" unicode="&#x16f;" horiz-adv-x="600" 
d="M82 38q-40 44 -40 118v383h194v-322q0 -29 13.5 -40.5t39.5 -11.5q16 0 39 9t34 22v343h194v-539h-162l-32 52q-92 -58 -170 -58q-70 0 -110 44zM199.5 606.5q-32.5 26.5 -32.5 90.5t33 91t99 27q67 0 99 -27t32 -91t-32 -90.5t-99 -26.5t-99.5 26.5zM332 659.5
q10 10.5 10 37.5t-10 38t-33 11t-33.5 -11t-10.5 -38q0 -26 10.5 -37t33.5 -11t33 10.5z" />
    <glyph glyph-name="utilde" unicode="&#x169;" horiz-adv-x="600" 
d="M82 38q-40 44 -40 118v383h194v-322q0 -29 13.5 -40.5t39.5 -11.5q16 0 39 9t34 22v343h194v-539h-162l-32 52q-92 -58 -170 -58q-70 0 -110 44zM144.5 727.5q29.5 34.5 76.5 34.5q26 0 45.5 -6t40.5 -16q17 -8 29 -11.5t25 -3.5q28 0 31 44h96q-7 -150 -108 -150
q-25 0 -46.5 6t-44.5 17q-3 1 -19.5 7.5t-30.5 6.5q-27 0 -33 -39h-96q5 76 34.5 110.5z" />
    <glyph glyph-name="uni1E79" unicode="&#x1e79;" horiz-adv-x="600" 
d="M82 38q-40 44 -40 118v383h194v-322q0 -29 13.5 -40.5t39.5 -11.5q16 0 39 9t34 22v343h194v-539h-162l-32 52q-92 -58 -170 -58q-70 0 -110 44zM144.5 727.5q29.5 34.5 76.5 34.5q26 0 45.5 -6t40.5 -16q17 -8 29 -11.5t25 -3.5q28 0 31 44h96q-7 -150 -108 -150
q-25 0 -46.5 6t-44.5 17q-3 1 -19.5 7.5t-30.5 6.5q-27 0 -33 -39h-96q5 76 34.5 110.5zM306 934h154l-108 -143h-114z" />
    <glyph glyph-name="v" unicode="v" horiz-adv-x="582" 
d="M8 539h200l82 -360l86 360h198l-176 -539h-224z" />
    <glyph glyph-name="w" unicode="w" horiz-adv-x="845" 
d="M8 539h200l55 -360l86 360h158l86 -360l44 360h200l-126 -539h-214l-73 261l-77 -261h-210z" />
    <glyph glyph-name="wacute" unicode="&#x1e83;" horiz-adv-x="845" 
d="M8 539h200l55 -360l86 360h158l86 -360l44 360h200l-126 -539h-214l-73 261l-77 -261h-210zM447 774h154l-108 -143h-114z" />
    <glyph glyph-name="wcircumflex" unicode="&#x175;" horiz-adv-x="845" 
d="M8 539h200l55 -360l86 360h158l86 -360l44 360h200l-126 -539h-214l-73 261l-77 -261h-210zM367 777h131l91 -146h-111l-49 61l-50 -61h-112z" />
    <glyph glyph-name="wdieresis" unicode="&#x1e85;" horiz-adv-x="845" 
d="M8 539h200l55 -360l86 360h158l86 -360l44 360h200l-126 -539h-214l-73 261l-77 -261h-210zM262.5 633.5q-6.5 6.5 -6.5 16.5v111q0 12 6 18.5t18 6.5h90q11 0 17 -7t6 -18v-111q0 -11 -6 -17t-17 -6h-90q-11 0 -17.5 6.5zM459.5 633.5q-6.5 6.5 -6.5 16.5v111
q0 12 6 18.5t18 6.5h90q11 0 17 -7t6 -18v-111q0 -11 -6 -17t-17 -6h-90q-11 0 -17.5 6.5z" />
    <glyph glyph-name="wgrave" unicode="&#x1e81;" horiz-adv-x="845" 
d="M8 539h200l55 -360l86 360h158l86 -360l44 360h200l-126 -539h-214l-73 261l-77 -261h-210zM289 774h154l68 -143h-114z" />
    <glyph glyph-name="x" unicode="x" horiz-adv-x="564" 
d="M386 259l178 -259h-195l-94 137l-79 -137h-196l178 279l-178 260h195l94 -138l79 138h196z" />
    <glyph glyph-name="y" unicode="y" horiz-adv-x="587" 
d="M280 0q-156 0 -189 156l-83 383h201l61 -344q6 -37 43 -39l69 383h197l-137 -677l-50 -99h-164z" />
    <glyph glyph-name="yacute" unicode="&#xfd;" horiz-adv-x="587" 
d="M280 0q-156 0 -189 156l-83 383h201l61 -344q6 -37 43 -39l69 383h197l-137 -677l-50 -99h-164zM298 774h154l-108 -143h-114z" />
    <glyph glyph-name="ycircumflex" unicode="&#x177;" horiz-adv-x="587" 
d="M280 0q-156 0 -189 156l-83 383h201l61 -344q6 -37 43 -39l69 383h197l-137 -677l-50 -99h-164zM218 777h131l91 -146h-111l-49 61l-50 -61h-112z" />
    <glyph glyph-name="ydieresis" unicode="&#xff;" horiz-adv-x="587" 
d="M280 0q-156 0 -189 156l-83 383h201l61 -344q6 -37 43 -39l69 383h197l-137 -677l-50 -99h-164zM113.5 633.5q-6.5 6.5 -6.5 16.5v111q0 12 6 18.5t18 6.5h90q11 0 17 -7t6 -18v-111q0 -11 -6 -17t-17 -6h-90q-11 0 -17.5 6.5zM310.5 633.5q-6.5 6.5 -6.5 16.5v111
q0 12 6 18.5t18 6.5h90q11 0 17 -7t6 -18v-111q0 -11 -6 -17t-17 -6h-90q-11 0 -17.5 6.5z" />
    <glyph glyph-name="uni1E8F" unicode="&#x1e8f;" horiz-adv-x="587" 
d="M280 0q-156 0 -189 156l-83 383h201l61 -344q6 -37 43 -39l69 383h197l-137 -677l-50 -99h-164zM492.5 -229.5q-6.5 6.5 -6.5 16.5v111q0 12 6 18.5t18 6.5h90q11 0 17 -7t6 -18v-111q0 -11 -6 -17t-17 -6h-90q-11 0 -17.5 6.5z" />
    <glyph glyph-name="uni1EF5" unicode="&#x1ef5;" horiz-adv-x="587" 
d="M280 0q-156 0 -189 156l-83 383h201l61 -344q6 -37 43 -39l69 383h197l-137 -677l-50 -99h-164zM492.5 -229.5q-6.5 6.5 -6.5 16.5v111q0 12 6 18.5t18 6.5h90q11 0 17 -7t6 -18v-111q0 -11 -6 -17t-17 -6h-90q-11 0 -17.5 6.5z" />
    <glyph glyph-name="ygrave" unicode="&#x1ef3;" horiz-adv-x="587" 
d="M280 0q-156 0 -189 156l-83 383h201l61 -344q6 -37 43 -39l69 383h197l-137 -677l-50 -99h-164zM140 774h154l68 -143h-114z" />
    <glyph glyph-name="uni1EF7" unicode="&#x1ef7;" horiz-adv-x="587" 
d="M280 0q-156 0 -189 156l-83 383h201l61 -344q6 -37 43 -39l69 383h197l-137 -677l-50 -99h-164zM246 672q29 8 29 28q0 16 -24 16q-10 0 -30 -6v74q27 9 56 9q49 0 73.5 -22t24.5 -64q0 -45 -30 -72t-99 -47v84z" />
    <glyph glyph-name="uni0233" unicode="&#x233;" horiz-adv-x="587" 
d="M280 0q-156 0 -189 156l-83 383h201l61 -344q6 -37 43 -39l69 383h197l-137 -677l-50 -99h-164zM129 745h292v-114h-292v114z" />
    <glyph glyph-name="uni1EF9" unicode="&#x1ef9;" horiz-adv-x="587" 
d="M280 0q-156 0 -189 156l-83 383h201l61 -344q6 -37 43 -39l69 383h197l-137 -677l-50 -99h-164zM126.5 727.5q29.5 34.5 76.5 34.5q26 0 45.5 -6t40.5 -16q17 -8 29 -11.5t25 -3.5q28 0 31 44h96q-7 -150 -108 -150q-25 0 -46.5 6t-44.5 17q-3 1 -19.5 7.5t-30.5 6.5
q-27 0 -33 -39h-96q5 76 34.5 110.5z" />
    <glyph glyph-name="z" unicode="z" horiz-adv-x="512" 
d="M41 138l217 247h-228v154h452v-138l-217 -247h217v-154h-441v138z" />
    <glyph glyph-name="zacute" unicode="&#x17a;" horiz-adv-x="512" 
d="M41 138l217 247h-228v154h452v-138l-217 -247h217v-154h-441v138zM268 774h154l-108 -143h-114z" />
    <glyph glyph-name="zcaron" unicode="&#x17e;" horiz-adv-x="512" 
d="M41 138l217 247h-228v154h452v-138l-217 -247h217v-154h-441v138zM90 777h111l49 -61l50 61h112l-100 -146h-131z" />
    <glyph glyph-name="zdotaccent" unicode="&#x17c;" horiz-adv-x="512" 
d="M41 138l217 247h-228v154h452v-138l-217 -247h217v-154h-441v138zM185.5 640.5q-6.5 6.5 -6.5 16.5v111q0 12 6 18.5t18 6.5h90q11 0 17 -7t6 -18v-111q0 -11 -6 -17t-17 -6h-90q-11 0 -17.5 6.5z" />
    <glyph glyph-name="uni1E93" unicode="&#x1e93;" horiz-adv-x="512" 
d="M41 138l217 247h-228v154h452v-138l-217 -247h217v-154h-441v138zM182.5 -229.5q-6.5 6.5 -6.5 16.5v111q0 12 6 18.5t18 6.5h90q11 0 17 -7t6 -18v-111q0 -11 -6 -17t-17 -6h-90q-11 0 -17.5 6.5z" />
    <glyph glyph-name="a.salt" horiz-adv-x="542" 
d="M72 287.5q46 38.5 138 38.5h108v17q0 22 -7 32.5t-28.5 15t-67.5 4.5h-157v111q47 18 102 28.5t128 10.5q111 0 167.5 -40.5t56.5 -147.5v-290q-47 -31 -120 -52t-147 -21h-29q-94 0 -142 36t-48 101v55q0 63 46 101.5zM294 130q15 4 24 9v97l-41 -6q-29 -4 -43 -15
t-14 -32v-20q0 -20 12 -28.5t35 -8.5q12 0 27 4z" />
    <glyph glyph-name="aacute.salt" horiz-adv-x="542" 
d="M72 287.5q46 38.5 138 38.5h108v17q0 22 -7 32.5t-28.5 15t-67.5 4.5h-157v111q47 18 102 28.5t128 10.5q111 0 167.5 -40.5t56.5 -147.5v-290q-47 -31 -120 -52t-147 -21h-29q-94 0 -142 36t-48 101v55q0 63 46 101.5zM294 130q15 4 24 9v97l-41 -6q-29 -4 -43 -15
t-14 -32v-20q0 -20 12 -28.5t35 -8.5q12 0 27 4zM288 774h154l-108 -143h-114z" />
    <glyph glyph-name="abreve.salt" horiz-adv-x="542" 
d="M72 287.5q46 38.5 138 38.5h108v17q0 22 -7 32.5t-28.5 15t-67.5 4.5h-157v111q47 18 102 28.5t128 10.5q111 0 167.5 -40.5t56.5 -147.5v-290q-47 -31 -120 -52t-147 -21h-29q-94 0 -142 36t-48 101v55q0 63 46 101.5zM294 130q15 4 24 9v97l-41 -6q-29 -4 -43 -15
t-14 -32v-20q0 -20 12 -28.5t35 -8.5q12 0 27 4zM155.5 659.5q-36.5 39.5 -36.5 117.5h89q0 -37 16 -53.5t39 -16.5q55 0 55 70h91q0 -157 -146 -157q-71 0 -107.5 39.5z" />
    <glyph glyph-name="uni1EAF.salt" horiz-adv-x="542" 
d="M72 287.5q46 38.5 138 38.5h108v17q0 22 -7 32.5t-28.5 15t-67.5 4.5h-157v111q47 18 102 28.5t128 10.5q111 0 167.5 -40.5t56.5 -147.5v-290q-47 -31 -120 -52t-147 -21h-29q-94 0 -142 36t-48 101v55q0 63 46 101.5zM294 130q15 4 24 9v97l-41 -6q-29 -4 -43 -15
t-14 -32v-20q0 -20 12 -28.5t35 -8.5q12 0 27 4zM278 904h154l-108 -143h-114zM223.5 688.5q15.5 -11.5 39.5 -11.5q55 0 55 50h91q0 -127 -146 -127q-71 0 -107.5 32t-36.5 95h89q0 -27 15.5 -38.5z" />
    <glyph glyph-name="uni1EB7.salt" horiz-adv-x="542" 
d="M72 287.5q46 38.5 138 38.5h108v17q0 22 -7 32.5t-28.5 15t-67.5 4.5h-157v111q47 18 102 28.5t128 10.5q111 0 167.5 -40.5t56.5 -147.5v-290q-47 -31 -120 -52t-147 -21h-29q-94 0 -142 36t-48 101v55q0 63 46 101.5zM294 130q15 4 24 9v97l-41 -6q-29 -4 -43 -15
t-14 -32v-20q0 -20 12 -28.5t35 -8.5q12 0 27 4zM155.5 659.5q-36.5 39.5 -36.5 117.5h89q0 -37 16 -53.5t39 -16.5q55 0 55 70h91q0 -157 -146 -157q-71 0 -107.5 39.5zM202.5 -229.5q-6.5 6.5 -6.5 16.5v111q0 12 6 18.5t18 6.5h90q11 0 17 -7t6 -18v-111q0 -11 -6 -17
t-17 -6h-90q-11 0 -17.5 6.5z" />
    <glyph glyph-name="uni1EB1.salt" horiz-adv-x="542" 
d="M72 287.5q46 38.5 138 38.5h108v17q0 22 -7 32.5t-28.5 15t-67.5 4.5h-157v111q47 18 102 28.5t128 10.5q111 0 167.5 -40.5t56.5 -147.5v-290q-47 -31 -120 -52t-147 -21h-29q-94 0 -142 36t-48 101v55q0 63 46 101.5zM294 130q15 4 24 9v97l-41 -6q-29 -4 -43 -15
t-14 -32v-20q0 -20 12 -28.5t35 -8.5q12 0 27 4zM100 904h154l68 -143h-114zM223.5 688.5q15.5 -11.5 39.5 -11.5q55 0 55 50h91q0 -127 -146 -127q-71 0 -107.5 32t-36.5 95h89q0 -27 15.5 -38.5z" />
    <glyph glyph-name="uni1EB3.salt" horiz-adv-x="542" 
d="M72 287.5q46 38.5 138 38.5h108v17q0 22 -7 32.5t-28.5 15t-67.5 4.5h-157v111q47 18 102 28.5t128 10.5q111 0 167.5 -40.5t56.5 -147.5v-290q-47 -31 -120 -52t-147 -21h-29q-94 0 -142 36t-48 101v55q0 63 46 101.5zM294 130q15 4 24 9v97l-41 -6q-29 -4 -43 -15
t-14 -32v-20q0 -20 12 -28.5t35 -8.5q12 0 27 4zM239 802q29 8 29 28q0 16 -24 16q-10 0 -30 -6v74q27 9 56 9q49 0 73.5 -22t24.5 -64q0 -45 -30 -72t-99 -47v84zM155.5 632q-36.5 32 -36.5 95h89q0 -27 15.5 -38.5t39.5 -11.5q55 0 55 50h91q0 -127 -146 -127
q-71 0 -107.5 32z" />
    <glyph glyph-name="uni1EB5.salt" horiz-adv-x="542" 
d="M72 287.5q46 38.5 138 38.5h108v17q0 22 -7 32.5t-28.5 15t-67.5 4.5h-157v111q47 18 102 28.5t128 10.5q111 0 167.5 -40.5t56.5 -147.5v-290q-47 -31 -120 -52t-147 -21h-29q-94 0 -142 36t-48 101v55q0 63 46 101.5zM294 130q15 4 24 9v97l-41 -6q-29 -4 -43 -15
t-14 -32v-20q0 -20 12 -28.5t35 -8.5q12 0 27 4zM258 866q28 -8 37 -8q29 0 29 26h96q-4 -47 -14.5 -72.5t-28 -35t-45.5 -9.5q-21 0 -43.5 5.5t-26.5 6.5q-24 7 -33 7q-14 0 -21.5 -6.5t-9.5 -14.5h-96q6 67 28 89.5t63 22.5q23 0 65 -11zM223.5 688.5
q15.5 -11.5 39.5 -11.5q55 0 55 50h91q0 -127 -146 -127q-71 0 -107.5 32t-36.5 95h89q0 -27 15.5 -38.5z" />
    <glyph glyph-name="acircumflex.salt" horiz-adv-x="542" 
d="M72 287.5q46 38.5 138 38.5h108v17q0 22 -7 32.5t-28.5 15t-67.5 4.5h-157v111q47 18 102 28.5t128 10.5q111 0 167.5 -40.5t56.5 -147.5v-290q-47 -31 -120 -52t-147 -21h-29q-94 0 -142 36t-48 101v55q0 63 46 101.5zM294 130q15 4 24 9v97l-41 -6q-29 -4 -43 -15
t-14 -32v-20q0 -20 12 -28.5t35 -8.5q12 0 27 4zM208 777h131l91 -146h-111l-49 61l-50 -61h-112z" />
    <glyph glyph-name="uni1EA5.salt" horiz-adv-x="542" 
d="M72 287.5q46 38.5 138 38.5h108v17q0 22 -7 32.5t-28.5 15t-67.5 4.5h-157v111q47 18 102 28.5t128 10.5q111 0 167.5 -40.5t56.5 -147.5v-290q-47 -31 -120 -52t-147 -21h-29q-94 0 -142 36t-48 101v55q0 63 46 101.5zM294 130q15 4 24 9v97l-41 -6q-29 -4 -43 -15
t-14 -32v-20q0 -20 12 -28.5t35 -8.5q12 0 27 4zM542 844l-58 -123h-114l18 123h154zM339 747l91 -116h-111l-49 31l-50 -31h-112l100 116h131z" />
    <glyph glyph-name="uni1EAD.salt" horiz-adv-x="542" 
d="M72 287.5q46 38.5 138 38.5h108v17q0 22 -7 32.5t-28.5 15t-67.5 4.5h-157v111q47 18 102 28.5t128 10.5q111 0 167.5 -40.5t56.5 -147.5v-290q-47 -31 -120 -52t-147 -21h-29q-94 0 -142 36t-48 101v55q0 63 46 101.5zM294 130q15 4 24 9v97l-41 -6q-29 -4 -43 -15
t-14 -32v-20q0 -20 12 -28.5t35 -8.5q12 0 27 4zM208 777h131l91 -146h-111l-49 61l-50 -61h-112zM202.5 -229.5q-6.5 6.5 -6.5 16.5v111q0 12 6 18.5t18 6.5h90q11 0 17 -7t6 -18v-111q0 -11 -6 -17t-17 -6h-90q-11 0 -17.5 6.5z" />
    <glyph glyph-name="uni1EA7.salt" horiz-adv-x="542" 
d="M72 287.5q46 38.5 138 38.5h108v17q0 22 -7 32.5t-28.5 15t-67.5 4.5h-157v111q47 18 102 28.5t128 10.5q111 0 167.5 -40.5t56.5 -147.5v-290q-47 -31 -120 -52t-147 -21h-29q-94 0 -142 36t-48 101v55q0 63 46 101.5zM294 130q15 4 24 9v97l-41 -6q-29 -4 -43 -15
t-14 -32v-20q0 -20 12 -28.5t35 -8.5q12 0 27 4zM154 844l18 -123h-114l-58 123h154zM339 747l91 -116h-111l-49 31l-50 -31h-112l100 116h131z" />
    <glyph glyph-name="uni1EA9.salt" horiz-adv-x="542" 
d="M72 287.5q46 38.5 138 38.5h108v17q0 22 -7 32.5t-28.5 15t-67.5 4.5h-157v111q47 18 102 28.5t128 10.5q111 0 167.5 -40.5t56.5 -147.5v-290q-47 -31 -120 -52t-147 -21h-29q-94 0 -142 36t-48 101v55q0 63 46 101.5zM294 130q15 4 24 9v97l-41 -6q-29 -4 -43 -15
t-14 -32v-20q0 -20 12 -28.5t35 -8.5q12 0 27 4zM395 772q19 6 19 22q0 14 -14 14q-10 0 -30 -6v64q27 9 56 9q78 0 78 -68q0 -46 -26 -74.5t-83 -44.5v84zM208 747h131l91 -116h-111l-49 31l-50 -31h-112z" />
    <glyph glyph-name="uni1EAB.salt" horiz-adv-x="542" 
d="M72 287.5q46 38.5 138 38.5h108v17q0 22 -7 32.5t-28.5 15t-67.5 4.5h-157v111q47 18 102 28.5t128 10.5q111 0 167.5 -40.5t56.5 -147.5v-290q-47 -31 -120 -52t-147 -21h-29q-94 0 -142 36t-48 101v55q0 63 46 101.5zM294 130q15 4 24 9v97l-41 -6q-29 -4 -43 -15
t-14 -32v-20q0 -20 12 -28.5t35 -8.5q12 0 27 4zM225.5 893.5q16.5 -3.5 31.5 -7.5q28 -8 38 -8q29 0 29 26h96q-4 -47 -14.5 -72.5t-28 -35t-45.5 -9.5q-24 0 -48 5.5t-28 6.5q-28 7 -37 7q-16 0 -21 -21h-96q6 67 28 89.5t63 22.5q16 0 32.5 -3.5zM430 631h-111l-49 31
l-50 -31h-112l100 116h131z" />
    <glyph glyph-name="uni0201.salt" horiz-adv-x="542" 
d="M72 287.5q46 38.5 138 38.5h108v17q0 22 -7 32.5t-28.5 15t-67.5 4.5h-157v111q47 18 102 28.5t128 10.5q111 0 167.5 -40.5t56.5 -147.5v-290q-47 -31 -120 -52t-147 -21h-29q-94 0 -142 36t-48 101v55q0 63 46 101.5zM294 130q15 4 24 9v97l-41 -6q-29 -4 -43 -15
t-14 -32v-20q0 -20 12 -28.5t35 -8.5q12 0 27 4zM21 774h154l68 -143h-114zM221 774h154l68 -143h-114z" />
    <glyph glyph-name="adieresis.salt" horiz-adv-x="542" 
d="M72 287.5q46 38.5 138 38.5h108v17q0 22 -7 32.5t-28.5 15t-67.5 4.5h-157v111q47 18 102 28.5t128 10.5q111 0 167.5 -40.5t56.5 -147.5v-290q-47 -31 -120 -52t-147 -21h-29q-94 0 -142 36t-48 101v55q0 63 46 101.5zM294 130q15 4 24 9v97l-41 -6q-29 -4 -43 -15
t-14 -32v-20q0 -20 12 -28.5t35 -8.5q12 0 27 4zM103.5 633.5q-6.5 6.5 -6.5 16.5v111q0 12 6 18.5t18 6.5h90q11 0 17 -7t6 -18v-111q0 -11 -6 -17t-17 -6h-90q-11 0 -17.5 6.5zM300.5 633.5q-6.5 6.5 -6.5 16.5v111q0 12 6 18.5t18 6.5h90q11 0 17 -7t6 -18v-111
q0 -11 -6 -17t-17 -6h-90q-11 0 -17.5 6.5z" />
    <glyph glyph-name="uni1EA1.salt" horiz-adv-x="542" 
d="M72 287.5q46 38.5 138 38.5h108v17q0 22 -7 32.5t-28.5 15t-67.5 4.5h-157v111q47 18 102 28.5t128 10.5q111 0 167.5 -40.5t56.5 -147.5v-290q-47 -31 -120 -52t-147 -21h-29q-94 0 -142 36t-48 101v55q0 63 46 101.5zM294 130q15 4 24 9v97l-41 -6q-29 -4 -43 -15
t-14 -32v-20q0 -20 12 -28.5t35 -8.5q12 0 27 4zM202.5 -229.5q-6.5 6.5 -6.5 16.5v111q0 12 6 18.5t18 6.5h90q11 0 17 -7t6 -18v-111q0 -11 -6 -17t-17 -6h-90q-11 0 -17.5 6.5z" />
    <glyph glyph-name="agrave.salt" horiz-adv-x="542" 
d="M72 287.5q46 38.5 138 38.5h108v17q0 22 -7 32.5t-28.5 15t-67.5 4.5h-157v111q47 18 102 28.5t128 10.5q111 0 167.5 -40.5t56.5 -147.5v-290q-47 -31 -120 -52t-147 -21h-29q-94 0 -142 36t-48 101v55q0 63 46 101.5zM294 130q15 4 24 9v97l-41 -6q-29 -4 -43 -15
t-14 -32v-20q0 -20 12 -28.5t35 -8.5q12 0 27 4zM130 774h154l68 -143h-114z" />
    <glyph glyph-name="uni1EA3.salt" horiz-adv-x="542" 
d="M72 287.5q46 38.5 138 38.5h108v17q0 22 -7 32.5t-28.5 15t-67.5 4.5h-157v111q47 18 102 28.5t128 10.5q111 0 167.5 -40.5t56.5 -147.5v-290q-47 -31 -120 -52t-147 -21h-29q-94 0 -142 36t-48 101v55q0 63 46 101.5zM294 130q15 4 24 9v97l-41 -6q-29 -4 -43 -15
t-14 -32v-20q0 -20 12 -28.5t35 -8.5q12 0 27 4zM236 672q29 8 29 28q0 16 -24 16q-10 0 -30 -6v74q27 9 56 9q49 0 73.5 -22t24.5 -64q0 -45 -30 -72t-99 -47v84z" />
    <glyph glyph-name="uni0203.salt" horiz-adv-x="542" 
d="M72 287.5q46 38.5 138 38.5h108v17q0 22 -7 32.5t-28.5 15t-67.5 4.5h-157v111q47 18 102 28.5t128 10.5q111 0 167.5 -40.5t56.5 -147.5v-290q-47 -31 -120 -52t-147 -21h-29q-94 0 -142 36t-48 101v55q0 63 46 101.5zM294 130q15 4 24 9v97l-41 -6q-29 -4 -43 -15
t-14 -32v-20q0 -20 12 -28.5t35 -8.5q12 0 27 4zM382.5 740.5q36.5 -39.5 36.5 -117.5h-89q0 37 -16 53.5t-39 16.5q-55 0 -55 -70h-91q0 157 146 157q71 0 107.5 -39.5z" />
    <glyph glyph-name="amacron.salt" horiz-adv-x="542" 
d="M72 287.5q46 38.5 138 38.5h108v17q0 22 -7 32.5t-28.5 15t-67.5 4.5h-157v111q47 18 102 28.5t128 10.5q111 0 167.5 -40.5t56.5 -147.5v-290q-47 -31 -120 -52t-147 -21h-29q-94 0 -142 36t-48 101v55q0 63 46 101.5zM294 130q15 4 24 9v97l-41 -6q-29 -4 -43 -15
t-14 -32v-20q0 -20 12 -28.5t35 -8.5q12 0 27 4zM119 745h292v-114h-292v114z" />
    <glyph glyph-name="aogonek.salt" horiz-adv-x="542" 
d="M290.5 -28.5q-8.5 -13.5 -8.5 -30.5q0 -19 12.5 -30.5t29.5 -11.5h10v-90q-10 -5 -36 -5q-56 0 -81.5 27.5t-25.5 64.5q0 62 51 98h-26q-94 0 -142 36t-48 101v55q0 63 46 101.5t138 38.5h108v17q0 22 -7 32.5t-28.5 15t-67.5 4.5h-157v111q47 18 102 28.5t128 10.5
q111 0 167.5 -40.5t56.5 -147.5v-290q-34 -23 -84.5 -41t-106.5 -26q-22 -15 -30.5 -28.5zM232 134.5q12 -8.5 35 -8.5q12 0 27 4t24 9v97l-41 -6q-29 -4 -43 -15t-14 -32v-20q0 -20 12 -28.5z" />
    <glyph glyph-name="aring.salt" horiz-adv-x="542" 
d="M72 287.5q46 38.5 138 38.5h108v17q0 22 -7 32.5t-28.5 15t-67.5 4.5h-157v111q47 18 102 28.5t128 10.5q111 0 167.5 -40.5t56.5 -147.5v-290q-47 -31 -120 -52t-147 -21h-29q-94 0 -142 36t-48 101v55q0 63 46 101.5zM294 130q15 4 24 9v97l-41 -6q-29 -4 -43 -15
t-14 -32v-20q0 -20 12 -28.5t35 -8.5q12 0 27 4zM171.5 606.5q-32.5 26.5 -32.5 90.5t33 91t99 27q67 0 99 -27t32 -91t-32 -90.5t-99 -26.5t-99.5 26.5zM304 659.5q10 10.5 10 37.5t-10 38t-33 11t-33.5 -11t-10.5 -38q0 -26 10.5 -37t33.5 -11t33 10.5z" />
    <glyph glyph-name="aringacute.salt" horiz-adv-x="542" 
d="M171.5 606.5q-32.5 26.5 -32.5 90.5q0 53 23 80.5t69 34.5l58 122h154l-99 -131q58 -23 58 -106q0 -64 -32 -90.5t-99 -26.5t-99.5 26.5zM304 659.5q10 10.5 10 37.5t-10 38t-33 11t-33.5 -11t-10.5 -38q0 -26 10.5 -37t33.5 -11t33 10.5zM455.5 504.5
q56.5 -40.5 56.5 -147.5v-290q-47 -31 -120 -52t-147 -21h-29q-94 0 -142 36t-48 101v55q0 63 46 101.5t138 38.5h108v17q0 22 -7 32.5t-28.5 15t-67.5 4.5h-157v111q47 18 102 28.5t128 10.5q111 0 167.5 -40.5zM318 236l-41 -6q-29 -4 -43 -15t-14 -32v-20q0 -20 12 -28.5
t35 -8.5q12 0 27 4t24 9v97z" />
    <glyph glyph-name="atilde.salt" horiz-adv-x="542" 
d="M72 287.5q46 38.5 138 38.5h108v17q0 22 -7 32.5t-28.5 15t-67.5 4.5h-157v111q47 18 102 28.5t128 10.5q111 0 167.5 -40.5t56.5 -147.5v-290q-47 -31 -120 -52t-147 -21h-29q-94 0 -142 36t-48 101v55q0 63 46 101.5zM294 130q15 4 24 9v97l-41 -6q-29 -4 -43 -15
t-14 -32v-20q0 -20 12 -28.5t35 -8.5q12 0 27 4zM116.5 727.5q29.5 34.5 76.5 34.5q26 0 45.5 -6t40.5 -16q17 -8 29 -11.5t25 -3.5q28 0 31 44h96q-7 -150 -108 -150q-25 0 -46.5 6t-44.5 17q-3 1 -19.5 7.5t-30.5 6.5q-27 0 -33 -39h-96q5 76 34.5 110.5z" />
    <glyph glyph-name="b.salt" horiz-adv-x="580" 
d="M168.5 6.5q-67.5 12.5 -124.5 33.5v723h194v-254q72 39 129 39q68 0 108 -29.5t57.5 -91.5t17.5 -164q0 -142 -62 -205.5t-195 -63.5q-57 0 -124.5 12.5zM289 151q31 0 49 24t18 98q0 75 -16.5 97.5t-40.5 22.5q-17 0 -34.5 -6.5t-26.5 -13.5v-217q18 -5 51 -5z" />
    <glyph glyph-name="uni1E03.salt" horiz-adv-x="580" 
d="M168.5 6.5q-67.5 12.5 -124.5 33.5v723h194v-254q72 39 129 39q68 0 108 -29.5t57.5 -91.5t17.5 -164q0 -142 -62 -205.5t-195 -63.5q-57 0 -124.5 12.5zM289 151q31 0 49 24t18 98q0 75 -16.5 97.5t-40.5 22.5q-17 0 -34.5 -6.5t-26.5 -13.5v-217q18 -5 51 -5z
M76.5 840.5q-6.5 6.5 -6.5 16.5v111q0 12 6 18.5t18 6.5h90q11 0 17 -7t6 -18v-111q0 -11 -6 -17t-17 -6h-90q-11 0 -17.5 6.5z" />
    <glyph glyph-name="d.salt" horiz-adv-x="578" 
d="M133 19.5q-53 25.5 -78 84t-25 159.5q0 103 18 164.5t62 91t122 29.5q51 0 110 -21v236h194v-694q-42 -30 -115 -52.5t-145 -22.5q-90 0 -143 25.5zM342 169v218q-7 7 -20 12t-26 5q-28 0 -43 -9.5t-22 -37.5t-7 -84q0 -54 6.5 -80.5t19.5 -35t38 -8.5q29 0 54 20z" />
    <glyph glyph-name="dcaron.salt" horiz-adv-x="578" 
d="M133 19.5q-53 25.5 -78 84t-25 159.5q0 103 18 164.5t62 91t122 29.5q51 0 110 -21v236h194v-694q-42 -30 -115 -52.5t-145 -22.5q-90 0 -143 25.5zM342 169v218q-7 7 -20 12t-26 5q-28 0 -43 -9.5t-22 -37.5t-7 -84q0 -54 6.5 -80.5t19.5 -35t38 -8.5q29 0 54 20z
M577 716v67h175v-67l-10 -134h-154z" />
    <glyph glyph-name="dcroat.salt" horiz-adv-x="578" 
d="M588 606h-52v-537q-42 -30 -115 -52.5t-145 -22.5q-90 0 -143 25.5t-78 84t-25 159.5q0 103 18 164.5t62 91t122 29.5q51 0 110 -21v79h-102v74h102v83h194v-83h52v-74zM342 387q-7 7 -20 12t-26 5q-28 0 -43 -9.5t-22 -37.5t-7 -84q0 -54 6.5 -80.5t19.5 -35t38 -8.5
q29 0 54 20v218z" />
    <glyph glyph-name="uni1E0B.salt" horiz-adv-x="578" 
d="M133 19.5q-53 25.5 -78 84t-25 159.5q0 103 18 164.5t62 91t122 29.5q51 0 110 -21v236h194v-694q-42 -30 -115 -52.5t-145 -22.5q-90 0 -143 25.5zM342 169v218q-7 7 -20 12t-26 5q-28 0 -43 -9.5t-22 -37.5t-7 -84q0 -54 6.5 -80.5t19.5 -35t38 -8.5q29 0 54 20z
M374.5 840.5q-6.5 6.5 -6.5 16.5v111q0 12 6 18.5t18 6.5h90q11 0 17 -7t6 -18v-111q0 -11 -6 -17t-17 -6h-90q-11 0 -17.5 6.5z" />
    <glyph glyph-name="uni1E0D.salt" horiz-adv-x="578" 
d="M133 19.5q-53 25.5 -78 84t-25 159.5q0 103 18 164.5t62 91t122 29.5q51 0 110 -21v236h194v-694q-42 -30 -115 -52.5t-145 -22.5q-90 0 -143 25.5zM342 169v218q-7 7 -20 12t-26 5q-28 0 -43 -9.5t-22 -37.5t-7 -84q0 -54 6.5 -80.5t19.5 -35t38 -8.5q29 0 54 20z
M202.5 -229.5q-6.5 6.5 -6.5 16.5v111q0 12 6 18.5t18 6.5h90q11 0 17 -7t6 -18v-111q0 -11 -6 -17t-17 -6h-90q-11 0 -17.5 6.5z" />
    <glyph glyph-name="uni1E0F.salt" horiz-adv-x="578" 
d="M133 19.5q-53 25.5 -78 84t-25 159.5q0 103 18 164.5t62 91t122 29.5q51 0 110 -21v236h194v-694q-42 -30 -115 -52.5t-145 -22.5q-90 0 -143 25.5zM342 169v218q-7 7 -20 12t-26 5q-28 0 -43 -9.5t-22 -37.5t-7 -84q0 -54 6.5 -80.5t19.5 -35t38 -8.5q29 0 54 20z
M129 -115h292v-114h-292v114z" />
    <glyph glyph-name="f.salt" horiz-adv-x="374" 
d="M88.5 720q46.5 49 148.5 49q32 0 64 -5.5t53 -12.5v-139h-77q-22 0 -31.5 -9.5t-9.5 -33.5v-30h108v-154h-108v-385h-194v558q0 113 46.5 162z" />
    <glyph glyph-name="uni1E1F.salt" horiz-adv-x="374" 
d="M88.5 720q46.5 49 148.5 49q32 0 64 -5.5t53 -12.5v-139h-77q-22 0 -31.5 -9.5t-9.5 -33.5v-30h108v-154h-108v-385h-194v558q0 113 46.5 162zM165.5 870.5q-6.5 6.5 -6.5 16.5v111q0 12 6 18.5t18 6.5h90q11 0 17 -7t6 -18v-111q0 -11 -6 -17t-17 -6h-90
q-11 0 -17.5 6.5z" />
    <glyph glyph-name="g.salt" horiz-adv-x="578" 
d="M408.5 541q56.5 -7 127.5 -19v-475q0 -108 -30 -172t-87 -91t-145 -27q-60 0 -118 11.5t-94 27.5v111h174q54 0 80 18.5t26 67.5v41q-19 -19 -50 -29.5t-65 -10.5q-70 0 -113 25.5t-63.5 84.5t-20.5 159q0 106 20.5 166.5t76 89.5t161.5 29q64 0 120.5 -7zM342 169v228
q-7 3 -20 5t-24 2q-29 0 -44.5 -9.5t-22.5 -37.5t-7 -84q0 -55 6.5 -81t20.5 -34.5t42 -8.5q24 0 49 20z" />
    <glyph glyph-name="gbreve.salt" horiz-adv-x="578" 
d="M408.5 541q56.5 -7 127.5 -19v-475q0 -108 -30 -172t-87 -91t-145 -27q-60 0 -118 11.5t-94 27.5v111h174q54 0 80 18.5t26 67.5v41q-19 -19 -50 -29.5t-65 -10.5q-70 0 -113 25.5t-63.5 84.5t-20.5 159q0 106 20.5 166.5t76 89.5t161.5 29q64 0 120.5 -7zM342 169v228
q-7 3 -20 5t-24 2q-29 0 -44.5 -9.5t-22.5 -37.5t-7 -84q0 -55 6.5 -81t20.5 -34.5t42 -8.5q24 0 49 20zM185.5 659.5q-36.5 39.5 -36.5 117.5h89q0 -37 16 -53.5t39 -16.5q55 0 55 70h91q0 -157 -146 -157q-71 0 -107.5 39.5z" />
    <glyph glyph-name="gcaron.salt" horiz-adv-x="578" 
d="M408.5 541q56.5 -7 127.5 -19v-475q0 -108 -30 -172t-87 -91t-145 -27q-60 0 -118 11.5t-94 27.5v111h174q54 0 80 18.5t26 67.5v41q-19 -19 -50 -29.5t-65 -10.5q-70 0 -113 25.5t-63.5 84.5t-20.5 159q0 106 20.5 166.5t76 89.5t161.5 29q64 0 120.5 -7zM342 169v228
q-7 3 -20 5t-24 2q-29 0 -44.5 -9.5t-22.5 -37.5t-7 -84q0 -55 6.5 -81t20.5 -34.5t42 -8.5q24 0 49 20zM140 777h111l49 -61l50 61h112l-100 -146h-131z" />
    <glyph glyph-name="gcircumflex.salt" horiz-adv-x="578" 
d="M408.5 541q56.5 -7 127.5 -19v-475q0 -108 -30 -172t-87 -91t-145 -27q-60 0 -118 11.5t-94 27.5v111h174q54 0 80 18.5t26 67.5v41q-19 -19 -50 -29.5t-65 -10.5q-70 0 -113 25.5t-63.5 84.5t-20.5 159q0 106 20.5 166.5t76 89.5t161.5 29q64 0 120.5 -7zM342 169v228
q-7 3 -20 5t-24 2q-29 0 -44.5 -9.5t-22.5 -37.5t-7 -84q0 -55 6.5 -81t20.5 -34.5t42 -8.5q24 0 49 20zM238 777h131l91 -146h-111l-49 61l-50 -61h-112z" />
    <glyph glyph-name="gcommaaccent.salt" horiz-adv-x="578" 
d="M408.5 541q56.5 -7 127.5 -19v-475q0 -108 -30 -172t-87 -91t-145 -27q-60 0 -118 11.5t-94 27.5v111h174q54 0 80 18.5t26 67.5v41q-19 -19 -50 -29.5t-65 -10.5q-70 0 -113 25.5t-63.5 84.5t-20.5 159q0 106 20.5 166.5t76 89.5t161.5 29q64 0 120.5 -7zM342 169v228
q-7 3 -20 5t-24 2q-29 0 -44.5 -9.5t-22.5 -37.5t-7 -84q0 -55 6.5 -81t20.5 -34.5t42 -8.5q24 0 49 20zM247.5 737q26.5 34 94.5 34h61v-79l-26 -9q-24 -8 -31.5 -19t-7.5 -39h-117q0 78 26.5 112z" />
    <glyph glyph-name="gdotaccent.salt" horiz-adv-x="578" 
d="M408.5 541q56.5 -7 127.5 -19v-475q0 -108 -30 -172t-87 -91t-145 -27q-60 0 -118 11.5t-94 27.5v111h174q54 0 80 18.5t26 67.5v41q-19 -19 -50 -29.5t-65 -10.5q-70 0 -113 25.5t-63.5 84.5t-20.5 159q0 106 20.5 166.5t76 89.5t161.5 29q64 0 120.5 -7zM342 169v228
q-7 3 -20 5t-24 2q-29 0 -44.5 -9.5t-22.5 -37.5t-7 -84q0 -55 6.5 -81t20.5 -34.5t42 -8.5q24 0 49 20zM235.5 640.5q-6.5 6.5 -6.5 16.5v111q0 12 6 18.5t18 6.5h90q11 0 17 -7t6 -18v-111q0 -11 -6 -17t-17 -6h-90q-11 0 -17.5 6.5z" />
    <glyph glyph-name="uni1E21.salt" horiz-adv-x="578" 
d="M408.5 541q56.5 -7 127.5 -19v-475q0 -108 -30 -172t-87 -91t-145 -27q-60 0 -118 11.5t-94 27.5v111h174q54 0 80 18.5t26 67.5v41q-19 -19 -50 -29.5t-65 -10.5q-70 0 -113 25.5t-63.5 84.5t-20.5 159q0 106 20.5 166.5t76 89.5t161.5 29q64 0 120.5 -7zM342 169v228
q-7 3 -20 5t-24 2q-29 0 -44.5 -9.5t-22.5 -37.5t-7 -84q0 -55 6.5 -81t20.5 -34.5t42 -8.5q24 0 49 20zM149 745h292v-114h-292v114z" />
    <glyph glyph-name="m.salt" horiz-adv-x="900" 
d="M314 548q65 0 102.5 -9.5t73.5 -32.5q34 21 85.5 31.5t98.5 10.5q74 0 114 -24t55 -68.5t15 -115.5v-340h-194v322q0 29 -14 40.5t-39 11.5q-18 0 -35.5 -5.5t-27.5 -15.5v-35v-318h-194v322q0 29 -14 40.5t-39 11.5q-18 0 -35.5 -5.5t-27.5 -15.5v-353h-194v483
q122 65 270 65z" />
    <glyph glyph-name="uni1E41.salt" horiz-adv-x="900" 
d="M314 548q65 0 102.5 -9.5t73.5 -32.5q34 21 85.5 31.5t98.5 10.5q74 0 114 -24t55 -68.5t15 -115.5v-340h-194v322q0 29 -14 40.5t-39 11.5q-18 0 -35.5 -5.5t-27.5 -15.5v-35v-318h-194v322q0 29 -14 40.5t-39 11.5q-18 0 -35.5 -5.5t-27.5 -15.5v-353h-194v483
q122 65 270 65zM406.5 640.5q-6.5 6.5 -6.5 16.5v111q0 12 6 18.5t18 6.5h90q11 0 17 -7t6 -18v-111q0 -11 -6 -17t-17 -6h-90q-11 0 -17.5 6.5z" />
    <glyph glyph-name="uni1E43.salt" horiz-adv-x="900" 
d="M314 548q65 0 102.5 -9.5t73.5 -32.5q34 21 85.5 31.5t98.5 10.5q74 0 114 -24t55 -68.5t15 -115.5v-340h-194v322q0 29 -14 40.5t-39 11.5q-18 0 -35.5 -5.5t-27.5 -15.5v-35v-318h-194v322q0 29 -14 40.5t-39 11.5q-18 0 -35.5 -5.5t-27.5 -15.5v-353h-194v483
q122 65 270 65zM383.5 -229.5q-6.5 6.5 -6.5 16.5v111q0 12 6 18.5t18 6.5h90q11 0 17 -7t6 -18v-111q0 -11 -6 -17t-17 -6h-90q-11 0 -17.5 6.5z" />
    <glyph glyph-name="n.salt" horiz-adv-x="590" 
d="M179 533q66 15 144 15q94 0 143.5 -25.5t65.5 -68t16 -106.5v-348h-194v322q0 29 -14 40.5t-39 11.5q-18 0 -35.5 -5.5t-27.5 -15.5v-353h-194v483q69 35 135 50z" />
    <glyph glyph-name="nacute.salt" horiz-adv-x="590" 
d="M179 533q66 15 144 15q94 0 143.5 -25.5t65.5 -68t16 -106.5v-348h-194v322q0 29 -14 40.5t-39 11.5q-18 0 -35.5 -5.5t-27.5 -15.5v-353h-194v483q69 35 135 50zM313 774h154l-108 -143h-114z" />
    <glyph glyph-name="ncaron.salt" horiz-adv-x="590" 
d="M179 533q66 15 144 15q94 0 143.5 -25.5t65.5 -68t16 -106.5v-348h-194v322q0 29 -14 40.5t-39 11.5q-18 0 -35.5 -5.5t-27.5 -15.5v-353h-194v483q69 35 135 50zM135 777h111l49 -61l50 61h112l-100 -146h-131z" />
    <glyph glyph-name="ncommaaccent.salt" horiz-adv-x="590" 
d="M179 533q66 15 144 15q94 0 143.5 -25.5t65.5 -68t16 -106.5v-348h-194v322q0 29 -14 40.5t-39 11.5q-18 0 -35.5 -5.5t-27.5 -15.5v-353h-194v483q69 35 135 50zM206 -146l26 9q24 8 31.5 19t7.5 39h117q0 -78 -26.5 -112t-94.5 -34h-61v79z" />
    <glyph glyph-name="uni1E45.salt" horiz-adv-x="590" 
d="M179 533q66 15 144 15q94 0 143.5 -25.5t65.5 -68t16 -106.5v-348h-194v322q0 29 -14 40.5t-39 11.5q-18 0 -35.5 -5.5t-27.5 -15.5v-353h-194v483q69 35 135 50zM227.5 -229.5q-6.5 6.5 -6.5 16.5v111q0 12 6 18.5t18 6.5h90q11 0 17 -7t6 -18v-111q0 -11 -6 -17t-17 -6
h-90q-11 0 -17.5 6.5z" />
    <glyph glyph-name="uni1E47.salt" horiz-adv-x="590" 
d="M179 533q66 15 144 15q94 0 143.5 -25.5t65.5 -68t16 -106.5v-348h-194v322q0 29 -14 40.5t-39 11.5q-18 0 -35.5 -5.5t-27.5 -15.5v-353h-194v483q69 35 135 50zM227.5 -229.5q-6.5 6.5 -6.5 16.5v111q0 12 6 18.5t18 6.5h90q11 0 17 -7t6 -18v-111q0 -11 -6 -17t-17 -6
h-90q-11 0 -17.5 6.5z" />
    <glyph glyph-name="uni1E49.salt" horiz-adv-x="590" 
d="M179 533q66 15 144 15q94 0 143.5 -25.5t65.5 -68t16 -106.5v-348h-194v322q0 29 -14 40.5t-39 11.5q-18 0 -35.5 -5.5t-27.5 -15.5v-353h-194v483q69 35 135 50zM154 -115h292v-114h-292v114z" />
    <glyph glyph-name="ntilde.salt" horiz-adv-x="590" 
d="M179 533q66 15 144 15q94 0 143.5 -25.5t65.5 -68t16 -106.5v-348h-194v322q0 29 -14 40.5t-39 11.5q-18 0 -35.5 -5.5t-27.5 -15.5v-353h-194v483q69 35 135 50zM141.5 727.5q29.5 34.5 76.5 34.5q26 0 45.5 -6t40.5 -16q17 -8 29 -11.5t25 -3.5q28 0 31 44h96
q-7 -150 -108 -150q-25 0 -46.5 6t-44.5 17q-3 1 -19.5 7.5t-30.5 6.5q-27 0 -33 -39h-96q5 76 34.5 110.5z" />
    <glyph glyph-name="p.salt" horiz-adv-x="580" 
d="M44 483q62 33 127 49t140 16q94 0 145.5 -30t72.5 -90t21 -160q0 -91 -16 -150.5t-58 -92.5t-116 -33q-71 0 -122 25v-254h-194v720zM338 173.5q18 22.5 18 84.5q0 78 -15 106.5t-46 28.5q-29 0 -57 -10v-217q9 -6 24.5 -10.5t28.5 -4.5q29 0 47 22.5z" />
    <glyph glyph-name="uni1E57.salt" horiz-adv-x="580" 
d="M44 483q62 33 127 49t140 16q94 0 145.5 -30t72.5 -90t21 -160q0 -91 -16 -150.5t-58 -92.5t-116 -33q-71 0 -122 25v-254h-194v720zM338 173.5q18 22.5 18 84.5q0 78 -15 106.5t-46 28.5q-29 0 -57 -10v-217q9 -6 24.5 -10.5t28.5 -4.5q29 0 47 22.5zM225.5 640.5
q-6.5 6.5 -6.5 16.5v111q0 12 6 18.5t18 6.5h90q11 0 17 -7t6 -18v-111q0 -11 -6 -17t-17 -6h-90q-11 0 -17.5 6.5z" />
    <glyph glyph-name="r.salt" horiz-adv-x="376" 
d="M157 529q65 17 134 17q44 0 79 -4v-177q-36 4 -52 4q-46 0 -80 -12v-357h-194v483q48 29 113 46z" />
    <glyph glyph-name="racute.salt" horiz-adv-x="376" 
d="M157 529q65 17 134 17q44 0 79 -4v-177q-36 4 -52 4q-46 0 -80 -12v-357h-194v483q48 29 113 46zM223 774h154l-108 -143h-114z" />
    <glyph glyph-name="rcaron.salt" horiz-adv-x="376" 
d="M157 529q65 17 134 17q44 0 79 -4v-177q-36 4 -52 4q-46 0 -80 -12v-357h-194v483q48 29 113 46zM45 777h111l49 -61l50 61h112l-100 -146h-131z" />
    <glyph glyph-name="rcommaaccent.salt" horiz-adv-x="376" 
d="M157 529q65 17 134 17q44 0 79 -4v-177q-36 4 -52 4q-46 0 -80 -12v-357h-194v483q48 29 113 46zM52 -146l26 9q24 8 31.5 19t7.5 39h117q0 -78 -26.5 -112t-94.5 -34h-61v79z" />
    <glyph glyph-name="uni0211.salt" horiz-adv-x="376" 
d="M157 529q65 17 134 17q44 0 79 -4v-177q-36 4 -52 4q-46 0 -80 -12v-357h-194v483q48 29 113 46zM-44 774h154l68 -143h-114zM156 774h154l68 -143h-114z" />
    <glyph glyph-name="uni1E5B.salt" horiz-adv-x="376" 
d="M157 529q65 17 134 17q44 0 79 -4v-177q-36 4 -52 4q-46 0 -80 -12v-357h-194v483q48 29 113 46zM73.5 -229.5q-6.5 6.5 -6.5 16.5v111q0 12 6 18.5t18 6.5h90q11 0 17 -7t6 -18v-111q0 -11 -6 -17t-17 -6h-90q-11 0 -17.5 6.5z" />
    <glyph glyph-name="uni0213.salt" horiz-adv-x="376" 
d="M157 529q65 17 134 17q44 0 79 -4v-177q-36 4 -52 4q-46 0 -80 -12v-357h-194v483q48 29 113 46zM317.5 740.5q36.5 -39.5 36.5 -117.5h-89q0 37 -16 53.5t-39 16.5q-55 0 -55 -70h-91q0 157 146 157q71 0 107.5 -39.5z" />
    <glyph glyph-name="uni1E5F.salt" horiz-adv-x="376" 
d="M157 529q65 17 134 17q44 0 79 -4v-177q-36 4 -52 4q-46 0 -80 -12v-357h-194v483q48 29 113 46zM0 -115h292v-114h-292v114z" />
    </font>
</defs>
</svg>
